osu file format v14

[General]
AudioFilename: audio.mp3
AudioLeadIn: 0
PreviewTime: 48294
Countdown: 0
SampleSet: Normal
StackLeniency: 0.2
Mode: 1
LetterboxInBreaks: 0
WidescreenStoryboard: 1

[Editor]
DistanceSpacing: 1
BeatDivisor: 4
GridSize: 32
TimelineZoom: 1.5

[Metadata]
Title:Black Rover (TV Size)
TitleUnicode:Black Rover (TV Size)
Artist:Vickeblanka
ArtistUnicode:ビッケブランカ
Creator:Sotarks
Version:Nao's Oni
Source:ブラッククローバー
Tags:clover opening op akitoshi corinn -laura- doormat lami intoon mir nevo snownino_ shunao shogunmoon naotoshi nao_tomori
BeatmapID:1666641
BeatmapSetID:781509

[Difficulty]
HPDrainRate:6
CircleSize:2
OverallDifficulty:5
ApproachRate:7
SliderMultiplier:1.4
SliderTickRate:1

[Events]
//Background and Video events
0,0,"BG.jpg",0,0
//Break Periods
//Storyboard Layer 0 (Background)
//Storyboard Layer 1 (Fail)
//Storyboard Layer 2 (Pass)
//Storyboard Layer 3 (Foreground)
//Storyboard Sound Samples

[TimingPoints]
1022,294.117647058824,4,1,0,42,1,0
1022,-133.333333333333,4,1,0,42,0,0
5727,-133.333333333333,4,1,0,42,0,0
7333,-100,4,1,0,52,0,0
7344,255.31914893617,4,1,0,62,1,8
7344,-115.194102061974,4,1,0,62,0,0
7471,335.195530726257,4,1,0,62,1,8
7471,-87.7963125548727,4,1,0,62,0,0
7638,250,4,1,0,62,1,8
7638,-117.647058823529,4,1,0,62,0,0
7763,294.117647058824,4,1,0,62,1,8
7905,-100,4,1,0,72,0,0
7918,329.67032967033,4,1,0,72,1,8
7918,-89.2060660124888,4,1,0,72,0,0
8082,329.67032967033,4,1,0,72,1,0
8082,-89.2857142857143,4,1,0,72,0,0
8247,294.117647058824,4,1,0,72,1,8
8368,294.117647058824,4,1,0,72,1,8
9250,294.117647058824,4,1,0,72,1,0
17463,-100,4,1,0,52,0,0
17632,-114.942528735632,4,1,0,52,0,0
18073,-123.456790123457,4,1,0,52,0,0
18514,-133.333333333333,4,1,0,52,0,0
18930,-133.333333333333,4,1,0,52,0,0
19827,-133.333333333333,4,1,0,52,0,0
22193,-133.333333333333,4,1,0,52,0,0
22474,-133.333333333333,4,1,0,52,0,0
23058,-133.333333333333,4,1,0,52,0,0
24530,-133.333333333333,4,1,0,52,0,0
25407,-133.333333333333,4,1,0,52,0,0
26004,294.117647058824,4,1,0,52,1,8
26004,-133.333333333333,4,1,0,52,0,0
26897,294.117647058824,4,1,0,62,1,0
26897,-133.333333333333,4,1,0,62,0,0
26997,-114.942528735632,4,1,0,62,0,0
36290,-114.942528735632,4,1,0,52,0,0
36455,-114.942528735632,4,1,0,52,0,0
45702,-114.942528735632,4,1,0,42,0,0
47328,294.117647058824,4,1,0,72,1,8
47328,-100,4,1,0,72,0,0
47475,346.820809248555,4,1,0,72,1,8
47475,-84.8176420695505,4,1,0,72,0,0
47648,250,4,1,0,72,1,8
47648,-117.647058823529,4,1,0,72,0,8
47773,306.122448979592,4,1,0,72,1,8
47773,-96.061479346782,4,1,0,72,0,8
47926,294.117647058824,4,1,0,82,1,8
47926,-100,4,1,0,82,0,1
48073,294.117647058824,4,1,0,82,1,1
48367,-100,4,1,0,82,0,1
66870,-100,4,1,0,92,0,1
72768,294.117647058824,4,1,0,92,1,1
76297,294.117647058824,4,1,0,92,1,9
76310,294.117647058824,4,1,0,92,1,1
76457,-100,4,1,0,62,0,0
78810,-114.942528735632,4,1,0,62,0,0
85679,-114.942528735632,4,1,0,52,0,0
86415,-100,4,1,0,5,0,0

[Colours]
Combo1 : 224,214,214
Combo2 : 255,17,17
Combo3 : 135,255,47
Combo4 : 36,244,255

[HitObjects]
256,192,1022,5,0,0:0:0:0:
256,192,1316,1,0,0:0:0:0:
256,192,1610,1,8,0:0:0:0:
256,192,1904,1,8,0:0:0:0:
256,192,2198,1,0,0:0:0:0:
256,192,2492,1,0,0:0:0:0:
256,192,2786,1,8,0:0:0:0:
256,192,3080,1,8,0:0:0:0:
256,192,3374,1,0,0:0:0:0:
256,192,3669,1,0,0:0:0:0:
256,192,3963,1,8,0:0:0:0:
256,192,4257,1,8,0:0:0:0:
256,192,4551,1,0,0:0:0:0:
256,192,4845,1,0,0:0:0:0:
256,192,4992,1,0,0:0:0:0:
256,192,5139,1,8,0:0:0:0:
256,192,5433,1,8,0:0:0:0:
256,192,5727,1,0,0:0:0:0:
256,192,6021,1,0,0:0:0:0:
256,192,6315,1,8,0:0:0:0:
256,192,6609,1,8,0:0:0:0:
256,192,6756,1,0,0:0:0:0:
256,192,6903,1,8,0:0:0:0:
256,192,7197,1,8,0:0:0:0:
256,192,7344,1,0,0:0:0:0:
256,192,7407,1,0,0:0:0:0:
256,192,7471,1,8,0:0:0:0:
256,192,7638,1,0,0:0:0:0:
256,192,7763,1,0,0:0:0:0:
256,192,7918,1,12,0:0:0:0:
256,192,8247,1,0,0:0:0:0:
256,192,8368,1,8,0:0:0:0:
256,192,8515,1,8,0:0:0:0:
256,192,8662,1,0,0:0:0:0:
256,192,8809,1,0,0:0:0:0:
256,192,8956,1,8,0:0:0:0:
256,192,9250,1,0,0:0:0:0:
256,192,9397,1,8,0:0:0:0:
256,192,9544,1,8,0:0:0:0:
256,192,9691,1,0,0:0:0:0:
256,192,9838,1,8,0:0:0:0:
256,192,9985,1,0,0:0:0:0:
256,192,10132,1,0,0:0:0:0:
256,192,10279,1,8,0:0:0:0:
256,192,10573,1,8,0:0:0:0:
256,192,10720,1,0,0:0:0:0:
256,192,10867,1,0,0:0:0:0:
256,192,10941,1,0,0:0:0:0:
256,192,11014,1,8,0:0:0:0:
256,192,11161,1,8,0:0:0:0:
256,192,11308,1,0,0:0:0:0:
256,192,11602,1,0,0:0:0:0:
256,192,11750,1,8,0:0:0:0:
256,192,11897,1,8,0:0:0:0:
256,192,12044,1,0,0:0:0:0:
256,192,12117,1,0,0:0:0:0:
256,192,12191,1,0,0:0:0:0:
256,192,12338,1,8,0:0:0:0:
256,192,12485,1,0,0:0:0:0:
256,192,12632,1,8,0:0:0:0:
256,192,12926,1,8,0:0:0:0:
256,192,13073,1,0,0:0:0:0:
256,192,13220,1,0,0:0:0:0:
256,192,13367,1,8,0:0:0:0:
256,192,13514,1,8,0:0:0:0:
256,192,13588,1,8,0:0:0:0:
256,192,13661,1,0,0:0:0:0:
256,192,13808,1,0,0:0:0:0:
256,192,14102,1,0,0:0:0:0:
256,192,14250,1,8,0:0:0:0:
256,192,14397,1,8,0:0:0:0:
256,192,14544,1,0,0:0:0:0:
256,192,14691,1,0,0:0:0:0:
256,192,14764,1,0,0:0:0:0:
256,192,14838,1,8,0:0:0:0:
256,192,14985,1,8,0:0:0:0:
256,192,15132,1,0,0:0:0:0:
256,192,15352,1,0,0:0:0:0:
256,192,15573,1,0,0:0:0:0:
256,192,15720,1,8,0:0:0:0:
256,192,15867,1,8,0:0:0:0:
256,192,16014,1,0,0:0:0:0:
256,192,16308,1,0,0:0:0:0:
256,192,16455,1,0,0:0:0:0:
256,192,16529,1,0,0:0:0:0:
256,192,16602,1,8,0:0:0:0:
256,192,16750,1,8,0:0:0:0:
256,192,16897,1,0,0:0:0:0:
256,192,17191,1,0,0:0:0:0:
256,192,17264,1,0,0:0:0:0:
256,192,17338,1,0,0:0:0:0:
256,192,17411,1,0,0:0:0:0:
256,192,17485,1,8,0:0:0:0:
256,192,17779,1,0,0:0:0:0:
256,192,17926,1,0,0:0:0:0:
256,192,18220,1,0,0:0:0:0:
256,192,18367,1,8,0:0:0:0:
256,192,18661,1,8,0:0:0:0:
256,192,18808,1,0,0:0:0:0:
256,192,18955,1,8,0:0:0:0:
256,192,19250,1,0,0:0:0:0:
256,192,19397,1,0,0:0:0:0:
256,192,19544,1,8,0:0:0:0:
256,192,19691,1,0,0:0:0:0:
244,182,19764,1,0,0:0:0:0:
256,192,19838,1,8,0:0:0:0:
256,192,20132,1,8,0:0:0:0:
256,192,20279,1,0,0:0:0:0:
256,192,20573,1,0,0:0:0:0:
256,192,20720,1,8,0:0:0:0:
256,192,21014,1,0,0:0:0:0:
256,192,21161,1,0,0:0:0:0:
256,192,21308,1,8,0:0:0:0:
256,192,21602,1,0,0:0:0:0:
256,192,21749,1,0,0:0:0:0:
256,192,21896,1,8,0:0:0:0:
256,192,22044,1,0,0:0:0:0:
256,192,22117,1,0,0:0:0:0:
256,192,22191,1,8,0:0:0:0:
256,192,22485,1,8,0:0:0:0:
256,192,22632,1,0,0:0:0:0:
256,192,22926,1,0,0:0:0:0:
256,192,23073,1,8,0:0:0:0:
256,192,23367,1,8,0:0:0:0:
256,192,23514,1,0,0:0:0:0:
256,192,23661,1,8,0:0:0:0:
256,192,23955,1,0,0:0:0:0:
256,192,24102,1,0,0:0:0:0:
256,192,24250,1,8,0:0:0:0:
256,192,24397,1,8,0:0:0:0:
256,192,24470,1,8,0:0:0:0:
256,192,24544,1,0,0:0:0:0:
256,192,24838,1,8,0:0:0:0:
256,192,24985,1,0,0:0:0:0:
256,192,25279,1,0,0:0:0:0:
256,192,25426,1,8,0:0:0:0:
256,192,25720,1,0,0:0:0:0:
256,192,25867,1,0,0:0:0:0:
256,192,26004,1,8,0:0:0:0:
256,192,26298,1,8,0:0:0:0:
256,192,26445,1,8,0:0:0:0:
256,192,26592,1,8,0:0:0:0:
256,192,26739,1,8,0:0:0:0:
256,192,26897,1,4,0:0:0:0:
256,192,27191,1,0,0:0:0:0:
256,192,27338,1,0,0:0:0:0:
256,192,27485,1,8,0:0:0:0:
256,192,27632,1,0,0:0:0:0:
256,192,27779,1,8,0:0:0:0:
256,192,27926,1,8,0:0:0:0:
256,192,28073,1,0,0:0:0:0:
256,192,28220,1,0,0:0:0:0:
256,192,28367,1,8,0:0:0:0:
256,192,28441,1,0,0:0:0:0:
256,192,28514,1,8,0:0:0:0:
256,192,28808,1,8,0:0:0:0:
256,192,28955,1,0,0:0:0:0:
256,192,29102,1,0,0:0:0:0:
256,192,29249,1,8,0:0:0:0:
256,192,29397,1,0,0:0:0:0:
256,192,29544,1,8,0:0:0:0:
256,192,29838,1,8,0:0:0:0:
256,192,29985,1,0,0:0:0:0:
256,192,30132,1,8,0:0:0:0:
256,192,30279,1,0,0:0:0:0:
256,192,30426,1,8,0:0:0:0:
256,192,30573,1,8,0:0:0:0:
256,192,30720,1,0,0:0:0:0:
256,192,30794,1,8,0:0:0:0:
256,192,30867,1,0,0:0:0:0:
256,192,31161,1,0,0:0:0:0:
256,192,31235,1,0,0:0:0:0:
256,192,31308,1,8,0:0:0:0:
256,192,31455,1,8,0:0:0:0:
256,192,31602,1,0,0:0:0:0:
256,192,31897,1,0,0:0:0:0:
256,192,32044,1,0,0:0:0:0:
256,192,32191,1,8,0:0:0:0:
256,192,32338,1,0,0:0:0:0:
256,192,32485,1,8,0:0:0:0:
256,192,32632,1,8,0:0:0:0:
256,192,32779,1,0,0:0:0:0:
256,192,32926,1,8,0:0:0:0:
256,192,32999,1,0,0:0:0:0:
256,192,33073,1,8,0:0:0:0:
256,192,33220,1,8,0:0:0:0:
256,192,33514,1,8,0:0:0:0:
256,192,33661,1,0,0:0:0:0:
256,192,33808,1,0,0:0:0:0:
256,192,33955,1,8,0:0:0:0:
256,192,34176,1,0,0:0:0:0:
256,192,34397,1,0,0:0:0:0:
256,192,34544,1,8,0:0:0:0:
256,192,34764,1,0,0:0:0:0:
256,192,34985,1,0,0:0:0:0:
256,192,35132,1,8,0:0:0:0:
256,192,35279,1,0,0:0:0:0:
256,192,35426,1,8,0:0:0:0:
256,192,35720,1,8,0:0:0:0:
256,192,35867,1,8,0:0:0:0:
256,192,36014,1,0,0:0:0:0:
256,192,36161,1,0,0:0:0:0:
256,192,36308,1,12,0:0:0:0:
256,192,36897,1,8,0:0:0:0:
256,192,37191,1,0,0:0:0:0:
256,192,37338,1,0,0:0:0:0:
256,192,37485,1,8,0:0:0:0:
256,192,37779,1,8,0:0:0:0:
256,192,38073,1,8,0:0:0:0:
256,192,38220,1,0,0:0:0:0:
256,192,38367,1,0,0:0:0:0:
256,192,38661,1,8,0:0:0:0:
256,192,39102,1,0,0:0:0:0:
256,192,39249,1,8,0:0:0:0:
256,192,39544,1,0,0:0:0:0:
256,192,39691,1,8,0:0:0:0:
256,192,39985,1,8,0:0:0:0:
256,192,40132,1,0,0:0:0:0:
256,192,40279,1,8,0:0:0:0:
256,192,40426,1,8,0:0:0:0:
256,192,40573,1,0,0:0:0:0:
256,192,40867,1,0,0:0:0:0:
256,192,41014,1,8,0:0:0:0:
256,192,41308,1,8,0:0:0:0:
256,192,41602,1,0,0:0:0:0:
256,192,41749,1,0,0:0:0:0:
256,192,41897,1,8,0:0:0:0:
256,192,42191,1,0,0:0:0:0:
256,192,42485,1,8,0:0:0:0:
256,192,42779,1,0,0:0:0:0:
256,192,42926,1,0,0:0:0:0:
256,192,43074,1,8,0:0:0:0:
256,192,43367,1,0,0:0:0:0:
256,192,43661,1,8,0:0:0:0:
256,192,43955,1,0,0:0:0:0:
256,192,44102,1,0,0:0:0:0:
256,192,44250,1,8,0:0:0:0:
256,192,44397,1,8,0:0:0:0:
256,192,44544,1,0,0:0:0:0:
256,192,44838,1,8,0:0:0:0:
256,192,45132,1,0,0:0:0:0:
256,192,45279,1,0,0:0:0:0:
256,192,45427,1,8,0:0:0:0:
256,192,45720,1,4,0:0:0:0:
256,192,47328,1,0,0:0:0:0:
256,192,47401,1,0,0:0:0:0:
256,192,47475,1,8,0:0:0:0:
256,192,47648,1,0,0:0:0:0:
256,192,47773,1,0,0:0:0:0:
256,192,47926,1,12,0:0:0:0:
256,192,48220,1,0,0:0:0:0:
256,192,48367,1,8,0:0:0:0:
256,192,48514,1,8,0:0:0:0:
256,192,48661,1,0,0:0:0:0:
256,192,48808,1,0,0:0:0:0:
256,192,48882,1,0,0:0:0:0:
256,192,48955,1,8,0:0:0:0:
256,192,49249,1,8,0:0:0:0:
256,192,49397,1,0,0:0:0:0:
256,192,49544,1,8,0:0:0:0:
256,192,49691,1,8,0:0:0:0:
256,192,49764,1,8,0:0:0:0:
256,192,49838,1,0,0:0:0:0:
256,192,49985,1,0,0:0:0:0:
256,192,50132,1,8,0:0:0:0:
256,192,50205,1,0,0:0:0:0:
256,192,50279,1,8,0:0:0:0:
256,192,50573,1,0,0:0:0:0:
256,192,50720,1,8,0:0:0:0:
256,192,50867,1,8,0:0:0:0:
256,192,50941,1,8,0:0:0:0:
256,192,51014,1,0,0:0:0:0:
256,192,51161,1,0,0:0:0:0:
256,192,51308,5,8,0:0:0:0:
256,192,51602,1,0,0:0:0:0:
256,192,51749,1,0,0:0:0:0:
256,192,51897,1,8,0:0:0:0:
256,192,52044,1,8,0:0:0:0:
256,192,52117,1,8,0:0:0:0:
256,192,52191,1,0,0:0:0:0:
256,192,52338,1,0,0:0:0:0:
256,192,52411,1,0,0:0:0:0:
256,192,52485,1,8,0:0:0:0:
256,192,52632,1,0,0:0:0:0:
256,192,52926,1,0,0:0:0:0:
256,192,53073,1,8,0:0:0:0:
256,192,53220,1,8,0:0:0:0:
256,192,53294,1,8,0:0:0:0:
256,192,53367,1,0,0:0:0:0:
256,192,53514,1,0,0:0:0:0:
256,192,53661,1,8,0:0:0:0:
256,192,53955,1,8,0:0:0:0:
256,192,54102,1,0,0:0:0:0:
256,192,54249,1,8,0:0:0:0:
256,192,54397,1,8,0:0:0:0:
256,192,54470,1,8,0:0:0:0:
256,192,54544,1,0,0:0:0:0:
256,192,54691,1,0,0:0:0:0:
256,192,54838,1,8,0:0:0:0:
256,192,54985,1,4,0:0:0:0:
256,192,55279,1,0,0:0:0:0:
256,192,55426,1,8,0:0:0:0:
256,192,55573,1,0,0:0:0:0:
256,192,55647,1,0,0:0:0:0:
256,192,55720,1,8,0:0:0:0:
256,192,55867,1,0,0:0:0:0:
256,192,56014,1,8,0:0:0:0:
256,160,56088,1,8,0:0:0:0:
256,192,56161,1,0,0:0:0:0:
256,160,56235,1,0,0:0:0:0:
256,192,56308,1,8,0:0:0:0:
256,160,56602,1,8,0:0:0:0:
256,160,56897,1,0,0:0:0:0:
256,160,57044,1,0,0:0:0:0:
256,160,57191,1,0,0:0:0:0:
256,160,57338,1,12,0:0:0:0:
256,160,57632,1,0,0:0:0:0:
256,192,57779,1,8,0:0:0:0:
256,192,57926,1,8,0:0:0:0:
256,192,58073,1,0,0:0:0:0:
256,192,58220,1,0,0:0:0:0:
256,192,58294,1,0,0:0:0:0:
256,192,58367,1,8,0:0:0:0:
256,192,58661,1,8,0:0:0:0:
256,192,58809,1,0,0:0:0:0:
256,192,58956,1,8,0:0:0:0:
256,192,59103,1,8,0:0:0:0:
256,192,59176,1,8,0:0:0:0:
256,192,59250,1,0,0:0:0:0:
256,192,59397,1,0,0:0:0:0:
256,192,59544,1,8,0:0:0:0:
256,192,59617,1,0,0:0:0:0:
256,192,59691,1,8,0:0:0:0:
256,192,59985,1,0,0:0:0:0:
256,192,60132,1,8,0:0:0:0:
256,192,60279,1,0,0:0:0:0:
256,192,60426,1,8,0:0:0:0:
256,192,60499,1,8,0:0:0:0:
256,192,60573,1,0,0:0:0:0:
256,192,60647,1,0,0:0:0:0:
256,192,60720,1,8,0:0:0:0:
256,192,60867,1,8,0:0:0:0:
256,192,61014,1,0,0:0:0:0:
256,192,61308,1,8,0:0:0:0:
256,192,61455,1,8,0:0:0:0:
256,192,61529,1,8,0:0:0:0:
256,192,61602,1,0,0:0:0:0:
256,192,61749,1,0,0:0:0:0:
256,192,61823,1,0,0:0:0:0:
256,192,61897,1,8,0:0:0:0:
256,192,62044,1,0,0:0:0:0:
256,192,62338,1,0,0:0:0:0:
256,192,62485,1,8,0:0:0:0:
256,192,62632,1,8,0:0:0:0:
256,192,62779,1,0,0:0:0:0:
256,192,62926,1,0,0:0:0:0:
256,192,62999,1,0,0:0:0:0:
256,192,63073,1,8,0:0:0:0:
256,192,63220,1,0,0:0:0:0:
256,192,63367,1,8,0:0:0:0:
256,192,63514,1,0,0:0:0:0:
256,192,63661,1,8,0:0:0:0:
256,192,63808,1,8,0:0:0:0:
256,192,63882,1,8,0:0:0:0:
256,192,63955,1,0,0:0:0:0:
256,192,64102,1,0,0:0:0:0:
256,192,64249,1,8,0:0:0:0:
256,192,64397,1,4,0:0:0:0:
256,192,64691,1,0,0:0:0:0:
256,192,64838,1,8,0:0:0:0:
256,192,64985,1,8,0:0:0:0:
256,192,65132,1,0,0:0:0:0:
256,192,65279,1,0,0:0:0:0:
256,192,65352,1,0,0:0:0:0:
256,192,65426,1,8,0:0:0:0:
256,192,65499,1,0,0:0:0:0:
256,192,65573,1,0,0:0:0:0:
256,192,65647,1,0,0:0:0:0:
256,192,65720,1,8,0:0:0:0:
256,192,66014,1,8,0:0:0:0:
256,192,66161,1,0,0:0:0:0:
256,192,66235,1,0,0:0:0:0:
256,192,66308,1,8,0:0:0:0:
256,192,66382,1,8,0:0:0:0:
256,192,66455,1,8,0:0:0:0:
256,192,66529,1,8,0:0:0:0:
256,192,66602,1,0,0:0:0:0:
256,192,66749,1,0,0:0:0:0:
256,192,66897,1,12,0:0:0:0:
256,192,67191,1,8,0:0:0:0:
256,192,67338,1,0,0:0:0:0:
256,192,67485,1,8,0:0:0:0:
256,192,67558,1,0,0:0:0:0:
256,192,67632,1,0,0:0:0:0:
256,192,67705,1,0,0:0:0:0:
256,192,67779,1,8,0:0:0:0:
256,192,67926,1,0,0:0:0:0:
256,192,68073,1,8,0:0:0:0:
256,192,68147,1,8,0:0:0:0:
256,192,68220,1,0,0:0:0:0:
256,192,68367,1,8,0:0:0:0:
256,192,68514,1,0,0:0:0:0:
256,192,68661,1,8,0:0:0:0:
256,192,68735,1,0,0:0:0:0:
256,192,68808,1,8,0:0:0:0:
256,192,69102,1,0,0:0:0:0:
256,192,69249,1,8,0:0:0:0:
256,192,69323,1,8,0:0:0:0:
256,192,69396,1,0,0:0:0:0:
256,192,69470,1,0,0:0:0:0:
256,192,69544,1,8,0:0:0:0:
256,192,69691,1,0,0:0:0:0:
256,192,69838,1,8,0:0:0:0:
256,192,69911,1,0,0:0:0:0:
256,192,69985,1,0,0:0:0:0:
256,192,70132,1,8,0:0:0:0:
256,192,70279,1,8,0:0:0:0:
256,192,70352,1,8,0:0:0:0:
256,192,70426,1,8,0:0:0:0:
256,192,70573,1,0,0:0:0:0:
256,192,70720,1,8,0:0:0:0:
256,192,70794,1,0,0:0:0:0:
256,192,70867,1,8,0:0:0:0:
256,192,71161,1,8,0:0:0:0:
256,192,71308,1,0,0:0:0:0:
256,192,71455,1,0,0:0:0:0:
256,192,71529,1,0,0:0:0:0:
256,192,71602,1,8,0:0:0:0:
256,192,71749,1,8,0:0:0:0:
256,192,71897,1,0,0:0:0:0:
256,192,72044,1,0,0:0:0:0:
256,192,72117,1,0,0:0:0:0:
256,192,72191,1,8,0:0:0:0:
256,192,72338,1,0,0:0:0:0:
256,192,72485,1,8,0:0:0:0:
256,192,72632,1,8,0:0:0:0:
256,192,72768,1,0,0:0:0:0:
256,192,72915,1,0,0:0:0:0:
256,192,72988,1,0,0:0:0:0:
256,192,73062,1,8,0:0:0:0:
256,192,73209,1,0,0:0:0:0:
256,192,73356,1,8,0:0:0:0:
256,192,73429,1,8,0:0:0:0:
256,192,73503,1,0,0:0:0:0:
256,192,73576,1,0,0:0:0:0:
256,192,73650,1,8,0:0:0:0:
256,192,73944,1,8,0:0:0:0:
256,192,74091,1,0,0:0:0:0:
256,192,74238,1,8,0:0:0:0:
256,192,74385,1,0,0:0:0:0:
256,192,74532,1,8,0:0:0:0:
256,192,74679,1,8,0:0:0:0:
256,192,74753,1,8,0:0:0:0:
256,192,74826,1,0,0:0:0:0:
256,192,74973,1,0,0:0:0:0:
256,192,75047,1,0,0:0:0:0:
256,192,75120,1,8,0:0:0:0:
256,192,75268,1,0,0:0:0:0:
256,192,75415,1,8,0:0:0:0:
256,192,75562,1,8,0:0:0:0:
256,192,75635,1,8,0:0:0:0:
256,192,75709,1,0,0:0:0:0:
256,192,75856,1,0,0:0:0:0:
256,192,76003,1,8,0:0:0:0:
256,192,76150,1,0,0:0:0:0:
256,192,76310,1,12,0:0:0:0:
256,192,77486,1,4,0:0:0:0:
256,192,78074,1,0,0:0:0:0:
256,192,78221,1,8,0:0:0:0:
256,192,78270,1,8,0:0:0:0:
256,192,78319,1,8,0:0:0:0:
256,192,78368,1,0,0:0:0:0:
256,192,78662,1,12,0:0:0:0:
256,192,78957,1,0,0:0:0:0:
256,192,79104,1,8,0:0:0:0:
256,192,79251,1,8,0:0:0:0:
256,192,79398,1,0,0:0:0:0:
256,192,79545,1,0,0:0:0:0:
256,192,79839,1,0,0:0:0:0:
256,192,79986,1,0,0:0:0:0:
256,192,80133,1,0,0:0:0:0:
256,192,80280,1,0,0:0:0:0:
256,192,80427,1,8,0:0:0:0:
256,192,80574,1,0,0:0:0:0:
256,192,80721,1,0,0:0:0:0:
256,192,81015,1,8,0:0:0:0:
256,192,81310,1,8,0:0:0:0:
256,192,81457,1,0,0:0:0:0:
256,192,81604,1,8,0:0:0:0:
256,192,81751,1,0,0:0:0:0:
256,192,81898,1,8,0:0:0:0:
256,192,82192,1,0,0:0:0:0:
256,192,82339,1,0,0:0:0:0:
256,192,82486,1,0,0:0:0:0:
256,192,82633,1,0,0:0:0:0:
256,192,82780,1,8,0:0:0:0:
256,192,82927,1,0,0:0:0:0:
256,192,83074,1,0,0:0:0:0:
256,192,83368,1,8,0:0:0:0:
256,192,83662,1,0,0:0:0:0:
256,192,83810,1,8,0:0:0:0:
256,192,83883,1,0,0:0:0:0:
256,192,83957,1,8,0:0:0:0:
256,192,84104,1,8,0:0:0:0:
256,192,84251,1,0,0:0:0:0:
256,192,84545,1,0,0:0:0:0:
256,192,84692,1,0,0:0:0:0:
256,192,84839,1,0,0:0:0:0:
256,192,84986,1,0,0:0:0:0:
256,192,85133,1,8,0:0:0:0:
256,192,85280,1,0,0:0:0:0:
256,192,85427,1,0,0:0:0:0:
256,192,85721,1,8,0:0:0:0:
