osu file format v14

[General]
AudioFilename: audio.mp3
AudioLeadIn: 0
PreviewTime: 48294
Countdown: 0
SampleSet: Soft
StackLeniency: 0.7
Mode: 0
LetterboxInBreaks: 0
WidescreenStoryboard: 1

[Editor]
DistanceSpacing: 0.3
BeatDivisor: 4
GridSize: 32
TimelineZoom: 2.799999

[Metadata]
Title:Black Rover (TV Size)
TitleUnicode:Black Rover (TV Size)
Artist:Vickeblanka
ArtistUnicode:ビッケブランカ
Creator:Sotarks
Version:Mir's Expert
Source:ブラッククローバー
Tags:clover opening op akitoshi corinn -laura- doormat lami intoon mir nevo snownino_ shunao shogunmoon naotoshi nao_tomori
BeatmapID:1642169
BeatmapSetID:781509

[Difficulty]
HPDrainRate:5.2
CircleSize:3.8
OverallDifficulty:8.5
ApproachRate:9
SliderMultiplier:2.02
SliderTickRate:1

[Events]
//Background and Video events
Video,0,"video.avi"
0,0,"BG.jpg",0,0
//Break Periods
//Storyboard Layer 0 (Background)
//Storyboard Layer 1 (Fail)
//Storyboard Layer 2 (Pass)
//Storyboard Layer 3 (Foreground)
//Storyboard Sound Samples

[TimingPoints]
1022,294.117647058824,4,2,22,42,1,0
1022,-200,4,2,22,42,0,0
3951,-200,4,2,22,42,0,0
7344,255.31914893617,4,2,22,42,1,0
7344,-200,4,2,22,62,0,0
7471,335.195530726257,4,2,22,62,1,0
7638,250,4,2,22,62,1,0
7763,294.117647058824,4,2,22,62,1,0
7901,-100,4,2,22,72,0,0
7918,329.67032967033,4,2,22,72,1,0
8082,329.67032967033,4,2,22,72,1,0
8247,294.117647058824,4,2,22,72,1,0
8368,294.117647058824,4,2,22,72,1,0
9250,294.117647058824,4,2,22,72,1,0
17485,-133.333333333333,4,2,22,52,0,0
18930,-133.333333333333,4,2,22,52,0,0
19827,-133.333333333333,4,2,22,52,0,0
21591,-133.333333333333,4,2,22,52,0,0
22193,-133.333333333333,4,2,22,52,0,0
23058,-133.333333333333,4,2,22,52,0,0
24530,-133.333333333333,4,2,22,52,0,0
25407,-133.333333333333,4,2,22,52,0,0
26003,-133.333333333333,4,2,22,52,0,0
26004,294.117647058824,4,2,22,52,1,0
26004,-133.333333333333,4,2,22,52,0,0
26897,294.117647058824,4,2,22,62,1,0
26897,-111.111111111111,4,2,22,62,0,0
36290,-181.818181818181,4,2,22,52,0,0
41584,-222.222222222221,4,2,22,52,0,0
42173,-285.714285714284,4,2,22,52,0,0
42761,-399.999999999997,4,2,22,52,0,0
43349,-181.818181818181,4,2,22,52,0,0
43937,-222.222222222221,4,2,22,52,0,0
44526,-285.714285714284,4,2,22,52,0,0
45114,-399.999999999997,4,2,22,52,0,0
45702,-181.818181818182,4,2,22,42,0,0
47328,294.117647058824,4,2,22,72,1,0
47328,-100,4,2,22,72,0,0
47475,346.820809248555,4,2,22,72,1,0
47648,250,4,2,22,72,1,0
47773,306.122448979592,4,2,22,72,1,0
47926,294.117647058824,4,2,22,82,1,0
47926,-100,4,2,22,82,0,1
48073,294.117647058824,4,2,22,82,1,1
57112,-100,4,2,22,5,0,1
57190,-100,4,2,22,82,0,0
57337,-100,4,2,22,82,0,1
66502,-100,4,2,22,5,0,1
66602,-100,4,2,22,82,0,0
66896,-100,4,2,22,92,0,1
72768,294.117647058824,4,2,22,92,1,1
76297,294.117647058824,4,2,22,92,1,9
76310,294.117647058824,4,2,22,92,1,1
76310,-333.333333333333,4,2,22,62,0,0
78032,-100,4,2,22,62,0,0
78620,-133.333333333333,4,2,22,62,0,0
78930,-133.333333333333,4,2,22,62,0,0
79523,-133.333333333333,4,2,22,62,0,0
79812,-133.333333333333,4,2,22,62,0,0
79885,-133.333333333333,4,2,22,5,0,0
79959,-133.333333333333,4,2,22,62,0,0
80032,-133.333333333333,4,2,22,5,0,0
80106,-133.333333333333,4,2,22,62,0,0
80179,-133.333333333333,4,2,22,5,0,0
80253,-133.333333333333,4,2,22,62,0,0
80326,-133.333333333333,4,2,22,5,0,0
80400,-133.333333333333,4,2,22,62,0,0
80620,-133.333333333333,4,2,22,5,0,0
80694,-133.333333333333,4,2,22,62,0,0
80767,-133.333333333333,4,2,22,5,0,0
80841,-133.333333333333,4,2,22,62,0,0
80975,-133.333333333333,4,2,22,62,0,0
82225,-133.333333333333,4,2,22,5,0,0
82298,-133.333333333333,4,2,22,62,0,0
82372,-133.333333333333,4,2,22,5,0,0
82445,-133.333333333333,4,2,22,62,0,0
82519,-133.333333333333,4,2,22,5,0,0
82592,-133.333333333333,4,2,22,62,0,0
82666,-133.333333333333,4,2,22,5,0,0
82739,-133.333333333333,4,2,22,62,0,0
82960,-133.333333333333,4,2,22,5,0,0
83033,-133.333333333333,4,2,22,62,0,0
83107,-133.333333333333,4,2,22,5,0,0
83180,-133.333333333333,4,2,22,62,0,0
84577,-133.333333333333,4,2,22,5,0,0
84651,-133.333333333333,4,2,22,62,0,0
84725,-133.333333333333,4,2,22,5,0,0
84798,-133.333333333333,4,2,22,62,0,0
84872,-133.333333333333,4,2,22,5,0,0
84955,-133.333333333333,4,2,22,62,0,0
85028,-133.333333333333,4,2,22,5,0,0
85102,-133.333333333333,4,2,22,62,0,0
85322,-133.333333333333,4,2,22,5,0,0
85396,-133.333333333333,4,2,22,62,0,0
85469,-133.333333333333,4,2,22,5,0,0
85543,-133.333333333333,4,2,22,62,0,0
85679,-500,4,2,22,52,0,0
86414,-500,4,2,22,5,0,0

[Colours]
Combo1 : 224,214,214
Combo2 : 255,17,17
Combo3 : 135,255,47
Combo4 : 36,244,255

[HitObjects]
123,191,1022,6,0,L|115:141,1,50.5,2|0,0:0|0:0,0:0:0:0:
210,220,1316,2,0,L|200:283,1,50.5,2|0,0:0|0:0,0:0:0:0:
294,182,1610,6,0,L|286:132,1,50.5,2|0,0:0|0:0,0:0:0:0:
382,220,1904,2,0,L|374:269,1,50.5,2|0,0:0|0:0,0:0:0:0:
471,199,2198,5,2,0:0:0:0:
358,358,2492,2,0,P|309:349|297:349,1,50.5,2|0,0:0|0:0,0:0:0:0:
230,305,2786,6,0,P|204:307|180:314,1,50.5,2|0,0:0|0:0,0:0:0:0:
117,366,3080,2,0,P|92:359|67:356,1,50.5,2|0,0:0|0:0,0:0:0:0:
30,278,3374,6,0,L|36:224,1,50.5,2|0,0:0|0:0,0:0:0:0:
131,229,3669,2,0,L|124:175,1,50.5,2|0,0:0|0:0,0:0:0:0:
65,101,3963,6,0,P|105:89|128:87,1,50.5,2|0,0:0|0:0,0:0:0:0:
171,21,4257,2,0,P|195:25|219:34,1,50.5,2|0,0:0|0:0,0:0:0:0:
291,94,4551,6,0,L|284:155,1,50.5,2|0,0:0|0:0,0:0:0:0:
364,178,4845,2,0,L|358:228,1,50.5,2|0,0:0|0:0,0:0:0:0:
268,230,5139,6,0,L|261:291,1,50.5,2|0,0:0|0:0,0:0:0:0:
341,314,5433,2,0,L|335:364,1,50.5,2|0,0:0|0:0,0:0:0:0:
254,230,5727,6,0,L|263:290,1,50.5,2|0,0:0|0:0,0:0:0:0:
353,317,6021,2,0,L|334:363,1,50.5,2|0,0:0|0:0,0:0:0:0:
241,233,6315,6,0,L|265:289,1,50.5,2|0,0:0|0:0,0:0:0:0:
364,323,6609,2,0,L|333:363,1,50.5,2|0,0:0|0:0,0:0:0:0:
342,220,6903,5,2,0:0:0:0:
342,220,7050,1,0,0:0:0:0:
342,220,7197,1,2,0:0:0:0:
140,83,7344,6,0,L|145:127,1,25.25,0|0,1:0|1:0,0:0:0:0:
154,192,7471,5,8,0:0:0:0:
128,2,7638,1,0,1:0:0:0:
154,192,7763,1,8,0:0:0:0:
237,85,7918,6,0,B|312:93|312:93|349:60|349:60|433:69,1,202,6|2,1:0|0:0,0:0:0:0:
506,6,8368,2,0,B|523:49|523:49|512:102,1,101,12|0,0:0|0:0,0:0:0:0:
314,181,8662,2,0,L|449:194,1,101,2|0,1:0|1:0,0:0:0:0:
498,286,8956,2,0,L|363:299,1,101,10|0,0:0|0:0,0:0:0:0:
292,308,9250,5,0,1:0:0:0:
81,162,9397,2,0,P|56:224|84:283,2,101,2|10|2,1:0|0:0|0:0,0:0:0:0:
165,226,9838,1,2,1:0:0:0:
165,226,9985,1,2,1:0:0:0:
140,84,10132,1,10,0:0:0:0:
308,149,10279,6,0,B|346:132|407:141|371:169|433:174|494:138,1,151.5,6|0,1:0|0:0,0:0:0:0:
460,146,10573,1,2,0:0:0:0:
342,226,10720,2,0,P|338:291|366:330,1,101,8|0,0:0|0:0,0:0:0:0:
426,74,11014,1,2,1:0:0:0:
426,74,11161,1,0,1:0:0:0:
308,149,11308,2,0,P|258:154|101:90,1,202,10|0,0:0|1:0,0:0:0:0:
12,265,11750,6,0,L|29:364,2,101,2|8|0,1:0|0:0|0:0,0:0:0:0:
220,280,12191,2,0,P|170:286|122:304,1,101,2|2,1:0|1:0,0:0:0:0:
93,221,12485,1,10,0:0:0:0:
296,327,12632,6,0,P|343:344|416:228,1,202,6|2,1:0|0:0,0:0:0:0:
337,111,13073,2,0,L|311:233,1,101,10|0,0:0|0:0,0:0:0:0:
397,35,13367,2,0,P|338:14|279:31,1,101,2|0,1:0|1:0,0:0:0:0:
80,106,13661,6,0,L|124:312,1,202,10|2,0:0|1:0,0:0:0:0:
315,209,14102,2,0,B|364:212|364:212|421:266,2,101,2|8|0,1:0|0:0|0:0,0:0:0:0:
223,248,14544,1,2,1:0:0:0:
239,138,14691,1,2,1:0:0:0:
302,321,14838,2,0,P|253:352|183:349,1,101,10|0,0:0|0:0,0:0:0:0:
101,49,15132,6,0,B|116:76|116:76|112:132,1,50.5,2|0,1:0|0:0,0:0:0:0:
361,43,15352,2,0,B|352:72|352:72|310:109,1,50.5,2|8,0:0|0:0,0:0:0:0:
447,238,15573,2,0,B|420:253|420:253|364:248,1,50.5,2|0,0:0|0:0,0:0:0:0:
274,180,15720,6,0,L|487:143,1,202,2|8,1:0|0:0,0:0:0:0:
337,85,16161,1,0,0:0:0:0:
270,281,16308,6,0,P|204:313|128:205,1,202,2|8,1:0|0:0,0:0:0:0:
172,139,16750,1,8,0:0:0:0:
35,290,16897,1,8,3:0:0:0:
442,228,17191,5,8,3:0:0:0:
442,228,17485,6,0,L|459:61,1,151.500005779267,0|8,1:0|0:0,0:0:0:0:
351,126,17926,1,0,1:0:0:0:
351,126,18220,1,0,1:0:0:0:
280,61,18367,2,0,P|233:52|190:56,1,75.7500028896333,10|0,0:0|0:0,0:0:0:0:
118,124,18661,5,2,1:0:0:0:
118,124,18808,1,2,1:0:0:0:
206,191,18955,2,0,P|207:261|201:296,1,75.7500028896333,8|2,0:0|0:0,0:0:0:0:
125,308,19250,1,2,1:0:0:0:
125,308,19397,1,2,1:0:0:0:
56,212,19544,1,8,0:0:0:0:
214,198,19691,1,10,0:0:0:0:
214,198,19764,1,8,0:0:0:0:
214,198,19838,6,0,B|247:196|268:182|268:182|288:181|305:194|305:194|327:180|370:176,1,151.500005779267,2|8,1:0|0:0,0:0:0:0:
474,191,20279,1,0,1:0:0:0:
474,191,20573,1,0,1:0:0:0:
477,81,20720,2,0,L|482:-2,1,75.7500028896333,10|0,0:0|0:0,0:0:0:0:
360,88,21014,5,2,1:0:0:0:
360,88,21161,1,2,1:0:0:0:
240,28,21308,2,0,L|245:111,1,75.7500028896333,8|2,0:0|0:0,0:0:0:0:
451,182,21602,1,2,1:0:0:0:
451,182,21750,1,2,1:0:0:0:
292,199,21897,1,8,0:0:0:0:
346,0,22044,1,10,0:0:0:0:
346,0,22117,1,8,0:0:0:0:
346,0,22191,6,0,B|396:70|324:65|371:165,1,151.500005779267,2|8,1:0|0:0,0:0:0:0:
451,182,22632,1,0,1:0:0:0:
451,182,22926,1,0,1:0:0:0:
277,118,23073,2,0,P|211:115|184:122,1,75.7500028896333,10|0,0:0|0:0,0:0:0:0:
128,188,23367,5,2,1:0:0:0:
128,188,23514,1,0,1:0:0:0:
56,127,23661,2,0,P|49:85|50:45,1,75.7500028896333,10|0,0:0|0:0,0:0:0:0:
128,188,23955,2,0,P|127:225|121:263,1,75.7500028896333,2|0,1:0|1:0,0:0:0:0:
51,318,24250,1,10,0:0:0:0:
232,260,24397,1,8,0:0:0:0:
232,260,24470,1,8,0:0:0:0:
232,260,24544,6,0,L|403:272,1,151.500005779267,2|8,1:0|0:0,0:0:0:0:
479,282,24985,1,0,1:0:0:0:
479,282,25279,1,0,1:0:0:0:
344,90,25426,6,0,P|347:138|361:179,1,75.7500028896333,12|0,0:0|0:0,0:0:0:0:
472,74,25720,2,0,P|469:122|455:163,1,75.7500028896333,2|0,1:0|1:0,0:0:0:0:
326,87,26004,2,0,P|329:135|343:176,1,75.7500028896333,12|0,0:0|0:0,0:0:0:0:
389,16,26298,5,10,0:0:0:0:
389,16,26445,1,8,0:0:0:0:
234,99,26592,1,8,0:0:0:0:
234,99,26739,1,8,0:0:0:0:
111,30,26897,6,0,P|84:83|82:154,1,90.8999972259522,6|0,1:0|0:0,0:0:0:0:
131,262,27191,2,0,P|153:222|163:178,1,90.8999972259522,8|0,0:0|0:0,0:0:0:0:
35,203,27485,1,2,1:0:0:0:
35,203,27632,1,0,1:0:0:0:
100,360,27779,2,0,P|159:360|204:332,1,90.8999972259522,10|0,0:0|0:0,0:0:0:0:
383,209,28073,6,0,P|319:186|245:279,1,181.799994451904,2|10,1:0|0:0,0:0:0:0:
328,370,28514,2,0,L|331:262,1,90.8999972259522,2|0,0:0|1:0,0:0:0:0:
242,166,28808,2,0,L|244:256,1,90.8999972259522,2|8,1:0|0:0,0:0:0:0:
316,104,29102,1,2,0:0:0:0:
166,112,29249,6,0,B|111:101|111:101|78:58,1,90.8999972259522,2|0,1:0|1:0,0:0:0:0:
321,13,29544,2,0,B|376:24|376:24|409:67,1,90.8999972259522,8|0,0:0|0:0,0:0:0:0:
221,33,29838,1,2,1:0:0:0:
221,33,29985,1,0,1:0:0:0:
326,121,30132,2,0,L|318:232,1,90.8999972259522,10|0,0:0|0:0,0:0:0:0:
174,299,30426,6,0,L|167:208,1,90.8999972259522,2|0,1:0|1:0,0:0:0:0:
269,288,30720,1,10,0:0:0:0:
81,268,30867,2,0,P|33:276|-7:310,2,90.8999972259522,2|0|0,0:0|0:0|1:0,0:0:0:0:
176,315,31308,1,10,0:0:0:0:
72,172,31455,1,2,0:0:0:0:
150,93,31602,6,0,B|222:86|222:86|261:101|261:101|347:89,1,181.799994451904,2|8,1:0|0:0,0:0:0:0:
273,10,32044,1,0,0:0:0:0:
424,56,32191,2,0,P|427:119|411:153,1,90.8999972259522,2|0,1:0|1:0,0:0:0:0:
325,276,32485,2,0,P|322:213|338:179,1,90.8999972259522,10|0,0:0|0:0,0:0:0:0:
400,343,32779,5,2,1:0:0:0:
230,249,32926,1,2,1:0:0:0:
409,244,33073,1,10,0:0:0:0:
245,345,33220,2,0,L|129:334,1,90.8999972259522,2|0,0:0|0:0,0:0:0:0:
230,249,33514,1,2,1:0:0:0:
400,343,33661,2,0,L|516:332,1,90.8999972259522,10|0,0:0|0:0,0:0:0:0:
251,154,33955,6,0,P|176:168|133:270,1,181.799994451904,2|8,1:0|0:0,0:0:0:0:
92,115,34397,1,0,1:0:0:0:
230,249,34544,1,8,0:0:0:0:
230,249,34838,5,0,1:0:0:0:
317,35,34985,1,8,0:0:0:0:
312,19,35279,5,0,1:0:0:0:
396,269,35426,1,8,0:0:0:0:
390,286,35720,5,10,0:0:0:0:
339,198,35867,1,8,0:0:0:0:
481,247,36014,1,8,3:0:0:0:
385,307,36161,1,4,3:0:0:0:
330,211,36308,6,0,P|259:207|205:237,1,111.100003390503,2|0,1:0|1:0,0:0:0:0:
85,312,36897,2,0,P|156:308|210:338,1,111.100003390503,2|2,1:0|1:0,0:0:0:0:
144,99,37485,6,0,L|124:208,1,111.100003390503,0|2,1:0|1:0,0:0:0:0:
245,3,38073,2,0,L|264:112,1,111.100003390503,0|0,1:0|1:0,0:0:0:0:
468,149,38661,6,0,P|398:124|346:134,1,111.100003390503,2|0,1:0|1:0,0:0:0:0:
213,234,39249,2,0,P|283:209|335:219,1,111.100003390503,2|2,1:0|1:0,0:0:0:0:
347,307,39838,5,0,1:0:0:0:
362,128,40132,1,2,1:0:0:0:
452,233,40426,1,0,1:0:0:0:
255,212,40720,1,0,1:0:0:0:
330,22,41014,6,0,P|346:70|348:152,1,111.100003390503,2|0,1:0|1:0,0:0:0:0:
274,299,41602,2,0,P|258:251|255:195,1,90.8999972259522,2|0,1:0|1:0,0:0:0:0:
347,43,42191,2,0,P|363:91|365:121,1,70.6999978424073,2|0,1:0|1:0,0:0:0:0:
255,294,42779,2,0,P|241:255|238:237,1,50.5,2|0,1:0|1:0,0:0:0:0:
452,264,43367,6,0,L|319:249,1,111.100003390503,2|0,1:0|1:0,0:0:0:0:
274,120,43955,2,0,L|371:108,1,90.8999972259522,2|0,1:0|1:0,0:0:0:0:
429,277,44544,2,0,L|359:269,1,70.6999978424073,2|0,1:0|1:0,0:0:0:0:
300,133,45132,2,0,L|355:126,1,50.5,2|0,1:0|1:0,0:0:0:0:
203,220,45720,5,2,0:0:0:0:
203,220,46308,1,2,0:0:0:0:
203,220,46897,1,2,0:0:0:0:
203,220,47328,6,0,L|195:287,1,50.5,0|0,1:0|1:0,0:0:0:0:
183,355,47475,5,8,0:0:0:0:
214,132,47648,1,0,1:0:0:0:
100,244,47773,1,8,0:0:0:0:
299,255,47926,6,0,B|399:222|394:317|521:259,1,202,6|0,1:0|1:0,0:0:0:0:
452,72,48367,2,0,L|444:204,1,101,10|0,0:0|0:0,0:0:0:0:
208,357,48661,2,0,L|201:256,1,101,2|0,1:0|1:0,0:0:0:0:
194,153,48955,1,8,0:0:0:0:
194,153,49102,1,0,0:0:0:0:
18,275,49249,6,0,B|69:287|69:287|122:266,1,101,2|0,1:0|1:0,0:0:0:0:
235,68,49544,2,0,B|184:56|184:56|138:73,1,101,10|0,0:0|0:0,0:0:0:0:
303,226,49838,1,2,1:0:0:0:
303,226,49985,1,0,1:0:0:0:
164,261,50132,1,10,0:0:0:0:
371,155,50279,6,0,P|404:216|326:326,1,202,6|0,1:0|1:0,0:0:0:0:
117,171,50720,2,0,L|223:158,1,101,10|0,0:0|0:0,0:0:0:0:
342,321,51014,2,0,L|241:308,1,101,2|0,1:0|1:0,0:0:0:0:
217,158,51308,1,8,0:0:0:0:
350,61,51455,1,0,0:0:0:0:
350,61,51529,1,0,0:0:0:0:
350,61,51602,6,0,L|450:73,1,101,2|0,1:0|1:0,0:0:0:0:
117,171,51897,2,0,L|16:183,1,101,10|0,0:0|0:0,0:0:0:0:
210,0,52191,2,0,L|226:123,1,101,2|0,1:0|1:0,0:0:0:0:
252,320,52485,1,10,0:0:0:0:
482,223,52632,6,0,B|452:230|420:214|420:214|392:216|372:232|372:232|332:203|273:220,1,202,6|0,1:0|1:0,0:0:0:0:
156,324,53073,2,0,P|225:332|270:302,1,101,10|0,0:0|0:0,0:0:0:0:
237,128,53367,2,0,P|168:120|123:150,1,101,2|0,1:0|1:0,0:0:0:0:
196,230,53661,1,8,0:0:0:0:
196,230,53808,1,0,0:0:0:0:
29,54,53955,6,0,L|51:157,1,101,2|0,1:0|0:0,0:0:0:0:
326,136,54249,2,0,L|347:37,1,101,10|0,0:0|0:0,0:0:0:0:
140,311,54544,2,0,P|187:327|235:316,1,101,2|0,1:0|1:0,0:0:0:0:
295,242,54838,1,10,0:0:0:0:
191,29,54985,6,0,L|196:230,1,202,6|0,1:0|1:0,0:0:0:0:
473,204,55426,2,0,B|413:152|349:169|349:169|393:200|398:248,1,202,8|0,0:0|1:0,0:0:0:0:
443,298,55867,1,0,1:0:0:0:
483,104,56014,2,0,P|442:86|375:78,1,101,8|0,0:0|0:0,0:0:0:0:
39,95,56308,6,0,B|116:128|179:83|179:83|199:117|243:128,1,202,2|8,1:0|0:0,0:0:0:0:
254,37,56749,1,0,0:0:0:0:
141,347,56897,2,0,L|165:187,1,151.5,2|0,1:0|0:0,0:0:0:0:
166,182,57191,1,8,0:0:0:0:
475,252,57338,6,0,P|415:193|311:259,1,202,6|0,1:0|0:0,0:0:0:0:
476,10,57779,2,0,L|458:123,1,101,10|0,0:0|0:0,0:0:0:0:
334,335,58073,2,0,L|318:235,1,101,2|0,1:0|1:0,0:0:0:0:
302,133,58367,1,8,0:0:0:0:
302,133,58514,1,0,0:0:0:0:
109,44,58661,6,0,P|200:31|234:52,1,101,2|0,1:0|0:0,0:0:0:0:
357,207,58955,2,0,P|266:220|232:199,1,101,10|0,0:0|0:0,0:0:0:0:
311,32,59249,2,0,L|300:151,1,101,2|0,1:0|1:0,0:0:0:0:
200,146,59544,1,10,0:0:0:0:
460,135,59691,6,0,L|421:353,1,202,6|2,1:0|1:0,0:0:0:0:
314,366,60132,2,0,P|264:357|218:336,1,101,10|0,0:0|0:0,0:0:0:0:
39,269,60426,2,0,P|84:248|134:239,1,101,2|0,1:0|1:0,0:0:0:0:
281,144,60720,2,0,L|263:267,1,101,8|0,0:0|0:0,0:0:0:0:
92,38,61014,6,0,B|146:22|146:22|199:43,1,101,6|0,1:0|0:0,0:0:0:0:
281,144,61308,2,0,B|335:160|335:160|388:139,1,101,8|0,0:0|0:0,0:0:0:0:
512,13,61602,2,0,L|391:1,1,101,2|0,1:0|0:0,0:0:0:0:
281,144,61897,1,10,0:0:0:0:
464,347,62044,6,0,B|498:278|498:278|469:129,1,202,6|0,1:0|1:0,0:0:0:0:
233,232,62485,2,0,P|310:243|347:222,1,101,10|0,0:0|0:0,0:0:0:0:
324,59,62779,2,0,P|275:47|227:61,1,101,2|0,1:0|1:0,0:0:0:0:
139,147,63073,1,8,0:0:0:0:
139,147,63220,1,0,0:0:0:0:
18,20,63367,6,0,L|-1:140,1,101,2|0,1:0|0:0,0:0:0:0:
64,217,63661,2,0,L|79:316,1,101,10|0,0:0|0:0,0:0:0:0:
219,85,63955,2,0,P|141:53|113:53,1,101,2|0,1:0|0:0,0:0:0:0:
139,147,64249,1,10,0:0:0:0:
260,292,64397,6,0,B|364:339|360:231|474:312,1,202,6|0,1:0|1:0,0:0:0:0:
339,106,64838,2,0,P|307:158|302:212,1,101,8|0,0:0|0:0,0:0:0:0:
408,379,65132,1,8,0:0:0:0:
408,379,65279,1,0,1:0:0:0:
489,198,65426,2,0,P|479:148|451:107,1,101,8|0,0:0|1:0,0:0:0:0:
83,64,65720,6,0,B|120:25|159:28|159:28|205:55|205:55|232:32|306:45,1,202,6|8,1:0|0:0,0:0:0:0:
339,106,66161,2,0,L|324:176,1,50.5,0|0,1:0|1:0,0:0:0:0:
287,268,66308,2,0,P|196:228|128:275,1,151.5,10|0,0:0|0:0,0:0:0:0:
145,258,66602,1,8,0:0:0:0:
209,331,66749,1,2,1:0:0:0:
148,150,66897,6,0,L|134:45,1,101,10|0,0:0|1:0,0:0:0:0:
367,223,67191,2,0,L|380:122,1,101,8|0,0:0|1:0,0:0:0:0:
257,38,67485,1,10,0:0:0:0:
480,131,67632,1,0,1:0:0:0:
271,142,67779,1,10,0:0:0:0:
408,27,67926,1,2,1:0:0:0:
399,218,68073,6,0,P|341:227|278:248,1,101,8|2,0:0|1:0,0:0:0:0:
77,110,68367,2,0,P|135:119|198:140,1,101,10|0,0:0|1:0,0:0:0:0:
142,274,68661,1,8,0:0:0:0:
271,142,68808,1,2,1:0:0:0:
118,293,68955,1,8,0:0:0:0:
294,260,69102,1,0,1:0:0:0:
97,312,69249,6,0,P|32:302|-23:292,1,101,10|0,0:0|1:0,0:0:0:0:
215,212,69544,1,8,0:0:0:0:
266,364,69691,1,2,1:0:0:0:
373,264,69838,2,0,P|438:254|493:244,1,101,10|0,0:0|1:0,0:0:0:0:
205,198,70132,1,10,0:0:0:0:
259,346,70279,1,2,1:0:0:0:
336,164,70426,6,0,P|346:81|341:50,1,101,8|0,0:0|1:0,0:0:0:0:
221,222,70720,1,10,0:0:0:0:
442,164,70867,1,2,1:0:0:0:
254,62,71014,1,10,0:0:0:0:
344,250,71161,1,2,1:0:0:0:
359,66,71308,2,0,L|466:49,1,101,8|0,0:0|1:0,0:0:0:0:
129,58,71602,5,10,0:0:0:0:
168,243,71749,1,0,1:0:0:0:
111,81,71897,1,8,0:0:0:0:
150,266,72044,1,0,1:0:0:0:
308,105,72191,5,10,0:0:0:0:
262,302,72338,1,0,1:0:0:0:
326,128,72485,1,8,0:0:0:0:
280,325,72632,1,0,1:0:0:0:
30,183,72768,5,10,0:0:0:0:
234,136,72915,1,0,1:0:0:0:
53,201,73062,1,8,0:0:0:0:
257,154,73209,1,0,1:0:0:0:
254,350,73356,5,10,0:2:0:0:
50,303,73503,1,0,1:0:0:0:
231,368,73650,1,8,0:0:0:0:
27,321,73797,1,0,1:0:0:0:
283,237,73944,6,0,P|339:236|390:244,1,101,10|0,0:0|1:0,0:0:0:0:
153,195,74238,2,0,P|103:201|52:200,1,101,8|0,0:0|1:0,0:0:0:0:
289,0,74532,1,10,0:0:0:0:
283,237,74679,1,0,1:0:0:0:
151,62,74826,1,8,0:0:0:0:
369,123,74973,1,0,1:0:0:0:
153,195,75120,6,0,B|137:243|137:243|148:303,1,101,10|0,0:0|1:0,0:0:0:0:
390,340,75415,2,0,B|399:290|399:290|383:242,1,101,8|0,0:0|1:0,0:0:0:0:
258,352,75709,5,10,0:0:0:0:
273,157,75856,1,0,1:0:0:0:
295,271,76003,1,8,3:0:0:0:
299,139,76150,1,4,3:0:0:0:
153,195,76310,6,0,L|162:94,1,90.8999972259522,6|0,1:0|0:0,0:0:0:0:
71,24,76898,2,0,L|79:114,1,90.8999972259522,2|0,0:0|0:0,0:0:0:0:
248,100,77486,2,0,P|188:112|151:99,1,90.8999972259522,6|0,1:0|0:0,0:0:0:0:
390,17,78074,5,2,0:0:0:0:
375,125,78221,2,0,L|380:164,3,33.6666666666667
480,80,78515,1,0,0:0:0:0:
409,250,78662,6,0,P|335:240|287:184,1,151.5,6|2,1:0|0:0,0:0:0:0:
271,93,79104,1,2,1:0:0:0:
271,93,79251,2,0,P|220:87|169:85,1,75.7500028896333,8|2,0:0|1:0,0:0:0:0:
56,164,79545,2,0,P|107:158|158:156,1,75.7500028896333,2|0,1:0|0:0,0:0:0:0:
204,258,79839,6,0,L|193:300,1,37.8750014448166,2|0,1:0|0:0,0:0:0:0:
209,268,79986,2,0,L|198:310,1,37.8750014448166,2|0,1:0|0:0,0:0:0:0:
213,277,80133,2,0,L|202:319,1,37.8750014448166,2|0,0:0|0:0,0:0:0:0:
216,284,80280,2,0,L|205:326,1,37.8750014448166,2|0,1:0|0:0,0:0:0:0:
216,171,80427,5,8,0:0:0:0:
297,217,80574,2,0,L|308:259,1,37.8750014448166,2|0,1:0|0:0,0:0:0:0:
292,227,80721,2,0,L|303:269,1,37.8750014448166,2|0,1:0|0:0,0:0:0:0:
442,245,81015,6,0,L|259:222,1,151.500005779267,6|2,1:0|0:0,0:0:0:0:
245,149,81457,1,2,1:0:0:0:
245,149,81604,2,0,P|238:110|237:66,1,75.7500028896333,8|2,0:0|1:0,0:0:0:0:
346,38,81898,2,0,P|344:75|337:113,1,75.7500028896333,2|0,1:0|0:0,0:0:0:0:
245,149,82192,6,0,L|203:138,1,37.8750014448166,2|0,1:0|0:0,0:0:0:0:
235,154,82339,2,0,L|193:143,1,37.8750014448166,2|0,1:0|0:0,0:0:0:0:
226,158,82486,2,0,L|184:147,1,37.8750014448166,2|0,0:0|0:0,0:0:0:0:
219,161,82633,2,0,L|177:150,1,37.8750014448166,2|0,1:0|0:0,0:0:0:0:
343,177,82780,5,8,0:0:0:0:
286,242,82927,2,0,L|244:253,1,37.8750014448166,2|0,1:0|0:0,0:0:0:0:
276,237,83074,2,0,L|234:248,1,37.8750014448166,2|0,1:0|0:0,0:0:0:0:
96,312,83368,6,0,B|139:308|156:274|156:274|177:329|229:332,1,151.500005779267,6|2,1:0|0:0,0:0:0:0:
294,345,83810,2,0,L|388:340,1,75.7500028896333,2|10,1:0|0:0,0:0:0:0:
463,258,84104,1,2,1:0:0:0:
463,258,84251,2,0,L|387:253,1,75.7500028896333,2|0,1:0|0:0,0:0:0:0:
332,75,84545,6,0,L|374:64,1,37.8750014448166,2|0,1:0|0:0,0:0:0:0:
342,80,84692,2,0,L|384:69,1,37.8750014448166,2|0,1:0|0:0,0:0:0:0:
351,84,84839,2,0,L|393:73,1,37.8750014448166,2|0,0:0|0:0,0:0:0:0:
358,87,84986,2,0,L|400:76,1,37.8750014448166,2|0,1:0|0:0,0:0:0:0:
234,100,85133,5,10,0:0:0:0:
291,168,85280,2,0,L|333:179,1,37.8750014448166,2|0,1:0|0:0,0:0:0:0:
301,163,85427,2,0,L|343:174,1,37.8750014448166,2|0,1:0|0:0,0:0:0:0:
107,89,85721,6,0,B|102:132|102:132|113:152|113:152|109:192,1,101,2|0,1:0|0:0,0:0:0:0:
