osu file format v14

[General]
AudioFilename: audio.mp3
AudioLeadIn: 0
PreviewTime: 48294
Countdown: 0
SampleSet: Soft
StackLeniency: 0.7
Mode: 0
LetterboxInBreaks: 0
WidescreenStoryboard: 1

[Editor]
DistanceSpacing: 0.6
BeatDivisor: 4
GridSize: 4
TimelineZoom: 2.5

[Metadata]
Title:Black Rover (TV Size)
TitleUnicode:Black Rover (TV Size)
Artist:Vickeblanka
ArtistUnicode:ビッケブランカ
Creator:Sotarks
Version:Doormat's Extra
Source:ブラッククローバー
Tags:clover opening op akitoshi corinn -laura- doormat lami intoon mir nevo snownino_ shunao shogunmoon naotoshi nao_tomori
BeatmapID:1656000
BeatmapSetID:781509

[Difficulty]
HPDrainRate:5
CircleSize:4
OverallDifficulty:9
ApproachRate:9.3
SliderMultiplier:1.76
SliderTickRate:1

[Events]
//Background and Video events
Video,0,"video.avi"
0,0,"shounen protagonist's overpowered rival friend.jpg",0,0
//Break Periods
//Storyboard Layer 0 (Background)
//Storyboard Layer 1 (Fail)
//Storyboard Layer 2 (Pass)
//Storyboard Layer 3 (Foreground)
//Storyboard Sound Samples

[TimingPoints]
1022,294.117647058824,4,2,22,42,1,0
1022,-200,4,2,22,42,0,0
2198,-166.666666666667,4,2,22,42,0,0
3374,-142.857142857143,4,2,22,42,0,0
4551,-125,4,2,22,42,0,0
5727,-111.111111111111,4,2,22,42,0,0
6903,-100,4,2,22,42,0,0
7344,255.31914893617,4,2,22,62,1,0
7471,335.195530726257,4,2,22,62,1,0
7638,250,4,2,22,62,1,0
7763,294.117647058824,4,2,22,62,1,0
7918,329.67032967033,4,2,22,72,1,0
8082,329.67032967033,4,2,22,72,1,0
8247,294.117647058824,4,2,22,72,1,0
8368,294.117647058824,4,2,22,72,1,0
8368,-62.5,4,2,22,72,0,0
8662,-100,4,2,22,72,0,0
9250,294.117647058824,4,2,22,72,1,0
17485,-125,4,2,22,52,0,0
26004,294.117647058824,4,2,22,52,1,0
26004,-125,4,2,22,52,0,0
26897,294.117647058824,4,2,22,62,1,0
35720,-125,4,2,22,62,0,0
36308,-166.666666666667,4,2,22,52,0,0
45720,-166.666666666667,4,2,22,42,0,0
46897,-166.666666666667,4,2,22,12,0,0
47328,294.117647058824,4,2,22,72,1,0
47328,-100,4,2,22,72,0,0
47475,346.820809248555,4,2,22,72,1,0
47648,250,4,2,22,72,1,0
47773,306.122448979592,4,2,22,72,1,0
47926,294.117647058824,4,2,22,82,1,0
47926,-90.9090909090909,4,2,22,82,0,1
48073,294.117647058824,4,2,22,82,1,1
48073,-90.9090909090909,4,2,22,82,0,1
56308,-90.9090909090909,4,2,22,82,0,0
57337,-90.9090909090909,4,2,22,82,0,1
65720,-90.9090909090909,4,2,22,82,0,0
66896,-90.9090909090909,4,2,22,92,0,1
72768,294.117647058824,4,2,22,92,1,1
73356,-90.9090909090909,4,2,22,92,0,1
76297,294.117647058824,4,2,22,92,1,9
76310,294.117647058824,4,2,22,92,1,1
76310,-400,4,2,22,62,0,0
77486,-133.333333333333,4,2,22,62,0,0
78074,-66.6666666666667,4,2,22,62,0,0
78662,-133.333333333333,4,2,22,62,0,0
85721,-1000,4,2,22,52,0,0
86457,-1000,4,2,22,12,0,0

[Colours]
Combo1 : 224,214,214
Combo2 : 255,17,17
Combo3 : 135,255,47
Combo4 : 36,244,255

[HitObjects]
108,172,1022,6,0,L|56:164,1,44,2|0,0:0|0:0,0:0:0:0:
176,140,1316,2,0,L|184:88,1,44,2|0,0:0|0:0,0:0:0:0:
208,208,1610,2,0,L|260:216,1,44,2|0,0:0|0:0,0:0:0:0:
140,240,1904,2,0,L|132:292,1,44,2|0,0:0|0:0,0:0:0:0:
340,172,2198,6,0,L|328:116,1,52.7999983886719,2|0,0:0|0:0,0:0:0:0:
408,212,2492,2,0,L|464:200,1,52.7999983886719,2|0,0:0|0:0,0:0:0:0:
368,280,2786,2,0,L|380:336,1,52.7999983886719,2|0,0:0|0:0,0:0:0:0:
300,240,3080,2,0,L|244:252,1,52.7999983886719,2|0,0:0|0:0,0:0:0:0:
100,100,3374,6,0,L|108:36,1,61.5999981201172,2|0,0:0|0:0,0:0:0:0:
212,80,3669,2,0,L|203:143,1,61.5999981201172,2|0,0:0|0:0,0:0:0:0:
312,116,3963,2,0,L|320:52,1,61.5999981201172,2|0,0:0|0:0,0:0:0:0:
424,96,4257,2,0,L|415:159,1,61.5999981201172,2|0,0:0|0:0,0:0:0:0:
232,204,4551,6,0,P|212:175|204:141,1,70.4,2|0,0:0|0:0,0:0:0:0:
116,216,4845,2,0,P|135:244|145:296,1,70.4,2|0,0:0|0:0,0:0:0:0:
120,120,5139,2,0,P|100:91|92:57,1,70.4,2|0,0:0|0:0,0:0:0:0:
3,131,5433,2,0,P|22:159|35:211,1,70.4,2|0,0:0|0:0,0:0:0:0:
232,204,5727,6,0,L|308:184,1,79.1999975830079,2|0,0:0|0:0,0:0:0:0:
496,168,6021,2,0,L|420:148,1,79.1999975830079,2|0,0:0|0:0,0:0:0:0:
236,316,6315,2,0,L|312:296,1,79.1999975830079,2|0,0:0|0:0,0:0:0:0:
500,280,6609,2,0,L|424:260,1,79.1999975830079,2|0,0:0|0:0,0:0:0:0:
232,204,6903,6,0,P|225:160|237:118,1,88,2|0,0:0|0:0,0:0:0:0:
352,168,7197,1,2,0:0:0:0:
168,248,7344,6,0,L|124:255,1,44,0|0,1:0|1:0,0:0:0:0:
20,268,7471,5,8,0:0:0:0:
226,110,7638,1,0,1:0:0:0:
260,368,7763,1,8,0:0:0:0:
50,122,7918,6,0,P|138:119|226:110,1,176,6|2,1:0|0:0,0:0:0:0:
496,264,8368,6,0,B|372:216|372:216|304:268,1,211.2,12|0,0:0|0:0,0:0:0:0:
292,276,8662,5,2,1:0:0:0:
432,128,8809,1,0,1:0:0:0:
508,352,8956,2,0,L|316:368,1,176,10|0,0:0|1:0,0:0:0:0:
200,156,9397,5,2,1:0:0:0:
412,256,9544,1,10,0:0:0:0:
408,268,9691,1,2,0:0:0:0:
200,156,9838,1,2,1:0:0:0:
204,144,9985,2,0,L|300:128,1,88,2|10,1:0|0:0,0:0:0:0:
196,312,10279,6,0,P|136:256|32:248,1,176,6|2,1:0|0:0,0:0:0:0:
84,72,10720,2,0,L|170:57,1,88,8|0,0:0|0:0,0:0:0:0:
368,132,11014,1,2,1:0:0:0:
256,0,11161,1,0,1:0:0:0:
128,168,11308,2,0,P|154:251|174:337,1,176,10|0,0:0|1:0,0:0:0:0:
380,192,11750,5,2,1:0:0:0:
124,44,11897,1,8,0:0:0:0:
120,56,12044,1,0,0:0:0:0:
380,192,12191,1,2,1:0:0:0:
384,180,12338,1,2,1:0:0:0:
388,168,12485,1,10,0:0:0:0:
120,56,12632,6,0,P|100:141|73:225,1,176,6|2,1:0|0:0,0:0:0:0:
212,316,13073,2,0,P|256:280|296:264,1,88,10|0,0:0|0:0,0:0:0:0:
476,208,13367,1,2,1:0:0:0:
388,360,13514,1,0,1:0:0:0:
235,151,13661,2,0,P|322:141|408:124,1,176,10|2,0:0|1:0,0:0:0:0:
184,16,14102,5,2,1:0:0:0:
140,272,14250,1,8,0:0:0:0:
152,276,14397,1,0,0:0:0:0:
184,16,14544,1,2,1:0:0:0:
172,12,14691,1,2,1:0:0:0:
160,8,14838,2,0,L|56:20,1,88,10|0,0:0|0:0,0:0:0:0:
340,232,15132,6,0,P|344:200|352:180,1,44,2|0,1:0|0:0,0:0:0:0:
100,356,15352,2,0,P|125:375|139:392,1,44,2|8,0:0|0:0,0:0:0:0:
112,86,15573,2,0,P|82:98|60:101,1,44,2|0,0:0|0:0,0:0:0:0:
64,12,15720,6,0,L|240:20,1,176,2|8,1:0|0:0,0:0:0:0:
324,100,16161,1,0,0:0:0:0:
144,200,16308,5,2,1:0:0:0:
404,128,16455,1,0,1:0:0:0:
404,128,16529,1,0,0:0:0:0:
404,128,16602,1,8,0:0:0:0:
96,28,16750,1,8,0:0:0:0:
300,216,16897,5,8,3:0:0:0:
252,28,17044,1,4,3:0:0:0:
112,296,17191,1,8,3:0:0:0:
64,108,17338,1,4,3:0:0:0:
300,216,17485,6,0,P|292:276|284:360,1,140.8,4|8,1:0|0:0,0:0:0:0:
388,296,17926,1,0,1:0:0:0:
388,296,18220,1,0,1:0:0:0:
196,276,18367,2,0,L|111:290,1,70.4,10|0,0:0|0:0,0:0:0:0:
24,240,18661,5,2,1:0:0:0:
204,172,18808,1,2,1:0:0:0:
172,361,18955,1,8,0:0:0:0:
32,212,19250,5,2,1:0:0:0:
223,193,19397,1,2,1:0:0:0:
143,367,19544,1,8,0:0:0:0:
331,255,19691,5,10,0:0:0:0:
331,255,19764,1,8,0:0:0:0:
331,255,19838,2,0,L|307:91,1,140.8,2|8,1:0|0:0,0:0:0:0:
223,193,20279,1,0,1:0:0:0:
223,193,20573,1,0,1:0:0:0:
419,178,20720,2,0,L|407:96,1,70.4,10|0,0:0|0:0,0:0:0:0:
324,48,21014,5,2,1:0:0:0:
505,108,21161,1,2,1:0:0:0:
362,234,21308,1,8,0:0:0:0:
347,31,21602,5,2,1:0:0:0:
507,136,21750,1,2,1:0:0:0:
336,221,21897,1,8,0:0:0:0:
72,116,22044,5,10,0:0:0:0:
72,116,22117,1,8,0:0:0:0:
72,116,22191,2,0,P|160:100|228:80,1,140.8,2|8,1:0|0:0,0:0:0:0:
120,4,22632,1,0,1:0:0:0:
120,4,22926,1,0,1:0:0:0:
161,198,23073,2,0,L|148:280,1,70.4,10|0,0:0|0:0,0:0:0:0:
54,253,23367,5,2,1:0:0:0:
240,304,23514,1,0,1:0:0:0:
191,119,23661,1,10,0:0:0:0:
64,279,23955,5,2,1:0:0:0:
257,281,24102,1,0,1:0:0:0:
162,115,24250,1,10,0:0:0:0:
200,380,24397,5,8,0:0:0:0:
200,380,24470,1,8,0:0:0:0:
200,380,24544,2,0,P|276:368|348:360,1,140.8,2|8,1:0|0:0,0:0:0:0:
257,281,24985,1,0,1:0:0:0:
257,281,25279,1,0,1:0:0:0:
444,368,25426,2,0,L|520:352,1,70.4,12|0,0:0|0:0,0:0:0:0:
404,176,25720,6,0,L|397:253,1,70.4,0|0,1:0|1:0,0:0:0:0:
208,120,26004,2,0,L|215:197,1,70.4,12|0,0:0|0:0,0:0:0:0:
76,82,26298,5,10,0:0:0:0:
277,4,26445,1,8,0:0:0:0:
355,205,26592,1,8,0:0:0:0:
154,283,26739,1,8,0:0:0:0:
215,143,26897,6,0,P|284:136|428:108,1,176,6|8,1:0|0:0,0:0:0:0:
272,268,27338,1,0,0:0:0:0:
180,52,27485,1,2,1:0:0:0:
392,204,27632,1,0,1:0:0:0:
128,312,27779,2,0,P|139:257|141:216,1,88,10|0,0:0|0:0,0:0:0:0:
12,116,28073,5,2,1:0:0:0:
264,164,28220,1,0,1:0:0:0:
24,268,28367,1,10,0:0:0:0:
180,52,28514,2,0,P|232:60|280:56,1,88,2|0,0:0|1:0,0:0:0:0:
232,296,28808,2,0,P|179:296|132:307,1,88,2|8,1:0|0:0,0:0:0:0:
352,160,29102,1,2,0:0:0:0:
132,4,29249,6,0,P|148:88|147:179,1,176,2|8,1:0|0:0,0:0:0:0:
0,280,29691,1,0,0:0:0:0:
48,92,29838,1,2,1:0:0:0:
156,284,29985,1,0,1:0:0:0:
352,160,30132,2,0,L|264:149,1,88,10|0,0:0|0:0,0:0:0:0:
368,296,30426,5,2,1:0:0:0:
184,192,30573,1,0,1:0:0:0:
412,92,30720,1,10,0:0:0:0:
276,280,30867,1,2,0:0:0:0:
152,64,31014,2,0,L|328:32,1,176,0|10,1:0|0:0,0:0:0:0:
512,80,31455,1,2,0:0:0:0:
371,275,31602,6,0,P|289:246|201:240,1,176,2|8,1:0|0:0,0:0:0:0:
60,300,32044,1,0,0:0:0:0:
300,152,32191,1,2,1:0:0:0:
208,336,32338,1,0,1:0:0:0:
52,132,32485,2,0,L|148:116,1,88,10|0,0:0|0:0,0:0:0:0:
304,48,32779,5,2,1:0:0:0:
184,224,32926,1,2,1:0:0:0:
116,4,33073,1,10,0:0:0:0:
320,176,33220,2,0,P|300:240|296:280,1,88,2|0,0:0|1:0,0:0:0:0:
464,144,33514,1,2,1:0:0:0:
276,20,33661,2,0,L|180:44,1,88,10|0,0:0|0:0,0:0:0:0:
297,260,33955,6,0,L|393:284,1,88,2|0,1:0|1:0,0:0:0:0:
168,340,34249,1,8,0:0:0:0:
244,96,34397,1,0,1:0:0:0:
488,208,34544,2,0,P|476:272|460:392,1,176,8|0,0:0|1:0,0:0:0:0:
297,260,34985,1,8,0:0:0:0:
424,100,35132,6,0,L|511:89,1,88,0|0,1:0|1:0,0:0:0:0:
297,260,35426,2,0,L|209:249,1,88,8|0,0:0|0:0,0:0:0:0:
116,120,35720,5,10,0:0:0:0:
268,160,35867,1,8,0:0:0:0:
96,312,36014,2,0,P|82:259|82:219,1,70.4,8|4,3:0|3:0,0:0:0:0:
332,272,36308,5,2,1:0:0:0:
330,284,36602,1,0,1:0:0:0:
328,296,36897,1,2,1:0:0:0:
326,308,37191,1,2,1:0:0:0:
128,160,37485,5,0,1:0:0:0:
152,152,37779,1,2,1:0:0:0:
174,163,38073,1,0,1:0:0:0:
182,187,38367,1,0,1:0:0:0:
28,376,38661,5,2,1:0:0:0:
24,364,38955,1,0,1:0:0:0:
32,354,39249,1,2,1:0:0:0:
28,342,39544,1,2,1:0:0:0:
312,184,39838,5,0,1:0:0:0:
296,204,40132,1,2,1:0:0:0:
272,194,40426,1,0,1:0:0:0:
272,168,40720,2,0,L|336:168,1,52.7999983886719,0|0,1:0|1:0,0:0:0:0:
464,272,41014,5,2,1:0:0:0:
452,276,41308,1,0,1:0:0:0:
440,270,41602,1,2,1:0:0:0:
428,274,41897,1,0,1:0:0:0:
228,108,42191,5,2,1:0:0:0:
248,92,42485,1,0,1:0:0:0:
273,88,42779,1,2,1:0:0:0:
296,97,43073,1,0,1:0:0:0:
240,328,43367,5,2,1:0:0:0:
236,340,43661,1,0,1:0:0:0:
224,336,43955,1,2,1:0:0:0:
228,324,44249,1,0,1:0:0:0:
440,160,44544,5,2,1:0:0:0:
452,184,44838,1,0,1:0:0:0:
453,210,45132,1,2,1:0:0:0:
443,234,45426,1,0,1:0:0:0:
112,132,45720,5,6,0:0:0:0:
256,192,45794,12,2,46897,0:0:0:0:
156,136,47328,6,0,L|216:147,1,44,0|0,1:0|1:0,0:0:0:0:
372,172,47475,5,8,0:0:0:0:
152,256,47648,1,0,1:0:0:0:
189,23,47773,1,8,0:0:0:0:
452,78,47926,6,0,B|462:142|416:206|416:206|371:171,1,193.600005908203,6|0,1:0|1:0,0:0:0:0:
189,23,48367,1,10,0:0:0:0:
364,88,48514,1,0,0:0:0:0:
156,240,48661,2,0,L|144:132,1,96.8000029541017,2|0,1:0|1:0,0:0:0:0:
400,300,48955,1,8,0:0:0:0:
440,112,49102,1,0,0:0:0:0:
144,152,49249,5,2,1:0:0:0:
210,348,49397,1,0,1:0:0:0:
424,204,49544,2,0,P|364:192|320:172,1,96.8000029541017,10|0,0:0|0:0,0:0:0:0:
71,261,49838,2,0,P|116:245|165:237,1,96.8000029541017,2|0,1:0|1:0,0:0:0:0:
336,332,50132,1,10,0:0:0:0:
424,96,50279,6,0,L|228:72,1,193.600005908203,6|0,1:0|1:0,0:0:0:0:
51,183,50720,2,0,P|102:188|148:208,1,96.8000029541017,10|0,0:0|0:0,0:0:0:0:
304,324,51014,1,2,1:0:0:0:
288,136,51161,1,0,1:0:0:0:
104,344,51308,2,0,L|0:324,1,96.8000029541017,8|0,0:0|0:0,0:0:0:0:
156,160,51602,5,2,1:0:0:0:
304,324,51749,1,0,1:0:0:0:
340,56,51897,1,10,0:0:0:0:
252,224,52044,1,0,0:0:0:0:
88,12,52191,2,0,L|188:0,1,96.8000029541017,2|0,1:0|1:0,0:0:0:0:
340,56,52485,1,10,0:0:0:0:
144,296,52632,6,0,P|133:190|104:88,1,193.600005908203,6|0,1:0|1:0,0:0:0:0:
340,56,53073,2,0,P|332:104|336:164,1,96.8000029541017,10|0,0:0|0:0,0:0:0:0:
448,324,53367,1,2,1:0:0:0:
492,128,53514,1,0,1:0:0:0:
256,256,53661,2,0,L|138:231,1,96.8000029541017,8|0,0:0|0:0,0:0:0:0:
356,48,53955,5,2,1:0:0:0:
416,256,54102,1,0,0:0:0:0:
168,80,54249,1,10,0:0:0:0:
356,164,54397,1,0,0:0:0:0:
120,336,54544,2,0,L|128:228,1,96.8000029541017,2|0,1:0|1:0,0:0:0:0:
276,96,54838,1,10,0:0:0:0:
464,312,54985,6,0,P|380:316|264:348,1,193.600005908203,6|0,1:0|1:0,0:0:0:0:
400,84,55426,2,0,P|453:92|501:88,1,96.8000029541017,8|0,0:0|0:0,0:0:0:0:
364,220,55720,1,0,1:0:0:0:
296,0,55867,1,0,1:0:0:0:
364,220,56014,2,0,L|341:323,1,96.8000029541017,8|0,0:0|0:0,0:0:0:0:
214,138,56308,6,0,P|308:116|400:84,1,193.600005908203,2|8,1:0|0:0,0:0:0:0:
204,4,56749,1,0,0:0:0:0:
80,164,56897,2,0,P|118:252|149:344,1,193.600005908203,2|8,1:0|0:0,0:0:0:0:
468,240,57338,6,0,B|500:184|480:108|480:108|388:136,1,193.600005908203,6|0,1:0|0:0,0:0:0:0:
200,208,57779,1,10,0:0:0:0:
336,20,57926,1,0,0:0:0:0:
392,284,58073,2,0,L|296:269,1,96.8000029541017,2|0,1:0|1:0,0:0:0:0:
44,228,58367,1,8,0:0:0:0:
224,128,58514,1,0,0:0:0:0:
100,336,58661,5,2,1:0:0:0:
52,120,58808,1,0,0:0:0:0:
232,268,58955,1,10,0:0:0:0:
218,47,59102,1,0,0:0:0:0:
384,284,59249,1,2,1:0:0:0:
405,63,59397,1,0,1:0:0:0:
192,184,59544,1,10,0:0:0:0:
420,376,59691,6,0,P|480:296|435:199,1,193.600005908203,6|2,1:0|1:0,0:0:0:0:
220,76,60132,1,10,0:0:0:0:
484,36,60279,1,0,0:0:0:0:
384,284,60426,2,0,L|284:260,1,96.8000029541017,2|0,1:0|1:0,0:0:0:0:
4,72,60720,2,0,L|104:48,1,96.8000029541017,8|0,0:0|0:0,0:0:0:0:
408,24,61014,5,6,1:0:0:0:
456,240,61161,1,0,1:0:0:0:
276,92,61308,1,8,0:0:0:0:
290,313,61455,1,0,0:0:0:0:
124,76,61602,1,2,1:0:0:0:
103,297,61749,1,0,1:0:0:0:
312,192,61897,1,10,0:0:0:0:
100,0,62044,6,0,P|82:95|58:188,1,193.600005908203,6|0,1:0|1:0,0:0:0:0:
324,304,62485,1,10,0:0:0:0:
260,92,62632,1,0,0:0:0:0:
16,260,62779,1,2,1:0:0:0:
56,40,62926,1,0,1:0:0:0:
272,212,63073,2,0,L|172:236,1,96.8000029541017,8|0,0:0|0:0,0:0:0:0:
432,312,63367,5,2,1:0:0:0:
376,92,63514,1,0,0:0:0:0:
208,312,63661,1,10,0:0:0:0:
224,72,63808,1,0,0:0:0:0:
12,216,63955,1,2,1:0:0:0:
88,0,64102,1,0,0:0:0:0:
260,188,64249,1,10,0:0:0:0:
2,312,64397,6,0,L|21:119,1,193.600005908203,6|0,1:0|1:0,0:0:0:0:
260,188,64838,2,0,L|276:290,1,96.8000029541017,8|0,0:0|0:0,0:0:0:0:
391,150,65132,1,8,0:0:0:0:
191,53,65279,1,0,1:0:0:0:
391,150,65426,2,0,P|438:142|485:128,1,96.8000029541017,8|0,0:0|1:0,0:0:0:0:
191,53,65720,6,0,P|99:35|-19:26,1,193.600005908203,6|8,1:0|0:0,0:0:0:0:
112,196,66161,1,0,1:0:0:0:
308,132,66308,2,0,P|400:114|518:105,1,193.600005908203,10|8,0:0|0:0,0:0:0:0:
387,275,66749,1,2,1:0:0:0:
112,196,66897,5,10,0:0:0:0:
308,132,67044,1,0,1:0:0:0:
168,304,67191,5,8,0:0:0:0:
104,84,67338,1,0,1:0:0:0:
284,284,67485,5,10,0:0:0:0:
40,256,67632,1,0,1:0:0:0:
308,132,67779,5,10,0:0:0:0:
216,384,67926,1,2,1:0:0:0:
12,132,68073,5,8,0:0:0:0:
285,51,68220,1,2,1:0:0:0:
124,316,68367,5,10,0:0:0:0:
52,24,68514,1,0,1:0:0:0:
372,92,68661,6,0,L|356:188,1,96.8000029541017,8|2,0:0|1:0,0:0:0:0:
28,228,68955,2,0,L|12:132,1,96.8000029541017,8|0,0:0|1:0,0:0:0:0:
296,12,69249,5,10,0:0:0:0:
259,213,69397,1,0,1:0:0:0:
491,65,69544,5,8,0:0:0:0:
267,109,69691,1,2,1:0:0:0:
435,301,69838,5,10,0:0:0:0:
383,61,69985,1,0,1:0:0:0:
115,149,70132,5,10,0:0:0:0:
363,245,70279,1,2,1:0:0:0:
171,9,70426,5,8,0:0:0:0:
111,285,70573,1,0,1:0:0:0:
395,153,70720,5,10,0:0:0:0:
107,65,70867,1,2,1:0:0:0:
16,380,71014,6,0,L|128:364,1,96.8000029541017,10|2,0:0|1:0,0:0:0:0:
316,96,71308,2,0,L|220:82,1,96.8000029541017,8|0,0:0|1:0,0:0:0:0:
416,252,71602,5,10,0:0:0:0:
432,46,71749,1,0,1:0:0:0:
236,260,71897,5,8,0:0:0:0:
219,33,72044,1,0,1:0:0:0:
444,275,72191,5,10,0:0:0:0:
463,26,72338,1,0,1:0:0:0:
211,279,72485,5,8,0:0:0:0:
191,13,72632,1,0,1:0:0:0:
432,280,72768,5,10,0:0:0:0:
308,24,72915,1,0,1:0:0:0:
132,216,73062,5,8,0:0:0:0:
420,124,73209,1,0,1:0:0:0:
79,8,73356,6,0,P|67:54|69:102,1,96.8000029541017,10|0,0:2|1:0,0:0:0:0:
336,288,73650,2,0,P|348:241|346:193,1,96.8000029541017,8|0,0:0|1:0,0:0:0:0:
48,280,73944,5,10,0:0:0:0:
244,340,74091,1,0,1:0:0:0:
80,168,74238,5,8,0:0:0:0:
8,384,74385,1,0,1:0:0:0:
212,184,74532,5,10,0:0:0:0:
8,44,74679,1,0,1:0:0:0:
136,292,74826,5,8,0:0:0:0:
228,40,74973,1,0,1:0:0:0:
400,316,75120,5,10,0:0:0:0:
360,52,75268,1,0,1:0:0:0:
100,168,75415,5,8,0:0:0:0:
320,380,75562,1,0,1:0:0:0:
432,112,75709,5,10,0:0:0:0:
208,300,75856,1,0,1:0:0:0:
80,28,76003,2,0,L|184:8,1,96.8000029541017,8|4,3:0|3:0,0:0:0:0:
436,212,76310,6,0,P|370:200|276:192,1,154,6|0,1:0|0:0,0:0:0:0:
256,276,77486,6,0,B|345:324|345:324|457:292,1,198.000007553101,6|0,1:0|0:0,0:0:0:0:
508,236,78074,6,0,P|366:114|201:200,1,396.000015106202,2|0,0:0|0:0,0:0:0:0:
40,257,78662,6,0,L|20:145,1,66.0000025177003,6|2,1:0|1:0,0:0:0:0:
205,203,78957,1,2,0:0:0:0:
205,203,79104,2,0,L|206:115,1,66.0000025177003,2|8,1:0|0:0,0:0:0:0:
24,170,79398,1,2,1:0:0:0:
24,170,79545,2,0,L|4:58,1,66.0000025177003,2|0,1:0|0:0,0:0:0:0:
208,79,79839,5,2,1:0:0:0:
206,89,79986,1,2,1:0:0:0:
204,100,80133,1,2,0:0:0:0:
202,111,80280,2,0,L|218:206,1,66.0000025177003,2|8,1:0|0:0,0:0:0:0:
420,212,80574,1,2,1:0:0:0:
422,201,80721,2,0,L|406:106,1,66.0000025177003,2|0,1:0|0:0,0:0:0:0:
202,111,81015,6,0,L|90:91,1,66.0000025177003,6|0,1:0|0:0,0:0:0:0:
144,272,81310,1,2,0:0:0:0:
144,272,81457,2,0,L|56:273,1,66.0000025177003,2|8,1:0|0:0,0:0:0:0:
115,95,81751,1,2,1:0:0:0:
115,95,81898,2,0,L|3:75,1,66.0000025177003,2|0,1:0|0:0,0:0:0:0:
112,278,82192,5,2,1:0:0:0:
122,276,82339,1,2,1:0:0:0:
133,274,82486,1,2,0:0:0:0:
144,272,82633,2,0,L|239:288,1,66.0000025177003,2|8,1:0|0:0,0:0:0:0:
328,108,82927,1,2,1:0:0:0:
317,102,83074,2,0,L|222:86,1,66.0000025177003,2|0,1:0|0:0,0:0:0:0:
230,286,83368,6,0,P|276:285|336:301,1,66.0000025177003,6|0,1:0|0:0,0:0:0:0:
399,158,83662,1,2,0:0:0:0:
399,158,83810,2,0,P|358:135|314:91,1,66.0000025177003,2|8,1:0|0:0,0:0:0:0:
317,295,84104,1,2,1:0:0:0:
317,295,84251,2,0,P|362:306|415:337,1,66.0000025177003,2|0,1:0|0:0,0:0:0:0:
431,164,84545,5,2,1:0:0:0:
421,162,84692,1,2,1:0:0:0:
410,160,84839,1,2,0:0:0:0:
399,158,84986,2,0,P|352:172|304:174,1,66.0000025177003,2|10,1:0|0:0,0:0:0:0:
272,24,85280,1,2,1:0:0:0:
283,18,85427,2,0,P|330:4|378:2,1,66.0000025177003,2|0,1:0|0:0,0:0:0:0:
200,156,85721,6,0,P|192:132|192:112,1,44,2|0,1:0|0:0,0:0:0:0:
