osu file format v14

[General]
AudioFilename: audio.mp3
AudioLeadIn: 0
PreviewTime: 48294
Countdown: 0
SampleSet: Soft
StackLeniency: 0.7
Mode: 0
LetterboxInBreaks: 0
WidescreenStoryboard: 1

[Editor]
DistanceSpacing: 1
BeatDivisor: 4
GridSize: 32
TimelineZoom: 1.4

[Metadata]
Title:Black Rover (TV Size)
TitleUnicode:Black Rover (TV Size)
Artist:Vickeblanka
ArtistUnicode:ビッケブランカ
Creator:Sotarks
Version:Akitoshi's Normal
Source:ブラッククローバー
Tags:clover opening op akitoshi corinn -laura- doormat lami intoon mir nevo snownino_ shunao shogunmoon naotoshi nao_tomori
BeatmapID:1655999
BeatmapSetID:781509

[Difficulty]
HPDrainRate:4
CircleSize:3
OverallDifficulty:4
ApproachRate:5
SliderMultiplier:0.999999999999999
SliderTickRate:1

[Events]
//Background and Video events
Video,0,"video.avi"
0,0,"BG.jpg",0,0
//Break Periods
2,45920,46726
//Storyboard Layer 0 (Background)
//Storyboard Layer 1 (Fail)
//Storyboard Layer 2 (Pass)
//Storyboard Layer 3 (Foreground)
//Storyboard Sound Samples

[TimingPoints]
1022,294.117647058824,4,2,22,42,1,0
7344,255.31914893617,4,2,22,42,1,0
7471,335.195530726257,4,2,22,42,1,0
7638,250,4,2,22,42,1,0
7763,294.117647058824,4,2,22,42,1,0
7918,329.67032967033,4,2,22,72,1,0
8082,329.67032967033,4,2,22,72,1,0
8247,294.117647058824,4,2,22,72,1,0
8368,294.117647058824,4,2,22,72,1,0
9250,294.117647058824,4,2,22,72,1,0
17459,-100,4,2,22,52,0,0
18734,-100,4,2,22,52,0,0
18832,-100,4,2,22,52,0,0
18930,-100,4,2,22,52,0,0
19028,-100,4,2,22,52,0,0
19126,-100,4,2,22,52,0,0
19224,-100,4,2,22,52,0,0
19322,-100,4,2,22,52,0,0
19420,-100,4,2,22,52,0,0
19518,-100,4,2,22,52,0,0
19616,-100,4,2,22,52,0,0
19714,-100,4,2,22,52,0,0
19812,-100,4,2,22,52,0,0
21087,-100,4,2,22,52,0,0
21185,-100,4,2,22,52,0,0
21283,-100,4,2,22,52,0,0
21381,-100,4,2,22,52,0,0
21479,-100,4,2,22,52,0,0
21577,-100,4,2,22,52,0,0
26004,294.117647058824,4,2,22,52,1,0
26871,-100,4,2,22,62,0,0
26897,294.117647058824,4,2,22,62,1,0
36283,-100,4,2,22,52,0,0
41577,-100,4,2,22,52,0,0
42165,-100,4,2,22,52,0,0
42753,-100,4,2,22,52,0,0
43342,-100,4,2,22,52,0,0
43930,-100,4,2,22,52,0,0
44518,-100,4,2,22,52,0,0
45106,-100,4,2,22,52,0,0
45695,-100,4,2,22,42,0,0
47328,294.117647058824,4,2,22,72,1,0
47475,346.820809248555,4,2,22,72,1,0
47648,250,4,2,22,72,1,0
47773,306.122448979592,4,2,22,72,1,0
47926,294.117647058824,4,2,22,82,1,1
48073,294.117647058824,4,2,22,82,1,1
57091,-100,4,2,22,82,0,1
57164,-100,4,2,22,82,0,1
57311,-100,4,2,22,82,0,1
66502,-100,4,2,22,82,0,1
66576,-100,4,2,22,82,0,1
66870,-100,4,2,22,92,0,1
72768,294.117647058824,4,2,22,92,1,1
76297,294.117647058824,4,2,22,72,1,9
76310,294.117647058824,4,2,22,72,1,0
76383,-100,4,2,22,62,0,0
85679,-100,4,2,22,52,0,0
86415,-100,4,2,22,5,0,0

[Colours]
Combo1 : 224,214,214
Combo2 : 255,17,17
Combo3 : 135,255,47
Combo4 : 36,244,255

[HitObjects]
174,133,7918,6,0,P|224:150|288:133,1,99.9999999999999,6|2,1:0|0:0,0:0:0:0:
314,121,8368,1,12,0:0:0:0:
405,161,8662,2,0,L|401:281,1,99.9999999999999,2|10,1:0|0:0,0:0:0:0:
338,338,9250,1,0,1:0:0:0:
239,357,9544,1,10,0:0:0:0:
166,287,9838,2,0,P|123:279|56:293,1,99.9999999999999,2|10,1:0|0:0,0:0:0:0:
22,309,10279,6,0,L|14:193,1,99.9999999999999,6|2,1:0|0:0,0:0:0:0:
10,159,10720,1,8,0:0:0:0:
70,79,11014,2,0,P|117:65|176:79,1,99.9999999999999,2|10,1:0|0:0,0:0:0:0:
243,137,11602,1,0,1:0:0:0:
280,229,11897,1,8,0:0:0:0:
260,327,12191,2,0,P|307:341|366:327,1,99.9999999999999,2|10,1:0|0:0,0:0:0:0:
397,303,12632,6,0,L|400:190,1,99.9999999999999,6|2,1:0|0:0,0:0:0:0:
401,152,13073,1,10,0:0:0:0:
354,63,13367,2,0,P|307:49|248:63,1,99.9999999999999,2|10,1:0|0:0,0:0:0:0:
164,95,13955,1,2,1:0:0:0:
127,187,14250,1,8,0:0:0:0:
148,284,14544,2,0,P|195:298|254:284,1,99.9999999999999,2|10,1:0|0:0,0:0:0:0:
330,239,15132,6,0,L|322:149,2,74.9999999999999,2|2|2,1:0|0:0|0:0,0:0:0:0:
356,281,15720,2,0,P|403:295|462:281,1,99.9999999999999,2|8,1:0|0:0,0:0:0:0:
510,204,16308,2,0,L|500:92,1,99.9999999999999,2|8,1:0|0:0,0:0:0:0:
475,68,16750,1,8,0:0:0:0:
475,68,16897,2,0,P|428:54|369:68,1,99.9999999999999,8|8,3:0|3:0,0:0:0:0:
286,100,17485,6,0,B|221:94|221:94|163:118|163:118|89:108,1,200,0|0,1:0|0:0,0:0:0:0:
10,166,18367,1,10,0:0:0:0:
19,265,18661,2,0,P|89:304|207:269,1,200,2|2,1:0|1:0,0:0:0:0:
261,196,19544,1,8,0:0:0:0:
286,100,19838,6,0,B|385:85|385:85|436:98|470:151,1,200,2|0,1:0|0:0,0:0:0:0:
498,236,20720,1,10,0:0:0:0:
423,303,21014,2,0,B|304:282|353:357|219:327,1,200,2|2,1:0|1:0,0:0:0:0:
140,286,21897,1,8,0:0:0:0:
212,216,22191,6,0,P|230:139|189:61,2,150,2|0|10,1:0|1:0|0:0,0:0:0:0:
140,286,23367,2,0,P|94:299|34:282,1,99.9999999999999,2|10,1:0|0:0,0:0:0:0:
1,197,23955,1,2,1:0:0:0:
8,97,24250,1,10,0:0:0:0:
104,70,24544,6,0,L|206:76,1,99.9999999999999,2|8,1:0|0:0,0:0:0:0:
282,137,25132,2,0,L|384:131,1,99.9999999999999,2|12,0:0|0:0,0:0:0:0:
477,161,25720,1,2,1:0:0:0:
501,257,26004,1,12,0:0:0:0:
427,325,26298,2,0,L|432:374,2,50,10|8|8,0:0|0:0|0:0,0:0:0:0:
353,257,26897,6,0,P|305:242|240:255,1,99.9999999999999,6|8,1:0|0:0,0:0:0:0:
168,298,27485,1,2,1:0:0:0:
69,312,27779,1,10,0:0:0:0:
12,229,28073,2,0,P|2:175|14:127,1,99.9999999999999,2|10,1:0|0:0,0:0:0:0:
33,86,28514,2,0,P|87:96|135:84,1,99.9999999999999,2|2,0:0|1:0,0:0:0:0:
174,62,28955,1,8,0:0:0:0:
263,18,29249,6,0,L|374:21,1,99.9999999999999,2|8,1:0|0:0,0:0:0:0:
462,26,29838,1,2,1:0:0:0:
498,119,30132,1,10,0:0:0:0:
442,202,30426,2,0,P|389:213|333:199,1,99.9999999999999,2|10,1:0|0:0,0:0:0:0:
298,184,30867,2,0,P|245:173|189:187,1,99.9999999999999,2|0,0:0|1:0,0:0:0:0:
157,207,31308,1,10,0:0:0:0:
161,306,31602,6,0,L|277:313,1,99.9999999999999,2|8,1:0|0:0,0:0:0:0:
360,317,32191,1,2,1:0:0:0:
439,256,32485,1,10,0:0:0:0:
459,158,32779,2,0,L|513:161,2,50,2|2|10,1:0|1:0|0:0,0:0:0:0:
419,126,33220,2,0,P|368:111|310:121,1,99.9999999999999,2|2,0:0|1:0,0:0:0:0:
274,130,33661,1,10,0:0:0:0:
200,197,33955,5,2,1:0:0:0:
103,221,34249,1,8,0:0:0:0:
14,175,34544,2,0,P|6:123|21:70,1,99.9999999999999,8|0,0:0|1:0,0:0:0:0:
49,39,34985,2,0,P|101:47|154:32,1,99.9999999999999,8|0,0:0|1:0,0:0:0:0:
193,17,35426,1,8,0:0:0:0:
283,60,35720,2,0,L|275:172,1,99.9999999999999,10|8,0:0|3:0,0:0:0:0:
265,259,36308,6,0,P|324:272|383:260,1,99.9999999999999,2|0,1:0|1:0,0:0:0:0:
447,214,36897,2,0,P|460:155|448:96,1,99.9999999999999,2|2,1:0|1:0,0:0:0:0:
422,78,37338,2,0,P|357:92|277:54,1,150,2|2,0:0|1:0,0:0:0:0:
191,17,38073,2,0,L|72:28,1,99.9999999999999,0|0,1:0|1:0,0:0:0:0:
28,104,38661,6,0,P|19:158|30:206,1,99.9999999999999,2|0,1:0|1:0,0:0:0:0:
85,283,39249,2,0,P|139:274|187:285,1,99.9999999999999,2|2,1:0|1:0,0:0:0:0:
224,311,39691,2,0,L|377:308,1,150,2|2,0:0|1:0,0:0:0:0:
473,299,40426,2,0,P|491:264|490:201,1,99.9999999999999,0|0,1:0|1:0,0:0:0:0:
445,118,41014,6,0,B|335:104|362:172|243:148,1,200,2|2,1:0|1:0,0:0:0:0:
57,105,42191,2,0,P|11:191|43:302,1,200,2|2,1:0|1:0,0:0:0:0:
103,357,43073,1,0,1:0:0:0:
193,314,43367,6,0,B|303:300|276:368|395:344,1,200,2|2,1:0|1:0,0:0:0:0:
476,167,44544,2,0,P|422:86|308:64,1,200,2|2,1:0|1:0,0:0:0:0:
228,74,45426,1,0,1:0:0:0:
164,151,45720,5,2,0:0:0:0:
164,151,47926,6,0,L|175:261,1,99.9999999999999,6|0,1:0|1:0,0:0:0:0:
177,300,48367,1,10,0:0:0:0:
252,365,48661,2,0,P|309:369|360:351,1,99.9999999999999,2|8,1:0|0:0,0:0:0:0:
420,285,49249,1,2,1:0:0:0:
420,185,49544,1,10,0:0:0:0:
349,114,49838,2,0,P|292:110|241:128,1,99.9999999999999,2|10,1:0|0:0,0:0:0:0:
206,144,50279,6,0,P|158:130|108:135,1,99.9999999999999,6|0,1:0|1:0,0:0:0:0:
62,156,50720,1,10,0:0:0:0:
28,250,51014,2,0,P|40:298|69:338,1,99.9999999999999,2|8,1:0|0:0,0:0:0:0:
164,368,51602,1,2,1:0:0:0:
262,351,51897,1,10,0:0:0:0:
302,259,52191,2,0,L|416:253,1,99.9999999999999,2|10,1:0|0:0,0:0:0:0:
451,247,52632,6,0,P|463:186|452:138,1,99.9999999999999,6|0,1:0|1:0,0:0:0:0:
431,105,53073,1,10,0:0:0:0:
349,47,53367,2,0,P|288:59|240:48,1,99.9999999999999,2|8,1:0|0:0,0:0:0:0:
153,32,53955,1,2,1:0:0:0:
59,67,54249,1,10,0:0:0:0:
17,158,54544,2,0,L|21:264,1,99.9999999999999,2|10,1:0|0:0,0:0:0:0:
25,307,54985,6,0,P|75:318|127:307,1,99.9999999999999,6|0,1:0|1:0,0:0:0:0:
164,282,55426,1,8,0:0:0:0:
233,210,55720,2,0,L|237:95,1,99.9999999999999,0|8,1:0|0:0,0:0:0:0:
306,39,56308,2,0,P|358:36|406:57,1,99.9999999999999,2|8,1:0|0:0,0:0:0:0:
453,139,56897,2,0,P|456:191|435:239,1,99.9999999999999,2|8,1:0|0:0,0:0:0:0:
394,259,57338,6,0,P|342:256|294:277,1,99.9999999999999,6|0,1:0|0:0,0:0:0:0:
259,304,57779,1,10,0:0:0:0:
185,372,58073,2,0,L|70:364,1,99.9999999999999,2|8,1:0|0:0,0:0:0:0:
14,294,58661,1,2,1:0:0:0:
14,194,58955,1,10,0:0:0:0:
71,111,59249,2,0,P|116:95|176:101,1,99.9999999999999,2|10,1:0|0:0,0:0:0:0:
214,115,59691,6,0,P|259:131|319:125,1,99.9999999999999,6|2,1:0|1:0,0:0:0:0:
357,111,60132,1,10,0:0:0:0:
450,145,60426,2,0,L|444:251,1,99.9999999999999,2|8,1:0|0:0,0:0:0:0:
428,343,61014,1,6,1:0:0:0:
332,372,61308,1,8,0:0:0:0:
247,318,61602,2,0,P|180:314|136:335,1,99.9999999999999,2|10,1:0|0:0,0:0:0:0:
105,348,62044,6,0,L|96:234,1,99.9999999999999,6|0,1:0|1:0,0:0:0:0:
94,198,62485,1,10,0:0:0:0:
136,107,62779,2,0,P|189:116|237:101,1,99.9999999999999,2|8,1:0|0:0,0:0:0:0:
309,39,63367,1,2,1:0:0:0:
407,23,63661,1,10,0:0:0:0:
499,60,63955,2,0,L|494:169,1,99.9999999999999,2|10,1:0|0:0,0:0:0:0:
462,197,64397,6,0,L|466:296,1,99.9999999999999,6|0,1:0|1:0,0:0:0:0:
470,346,64838,1,8,0:0:0:0:
372,369,65132,2,0,P|311:367|266:344,1,99.9999999999999,8|8,0:0|0:0,0:0:0:0:
205,280,65720,2,0,L|90:273,1,99.9999999999999,6|8,1:0|0:0,0:0:0:0:
105,173,66308,2,0,L|220:166,1,99.9999999999999,10|8,0:0|0:0,0:0:0:0:
259,167,66749,1,2,1:0:0:0:
259,167,66897,6,0,P|274:115|268:66,1,99.9999999999999,10|8,0:0|0:0,0:0:0:0:
185,15,67485,1,10,0:0:0:0:
85,24,67779,1,10,0:0:0:0:
13,94,68073,2,0,L|20:209,1,99.9999999999999,8|10,0:0|0:0,0:0:0:0:
29,293,68661,1,8,0:0:0:0:
114,344,68955,1,8,0:0:0:0:
210,316,69249,6,0,P|266:306|324:318,1,99.9999999999999,10|8,0:0|0:0,0:0:0:0:
404,340,69838,1,10,0:0:0:0:
491,291,70132,1,10,0:0:0:0:
510,193,70426,2,0,L|502:89,1,99.9999999999999,8|10,0:0|0:0,0:0:0:0:
500,47,70867,1,2,1:0:0:0:
500,47,71014,2,0,P|450:37|386:52,1,99.9999999999999,10|8,0:0|0:0,0:0:0:0:
315,94,71602,6,0,L|310:208,1,99.9999999999999,10|8,0:0|0:0,0:0:0:0:
255,277,72191,1,10,0:0:0:0:
156,292,72485,1,8,0:0:0:0:
65,248,72768,2,0,P|57:198|66:150,1,99.9999999999999,10|8,0:0|0:0,0:0:0:0:
131,72,73356,1,10,0:2:0:0:
227,46,73650,1,8,0:0:0:0:
315,94,73944,6,0,L|421:100,1,99.9999999999999,10|8,0:0|0:0,0:0:0:0:
489,166,74532,1,10,0:0:0:0:
503,264,74826,1,8,0:0:0:0:
435,338,75120,2,0,P|356:343|316:329,1,99.9999999999999,10|8,0:0|0:0,0:0:0:0:
264,275,75709,2,0,L|195:281,1,50,10|0,0:0|1:0,0:0:0:0:
167,297,76003,2,0,L|98:291,1,50,8|4,3:0|3:0,0:0:0:0:
67,283,76310,6,0,P|28:208|77:96,1,200,6|2,1:0|0:0,0:0:0:0:
248,24,77486,2,0,L|254:233,1,200,6|2,1:0|0:0,0:0:0:0:
430,317,78662,6,0,P|474:289|499:185,1,150,6|2,1:0|1:0,0:0:0:0:
492,149,79251,2,0,L|385:139,1,99.9999999999999,8|2,0:0|1:0,0:0:0:0:
314,77,79839,2,0,L|317:22,2,50,2|2|2,1:0|1:0|0:0,0:0:0:0:
281,114,80280,2,0,P|227:127|170:114,1,99.9999999999999,2|2,1:0|1:0,0:0:0:0:
137,100,80721,1,2,1:0:0:0:
44,138,81015,6,0,L|53:291,1,150,6|2,1:0|1:0,0:0:0:0:
61,337,81604,2,0,P|105:353|172:339,1,99.9999999999999,8|2,0:0|1:0,0:0:0:0:
236,285,82192,2,0,L|293:289,2,50,2|2|2,1:0|1:0|0:0,0:0:0:0:
198,252,82633,2,0,P|188:198|205:135,1,99.9999999999999,2|2,1:0|1:0,0:0:0:0:
219,110,83074,1,2,1:0:0:0:
290,39,83368,6,0,B|390:28|390:28|443:49,1,150,6|2,1:0|1:0,0:0:0:0:
478,73,83957,2,0,P|490:122|479:175,1,99.9999999999999,10|2,0:0|1:0,0:0:0:0:
408,239,84545,2,0,L|414:298,2,50,2|2|2,1:0|1:0|0:0,0:0:0:0:
375,200,84986,2,0,P|326:188|273:199,1,99.9999999999999,2|2,1:0|1:0,0:0:0:0:
236,224,85427,1,2,1:0:0:0:
146,272,85721,6,0,B|70:316|2:242|2:242|29:204|90:189,1,250,2|0,1:0|0:0,0:0:0:0:
