osu file format v14

[General]
AudioFilename: audio.mp3
AudioLeadIn: 0
PreviewTime: 48294
Countdown: 0
SampleSet: Soft
StackLeniency: 0.7
Mode: 0
LetterboxInBreaks: 0
WidescreenStoryboard: 1

[Editor]
Bookmarks: 52311
DistanceSpacing: 1.4
BeatDivisor: 4
GridSize: 16
TimelineZoom: 2.5

[Metadata]
Title:Black Rover (TV Size)
TitleUnicode:Black Rover (TV Size)
Artist:Vickeblanka
ArtistUnicode:ビッケブランカ
Creator:Sotarks
Version:Lami's Extra
Source:ブラッククローバー
Tags:clover opening op akitoshi corinn -laura- doormat lami intoon mir nevo snownino_ shunao shogunmoon naotoshi nao_tomori
BeatmapID:1643270
BeatmapSetID:781509

[Difficulty]
HPDrainRate:5.2
CircleSize:3.8
OverallDifficulty:9
ApproachRate:9.3
SliderMultiplier:1.8
SliderTickRate:1

[Events]
//Background and Video events
0,0,"BG.jpg",0,0
Video,0,"video.avi"
//Break Periods
//Storyboard Layer 0 (Background)
//Storyboard Layer 1 (Fail)
//Storyboard Layer 2 (Pass)
//Storyboard Layer 3 (Foreground)
//Storyboard Sound Samples

[TimingPoints]
1022,294.117647058824,4,2,22,42,1,0
1022,-166.666666666667,4,2,22,42,0,0
7333,-166.666666666667,4,2,22,52,0,0
7344,255.31914893617,4,2,22,62,1,0
7471,335.195530726257,4,2,22,62,1,0
7638,250,4,2,22,62,1,0
7763,294.117647058824,4,2,22,62,1,0
7901,-100,4,2,22,72,0,0
7918,329.67032967033,4,2,22,72,1,0
8082,329.67032967033,4,2,22,72,1,0
8247,294.117647058824,4,2,22,72,1,0
8368,294.117647058824,4,2,22,72,1,0
9250,294.117647058824,4,2,22,72,1,0
17459,-111.111111111111,4,2,22,52,0,0
26004,294.117647058824,4,2,22,52,1,0
26004,-111.111111111111,4,2,22,52,0,0
26897,294.117647058824,4,2,22,62,1,0
36283,-125,4,2,22,52,0,0
45695,-333.333333333333,4,2,22,42,0,0
47328,294.117647058824,4,2,22,72,1,0
47328,-100,4,2,22,72,0,0
47475,346.820809248555,4,2,22,72,1,0
47648,250,4,2,22,72,1,0
47773,306.122448979592,4,2,22,72,1,0
47926,294.117647058824,4,2,22,82,1,0
47926,-95.2380952380952,4,2,22,82,0,1
48073,294.117647058824,4,2,22,82,1,1
48367,-95.2380952380952,4,2,22,82,0,1
56308,-100,4,2,22,82,0,0
57337,-95.2380952380952,4,2,22,82,0,1
65720,-100,4,2,22,82,0,0
66896,-95.2380952380952,4,2,22,92,0,1
72768,294.117647058824,4,2,22,92,1,1
76297,294.117647058824,4,2,22,92,1,9
76310,294.117647058824,4,2,22,92,1,1
76310,-200,4,2,22,72,0,0
76341,-200,4,2,22,62,0,0
78620,-133.333333333333,4,2,22,62,0,0
85679,-133.333333333333,4,2,22,52,0,0
86415,-133.333333333333,4,2,22,5,0,0

[Colours]
Combo1 : 224,214,214
Combo2 : 255,17,17
Combo3 : 135,255,47
Combo4 : 36,244,255

[HitObjects]
286,161,1022,6,0,P|310:152|358:155,1,53.9999983520508,2|0,0:0|0:0,0:0:0:0:
327,229,1316,2,0,P|353:233|393:259,1,53.9999983520508,2|0,0:0|0:0,0:0:0:0:
220,353,1610,2,0,P|199:336|177:294,1,53.9999983520508,2|0,0:0|0:0,0:0:0:0:
257,282,1904,2,0,P|248:257|250:210,1,53.9999983520508,2|0,0:0|0:0,0:0:0:0:
72,143,2198,6,0,P|62:168|65:215,1,53.9999983520508,2|0,0:0|0:0,0:0:0:0:
140,185,2492,2,0,P|144:210|169:250,1,53.9999983520508,2|0,0:0|0:0,0:0:0:0:
264,77,2786,2,0,P|247:56|204:34,1,53.9999983520508,2|0,0:0|0:0,0:0:0:0:
193,115,3080,2,0,P|167:105|121:107,1,53.9999983520508,2|0,0:0|0:0,0:0:0:0:
327,229,3374,6,0,L|387:218,1,53.9999983520508,2|0,0:0|0:0,0:0:0:0:
349,144,3669,2,0,L|409:133,1,53.9999983520508,2|0,0:0|0:0,0:0:0:0:
242,205,3963,2,0,L|188:195,1,53.9999983520508,2|0,0:0|0:0,0:0:0:0:
264,290,4257,2,0,L|210:281,1,53.9999983520508,2|0,0:0|0:0,0:0:0:0:
35,341,4551,6,0,L|45:281,1,53.9999983520508,2|0,0:0|0:0,0:0:0:0:
120,319,4845,2,0,L|130:259,1,53.9999983520508,2|0,0:0|0:0,0:0:0:0:
94,120,5139,2,0,L|104:179,1,53.9999983520508,2|0,0:0|0:0,0:0:0:0:
179,141,5433,2,0,L|189:201,1,53.9999983520508,2|0,0:0|0:0,0:0:0:0:
340,334,5727,6,0,P|365:329|405:303,1,53.9999983520508,2|0,0:0|0:0,0:0:0:0:
342,253,6021,2,0,P|362:237|383:194,1,53.9999983520508,2|0,0:0|0:0,0:0:0:0:
147,306,6315,2,0,P|145:332|162:376,1,53.9999983520508,2|0,0:0|0:0,0:0:0:0:
224,324,6609,2,0,P|236:347|272:377,1,53.9999983520508,2|0,0:0|0:0,0:0:0:0:
300,181,6903,2,0,P|288:157|251:127,1,53.9999983520508,2|0,0:0|0:0,0:0:0:0:
223,204,7197,2,0,P|202:189|154:181,1,53.9999983520508,2|0,0:0|1:0,0:0:0:0:
141,192,7407,1,0,1:0:0:0:
126,201,7471,5,8,0:0:0:0:
147,306,7638,1,0,1:0:0:0:
187,102,7763,1,8,0:0:0:0:
406,314,7918,6,0,P|317:296|228:285,1,180,6|2,1:0|0:0,0:0:0:0:
257,61,8368,2,0,P|302:72|338:97,1,90,12|0,0:0|0:0,0:0:0:0:
406,314,8662,1,2,1:0:0:0:
480,166,8809,1,0,1:0:0:0:
302,243,8956,2,0,P|276:206|265:162,1,90,10|0,0:0|0:0,0:0:0:0:
411,23,9250,5,0,1:0:0:0:
370,172,9397,1,2,1:0:0:0:
167,66,9544,2,0,P|122:69|77:77,1,90,10|2,0:0|0:0,0:0:0:0:
160,344,9838,1,2,1:0:0:0:
306,209,9985,1,2,1:0:0:0:
105,176,10132,1,10,0:0:0:0:
350,296,10279,6,0,P|398:238|365:133,1,180,6|2,1:0|0:0,0:0:0:0:
172,255,10720,2,0,P|165:299|161:344,1,90,8|0,0:0|0:0,0:0:0:0:
306,209,11014,1,2,1:0:0:0:
262,360,11161,1,0,1:0:0:0:
95,191,11308,2,0,P|133:162|175:155,1,90,10|0,0:0|0:0,0:0:0:0:
350,296,11602,5,0,1:0:0:0:
455,143,11750,2,0,P|384:91|301:117,1,180,2|0,1:0|0:0,0:0:0:0:
172,255,12191,1,2,1:0:0:0:
306,209,12338,1,2,1:0:0:0:
106,113,12485,1,10,0:0:0:0:
96,350,12632,6,0,B|152:340|152:340|214:358|214:358|271:349,1,180,6|2,1:0|0:0,0:0:0:0:
183,165,13073,2,0,L|171:257,1,90,10|0,0:0|0:0,0:0:0:0:
302,116,13367,1,2,1:0:0:0:
259,258,13514,1,0,1:0:0:0:
106,113,13661,2,0,P|62:124|26:149,1,90,10|0,0:0|0:0,0:0:0:0:
96,350,13955,5,2,1:0:0:0:
171,254,14102,2,0,L|194:75,1,180,2|0,1:0|0:0,0:0:0:0:
412,82,14544,1,2,1:0:0:0:
307,174,14691,1,2,1:0:0:0:
431,298,14838,2,0,P|474:287|511:261,1,90,10|0,0:0|0:0,0:0:0:0:
412,82,15132,6,0,B|323:67|323:67|281:83,2,135,2|2|2,1:0|0:0|0:0,0:0:0:0:
431,298,15720,2,0,L|419:208,1,90,2|0,1:0|1:0,0:0:0:0:
281,82,16014,2,0,L|269:171,1,90,8|0,0:0|0:0,0:0:0:0:
246,349,16308,5,2,1:0:0:0:
335,270,16455,1,0,1:0:0:0:
335,270,16529,1,0,0:0:0:0:
335,270,16602,1,8,0:0:0:0:
173,193,16750,1,8,0:0:0:0:
400,116,16897,5,8,3:0:0:0:
343,365,17044,1,4,3:0:0:0:
268,171,17191,1,8,3:0:0:0:
431,298,17338,1,4,3:0:0:0:
312,91,17485,6,0,P|237:85|181:150,1,161.999995056153,0|8,1:0|0:0,0:0:0:0:
77,266,17926,2,0,B|127:256|127:256|185:273|185:273|236:264,1,161.999995056153,0|0,1:0|1:0,0:0:0:0:
343,365,18367,2,0,P|370:330|379:286,1,80.9999975280763,10|0,0:0|0:0,0:0:0:0:
182,145,18661,5,2,1:0:0:0:
235,265,18808,1,2,1:0:0:0:
312,91,18955,2,0,P|351:79|392:78,1,80.9999975280763,8|2,0:0|0:0,0:0:0:0:
455,209,19250,2,0,P|414:207|376:195,1,80.9999975280763,2|2,1:0|1:0,0:0:0:0:
224,57,19544,1,8,0:0:0:0:
150,225,19691,1,10,0:0:0:0:
150,225,19764,1,8,0:0:0:0:
150,225,19838,6,0,P|133:305|123:385,1,161.999995056153,2|8,1:0|0:0,0:0:0:0:
364,318,20279,2,0,P|313:260|227:272,1,161.999995056153,0|0,1:0|1:0,0:0:0:0:
71,238,20720,2,0,P|110:226|151:225,1,80.9999975280763,10|0,0:0|0:0,0:0:0:0:
279,345,21014,5,2,1:0:0:0:
227,178,21161,1,2,1:0:0:0:
70,325,21308,2,0,P|31:314|0:289,1,80.9999975280763,8|2,0:0|0:0,0:0:0:0:
147,133,21602,2,0,P|176:105|213:91,1,80.9999975280763,2|2,1:0|1:0,0:0:0:0:
357,229,21897,1,8,0:0:0:0:
228,326,22044,1,10,0:0:0:0:
228,326,22117,1,8,0:0:0:0:
228,326,22191,6,0,B|176:316|176:316|119:333|119:333|67:324,1,161.999995056153,2|8,1:0|0:0,0:0:0:0:
147,133,22632,2,0,P|224:127|275:190,1,161.999995056153,0|0,1:0|1:0,0:0:0:0:
316,368,23073,1,10,0:0:0:0:
316,368,23367,5,2,1:0:0:0:
357,229,23514,1,0,1:0:0:0:
228,326,23661,2,0,P|190:322|149:306,1,80.9999975280763,10|0,0:0|0:0,0:0:0:0:
38,240,23955,2,0,P|75:236|117:220,1,80.9999975280763,2|0,1:0|1:0,0:0:0:0:
198,49,24250,1,10,0:0:0:0:
279,184,24397,1,8,0:0:0:0:
279,184,24470,1,8,0:0:0:0:
279,184,24544,6,0,L|291:274,1,80.9999975280763,2|0,1:0|0:0,0:0:0:0:
165,380,24838,1,8,0:0:0:0:
165,380,24985,1,0,1:0:0:0:
115,220,25132,5,2,0:0:0:0:
289,264,25279,1,0,1:0:0:0:
61,349,25426,1,12,0:0:0:0:
61,349,25720,6,0,P|44:308|42:271,1,80.9999975280763,2|0,1:0|1:0,0:0:0:0:
171,81,26004,2,0,P|188:122|190:159,1,80.9999975280763,12|0,0:0|0:0,0:0:0:0:
154,354,26298,1,10,0:0:0:0:
90,142,26445,1,8,0:0:0:0:
341,303,26592,1,8,0:0:0:0:
277,91,26739,1,8,0:0:0:0:
91,262,26897,6,0,P|46:254|1:251,1,90,6|0,1:0|0:0,0:0:0:0:
265,212,27191,2,0,P|309:204|354:201,1,90,8|0,0:0|0:0,0:0:0:0:
505,294,27485,1,2,1:0:0:0:
435,138,27632,1,0,1:0:0:0:
314,298,27779,2,0,P|317:342|335:383,1,90,10|0,0:0|0:0,0:0:0:0:
354,200,28073,6,0,P|296:152|191:185,1,180,2|10,1:0|0:0,0:0:0:0:
112,354,28514,1,2,0:0:0:0:
51,202,28661,1,0,1:0:0:0:
225,272,28808,1,2,1:0:0:0:
86,373,28955,1,8,0:0:0:0:
22,190,29102,1,2,0:0:0:0:
204,364,29249,6,0,P|292:346|381:335,1,180,2|8,1:0|0:0,0:0:0:0:
444,139,29691,1,0,0:0:0:0:
353,199,29838,2,0,P|309:196|268:178,1,90,2|0,1:0|1:0,0:0:0:0:
185,50,30132,2,0,P|225:31|270:28,1,90,10|0,0:0|0:0,0:0:0:0:
198,245,30426,6,0,B|142:235|142:235|80:253|80:253|23:244,1,180,2|10,1:0|0:0,0:0:0:0:
242,332,30867,2,0,P|290:274|257:169,1,180,2|0,0:0|1:0,0:0:0:0:
22,243,31308,1,10,0:0:0:0:
66,90,31455,1,2,0:0:0:0:
198,245,31602,6,0,P|286:227|375:216,1,180,2|8,1:0|0:0,0:0:0:0:
434,54,32044,1,0,0:0:0:0:
480,180,32191,2,0,P|477:224|469:269,1,90,2|0,1:0|1:0,0:0:0:0:
301,352,32485,2,0,P|293:307|290:262,1,90,10|0,0:0|0:0,0:0:0:0:
434,54,32779,5,2,1:0:0:0:
375,215,32926,1,2,1:0:0:0:
275,43,33073,1,10,0:0:0:0:
198,245,33220,2,0,P|114:270|44:219,1,180,2|2,0:0|1:0,0:0:0:0:
91,57,33661,2,0,P|135:49|180:46,1,90,10|0,0:0|0:0,0:0:0:0:
375,215,33955,6,0,P|330:212|289:193,1,90,2|0,1:0|1:0,0:0:0:0:
372,20,34249,1,8,0:0:0:0:
189,145,34397,1,0,1:0:0:0:
427,321,34544,1,8,0:0:0:0:
427,321,34838,1,0,1:0:0:0:
352,117,34985,1,8,0:0:0:0:
198,245,35132,5,0,0:0:0:0:
275,43,35279,1,0,1:0:0:0:
482,227,35426,1,8,0:0:0:0:
482,227,35720,5,10,0:0:0:0:
288,193,35867,1,8,0:0:0:0:
427,321,36014,1,8,3:0:0:0:
385,210,36161,1,4,3:0:0:0:
251,333,36308,6,0,P|179:341|109:356,1,144,2|0,1:0|1:0,0:0:0:0:
146,170,36897,2,0,P|218:178|288:193,1,144,2|2,1:0|1:0,0:0:0:0:
321,284,37338,1,2,0:0:0:0:
385,210,37485,2,0,P|382:165|358:129,1,72,0|0,1:0|0:0,0:0:0:0:
179,81,37779,6,0,P|241:48|310:63,1,144,2|0,1:0|1:0,0:0:0:0:
369,141,38220,1,2,0:0:0:0:
395,18,38367,2,0,L|466:8,1,72,0|0,1:0|0:0,0:0:0:0:
424,230,38661,6,0,P|355:245|292:212,1,144,2|0,1:0|1:0,0:0:0:0:
179,81,39102,1,2,0:0:0:0:
192,174,39249,2,0,L|201:245,1,72,2|0,1:0|0:0,0:0:0:0:
270,352,39544,1,2,1:0:0:0:
201,245,39691,6,0,B|155:237|155:237|105:252|105:252|61:244,1,144,2|0,0:0|0:0,0:0:0:0:
115,61,40132,1,2,1:0:0:0:
206,119,40279,2,0,B|251:111|251:111|301:126|301:126|346:118,1,144,2|2,0:0|0:0,0:0:0:0:
391,245,40720,2,0,L|319:235,1,72,0|0,1:0|0:0,0:0:0:0:
424,15,41014,6,0,P|439:85|446:156,1,144,2|0,1:0|1:0,0:0:0:0:
194,366,41602,2,0,P|201:294|216:224,1,144,2|0,1:0|1:0,0:0:0:0:
477,298,42191,2,0,P|407:313|336:320,1,144,2|0,1:0|1:0,0:0:0:0:
162,88,42779,2,0,P|233:94|303:110,1,144,2|0,1:0|1:0,0:0:0:0:
136,302,43367,6,0,P|102:239|118:170,1,144,2|0,1:0|1:0,0:0:0:0:
362,38,43955,2,0,P|395:100|379:169,1,144,2|0,1:0|1:0,0:0:0:0:
310,237,44397,1,0,0:0:0:0:
203,121,44544,5,2,1:0:0:0:
404,264,44838,1,0,1:0:0:0:
179,366,45132,1,2,1:0:0:0:
362,38,45426,1,0,1:0:0:0:
448,347,45720,6,0,P|394:336|341:329,2,107.999996704102,2|2|2,0:0|0:0|0:0,0:0:0:0:
288,92,47328,2,0,L|273:146,1,45,0|0,1:0|1:0,0:0:0:0:
240,278,47475,5,8,0:0:0:0:
375,178,47648,1,0,1:0:0:0:
173,98,47773,1,8,0:0:0:0:
124,367,47926,6,0,B|182:356|182:356|248:374|248:374|309:365,1,188.999994232178,6|0,1:0|1:0,0:0:0:0:
451,121,48367,2,0,P|412:93|366:82,1,94.499997116089,10|0,0:0|0:0,0:0:0:0:
240,279,48661,1,2,1:0:0:0:
275,139,48808,1,0,1:0:0:0:
428,295,48955,2,0,P|435:345|440:396,1,94.499997116089,8|0,0:0|0:0,0:0:0:0:
240,279,49249,6,0,P|277:251|322:240,1,94.499997116089,2|0,1:0|1:0,0:0:0:0:
124,367,49544,2,0,P|77:354|40:328,1,94.499997116089,10|0,0:0|0:0,0:0:0:0:
54,115,49838,1,2,1:0:0:0:
135,270,49985,1,0,1:0:0:0:
185,45,50132,1,10,0:0:0:0:
323,240,50279,6,0,P|414:238|462:158,1,188.999994232178,6|0,1:0|1:0,0:0:0:0:
278,56,50720,2,0,P|227:48|176:43,1,94.499997116089,10|0,0:0|0:0,0:0:0:0:
90,188,51014,2,0,P|42:193|-3:200,1,94.499997116089,2|0,1:0|1:0,0:0:0:0:
211,328,51308,2,0,P|226:289|225:234,1,94.499997116089,8|0,0:0|0:0,0:0:0:0:
103,96,51602,5,2,1:0:0:0:
135,270,51749,1,0,1:0:0:0:
275,153,51897,2,0,P|325:145|376:140,1,94.499997116089,10|0,0:0|0:0,0:0:0:0:
467,319,52191,1,2,1:0:0:0:
323,240,52338,1,0,1:0:0:0:
489,159,52485,1,10,0:0:0:0:
314,376,52632,6,0,P|220:357|127:345,1,188.999994232178,6|0,1:0|1:0,0:0:0:0:
41,145,53073,2,0,P|87:128|133:123,1,94.499997116089,10|0,0:0|0:0,0:0:0:0:
409,247,53367,1,2,1:0:0:0:
331,114,53514,1,0,1:0:0:0:
192,269,53661,2,0,P|146:257|110:226,1,94.499997116089,8|0,0:0|0:0,0:0:0:0:
219,34,53955,6,0,P|232:81|240:130,1,94.499997116089,2|0,1:0|0:0,0:0:0:0:
319,252,54249,2,0,P|306:299|289:345,1,94.499997116089,10|0,0:0|0:0,0:0:0:0:
85,306,54544,1,2,1:0:0:0:
41,145,54691,1,0,1:0:0:0:
192,269,54838,1,10,0:0:0:0:
340,99,54985,6,0,P|429:85|490:152,1,188.999994232178,6|0,1:0|1:0,0:0:0:0:
382,362,55426,2,0,P|336:349|289:341,1,94.499997116089,8|0,0:0|0:0,0:0:0:0:
239,126,55720,1,0,1:0:0:0:
363,215,55867,1,0,1:0:0:0:
178,315,56014,1,8,0:0:0:0:
257,157,56161,1,0,0:0:0:0:
289,341,56308,6,0,P|381:322|475:310,1,180,2|8,1:0|0:0,0:0:0:0:
340,99,56749,1,0,0:0:0:0:
176,198,56897,2,0,P|157:290|145:384,1,180,2|8,1:0|0:0,0:0:0:0:
238,125,57338,6,0,P|150:106|82:178,1,188.999994232178,6|0,1:0|0:0,0:0:0:0:
289,341,57779,2,0,P|334:329|372:302,1,94.499997116089,10|0,0:0|0:0,0:0:0:0:
238,125,58073,1,2,1:0:0:0:
373,201,58220,1,0,1:0:0:0:
193,293,58367,2,0,P|143:286|92:281,1,94.499997116089,8|0,0:0|0:0,0:0:0:0:
15,96,58661,6,0,P|63:80|112:72,1,94.499997116089,2|0,1:0|0:0,0:0:0:0:
241,212,58955,2,0,P|196:200|158:173,1,94.499997116089,10|0,0:0|0:0,0:0:0:0:
352,13,59249,1,2,1:0:0:0:
238,125,59397,1,0,1:0:0:0:
450,204,59544,1,10,0:0:0:0:
246,342,59691,6,0,B|188:331|188:331|122:349|122:349|61:340,1,188.999994232178,6|2,1:0|1:0,0:0:0:0:
73,105,60132,2,0,P|81:156|86:207,1,94.499997116089,10|0,0:0|0:0,0:0:0:0:
246,342,60426,2,0,P|251:294|258:249,1,94.499997116089,2|0,1:0|1:0,0:0:0:0:
260,42,60720,2,0,P|213:46|169:70,1,94.499997116089,8|0,0:0|0:0,0:0:0:0:
0,244,61014,5,6,1:0:0:0:
73,105,61161,1,0,1:0:0:0:
164,260,61308,2,0,P|214:252|265:247,1,94.499997116089,8|0,0:0|0:0,0:0:0:0:
425,156,61602,1,2,1:0:0:0:
364,315,61749,1,0,1:0:0:0:
239,144,61897,1,10,0:0:0:0:
213,364,62044,6,0,P|117:366|55:295,1,188.999994232178,6|0,1:0|1:0,0:0:0:0:
164,73,62485,2,0,P|210:62|257:60,1,94.499997116089,10|0,0:0|0:0,0:0:0:0:
257,247,62779,1,2,1:0:0:0:
347,100,62926,1,0,1:0:0:0:
451,280,63073,2,0,P|453:331|442:374,1,94.499997116089,8|0,0:0|0:0,0:0:0:0:
166,268,63367,6,0,P|212:251|258:246,1,94.499997116089,2|0,1:0|0:0,0:0:0:0:
437,121,63661,2,0,P|391:104|345:99,1,94.499997116089,10|0,0:0|0:0,0:0:0:0:
166,268,63955,1,2,1:0:0:0:
164,73,64102,1,0,0:0:0:0:
368,204,64249,1,10,0:0:0:0:
150,360,64397,6,0,P|91:324|100:201,1,188.999994232178,6|0,1:0|1:0,0:0:0:0:
243,23,64838,2,0,P|256:69|264:116,1,94.499997116089,8|0,0:0|0:0,0:0:0:0:
347,295,65132,2,0,P|355:248|367:203,1,94.499997116089,8|0,0:0|1:0,0:0:0:0:
435,32,65426,1,8,0:0:0:0:
503,178,65573,1,0,1:0:0:0:
263,114,65720,6,0,P|173:125|85:144,1,180,6|8,1:0|0:0,0:0:0:0:
177,367,66161,2,0,L|193:313,1,45,0|0,1:0|1:0,0:0:0:0:
310,231,66308,2,0,P|403:243|495:265,1,180,10|8,0:0|0:0,0:0:0:0:
440,64,66749,1,2,1:0:0:0:
208,233,66897,6,0,P|188:191|187:143,1,94.499997116089,10|0,0:0|1:0,0:0:0:0:
350,16,67191,1,8,0:0:0:0:
310,231,67338,1,0,1:0:0:0:
208,45,67485,5,10,0:0:0:0:
401,195,67632,1,0,1:0:0:0:
186,143,67779,1,10,0:0:0:0:
359,50,67926,1,2,1:0:0:0:
383,288,68073,6,0,P|380:332|359:377,1,94.499997116089,8|2,0:0|1:0,0:0:0:0:
116,253,68367,2,0,P|159:237|208:232,1,94.499997116089,10|0,0:0|1:0,0:0:0:0:
418,114,68661,5,8,0:0:0:0:
284,309,68808,1,2,1:0:0:0:
153,117,68955,1,8,0:0:0:0:
309,211,69102,1,0,1:0:0:0:
214,29,69249,6,0,P|170:12|118:11,1,94.499997116089,10|0,0:0|1:0,0:0:0:0:
34,238,69544,1,8,0:0:0:0:
242,139,69691,1,2,1:0:0:0:
20,120,69838,5,10,0:0:0:0:
94,333,69985,1,0,1:0:0:0:
208,141,70132,1,10,0:0:0:0:
183,322,70279,1,2,1:0:0:0:
321,178,70426,6,0,P|364:161|417:155,1,94.499997116089,8|0,0:0|1:0,0:0:0:0:
262,367,70720,1,10,0:0:0:0:
121,192,70867,1,2,1:0:0:0:
328,61,71014,5,10,0:0:0:0:
295,276,71161,1,2,1:0:0:0:
136,86,71308,1,8,0:0:0:0:
198,259,71455,1,0,1:0:0:0:
401,200,71602,5,10,0:0:0:0:
262,369,71749,1,0,1:0:0:0:
209,148,71897,5,8,0:0:0:0:
387,291,72044,1,0,1:0:0:0:
511,84,72191,5,10,0:0:0:0:
299,227,72338,1,0,1:0:0:0:
361,15,72485,5,8,0:0:0:0:
487,205,72632,1,0,1:0:0:0:
279,76,72768,5,10,0:0:0:0:
438,130,72915,1,0,1:0:0:0:
211,233,73062,5,8,0:0:0:0:
386,202,73209,1,0,1:0:0:0:
146,76,73356,5,10,0:2:0:0:
297,169,73503,1,0,1:0:0:0:
85,250,73650,5,8,0:0:0:0:
211,143,73797,1,0,1:0:0:0:
363,350,73944,5,10,0:0:0:0:
187,229,74091,1,0,1:0:0:0:
409,180,74238,5,8,0:0:0:0:
259,326,74385,1,0,1:0:0:0:
211,143,74532,5,10,0:0:0:0:
334,252,74679,1,0,1:0:0:0:
234,57,74826,5,8,0:0:0:0:
101,206,74973,1,0,1:0:0:0:
148,33,75120,5,10,0:0:0:0:
297,119,75268,1,0,1:0:0:0:
125,119,75415,5,8,0:0:0:0:
320,34,75562,1,0,1:0:0:0:
438,274,75709,5,10,0:0:0:0:
266,216,75856,1,0,1:0:0:0:
402,94,76003,1,8,3:0:0:0:
371,189,76150,1,4,3:0:0:0:
297,119,76310,6,0,P|209:132|164:208,2,180,6|2|6,1:0|0:0|1:0,0:0:0:0:
356,361,78074,2,0,P|289:347|222:339,1,135,2|0,0:0|0:0,0:0:0:0:
132,370,78662,6,0,L|120:282,1,67.5000025749208,6|2,1:0|1:0,0:0:0:0:
22,295,78957,1,2,0:0:0:0:
22,295,79104,2,0,L|34:207,1,67.5000025749208,2|8,1:0|0:0,0:0:0:0:
138,200,79398,1,2,1:0:0:0:
138,200,79545,2,0,L|126:112,1,67.5000025749208,2|0,1:0|0:0,0:0:0:0:
254,61,79839,5,2,1:0:0:0:
249,71,79986,1,2,1:0:0:0:
246,81,80133,1,2,0:0:0:0:
244,93,80280,1,2,1:0:0:0:
348,141,80574,5,2,1:0:0:0:
346,129,80721,1,2,1:0:0:0:
286,256,81015,6,0,L|198:268,1,67.5000025749208,6|0,1:0|0:0,0:0:0:0:
211,366,81310,1,2,0:0:0:0:
211,366,81457,2,0,L|123:354,1,67.5000025749208,2|8,1:0|0:0,0:0:0:0:
116,250,81751,1,2,1:0:0:0:
116,250,81898,2,0,L|28:262,1,67.5000025749208,2|0,1:0|0:0,0:0:0:0:
74,115,82192,5,2,1:0:0:0:
84,110,82339,1,2,1:0:0:0:
94,107,82486,1,2,0:0:0:0:
106,105,82633,1,2,1:0:0:0:
208,169,82927,5,2,1:0:0:0:
196,167,83074,1,2,1:0:0:0:
314,48,83368,6,0,L|326:136,1,67.5000025749208,6|0,1:0|0:0,0:0:0:0:
424,123,83662,1,2,0:0:0:0:
424,123,83810,2,0,L|412:211,1,67.5000025749208,2|10,1:0|0:0,0:0:0:0:
308,218,84104,1,2,1:0:0:0:
308,218,84251,2,0,L|320:306,1,67.5000025749208,2|0,1:0|0:0,0:0:0:0:
448,357,84545,5,2,1:0:0:0:
438,362,84692,1,2,1:0:0:0:
428,365,84839,1,2,0:0:0:0:
416,367,84986,1,2,1:0:0:0:
491,263,85280,5,2,1:0:0:0:
503,261,85427,1,2,1:0:0:0:
323,114,85721,5,2,1:0:0:0:
256,192,85795,12,0,86751,0:0:0:0:
