osu file format v14

[General]
AudioFilename: audio.mp3
AudioLeadIn: 0
PreviewTime: 48294
Countdown: 0
SampleSet: Soft
StackLeniency: 0.7
Mode: 0
LetterboxInBreaks: 0
WidescreenStoryboard: 0

[Editor]
Bookmarks: 57752
DistanceSpacing: 0.6
BeatDivisor: 4
GridSize: 32
TimelineZoom: 2.5

[Metadata]
Title:Black Rover (TV Size)
TitleUnicode:Black Rover (TV Size)
Artist:Vickeblanka
ArtistUnicode:ビッケブランカ
Creator:Sotarks
Version:Extra
Source:ブラッククローバー
Tags:clover opening op akitoshi corinn -laura- doormat lami intoon mir nevo snownino_ shunao shogunmoon naotoshi nao_tomori
BeatmapID:1642274
BeatmapSetID:781509

[Difficulty]
HPDrainRate:5.2
CircleSize:3.2
OverallDifficulty:9
ApproachRate:9.3
SliderMultiplier:2.02
SliderTickRate:1

[Events]
//Background and Video events
Video,0,"video.avi"
0,0,"BG.jpg",0,0
//Break Periods
//Storyboard Layer 0 (Background)
//Storyboard Layer 1 (Fail)
//Storyboard Layer 2 (Pass)
//Storyboard Layer 3 (Foreground)
//Storyboard Sound Samples

[TimingPoints]
1022,294.117647058824,4,2,22,42,1,0
1022,-238.095238095238,4,2,22,42,0,0
7344,255.31914893617,4,2,22,42,1,0
7344,-100,4,2,22,62,0,0
7471,335.195530726257,4,2,22,62,1,0
7638,250,4,2,22,62,1,0
7763,294.117647058824,4,2,22,62,1,0
7901,-98.0392156862745,4,2,22,72,0,0
7918,329.67032967033,4,2,22,72,1,0
8082,329.67032967033,4,2,22,72,1,0
8247,294.117647058824,4,2,22,72,1,0
8368,294.117647058824,4,2,22,72,1,0
8368,-89.2857142857143,4,2,22,72,0,0
8930,-98.0392156862745,4,2,22,72,0,0
9250,294.117647058824,4,2,22,72,1,0
9250,-98.0392156862745,4,2,22,72,0,0
17459,-121.951219512195,4,2,22,52,0,0
26004,294.117647058824,4,2,22,52,1,0
26004,-121.951219512195,4,2,22,52,0,0
26897,294.117647058824,4,2,22,62,1,0
26897,-98.0392156862745,4,2,22,62,0,0
36283,-161.290322580645,4,2,22,52,0,0
45695,-454.545454545455,4,2,22,42,0,0
47328,294.117647058824,4,2,22,72,1,0
47328,-81.9672131147541,4,2,22,72,0,0
47475,346.820809248555,4,2,22,72,1,0
47648,250,4,2,22,72,1,0
47773,306.122448979592,4,2,22,72,1,0
47926,294.117647058824,4,2,22,82,1,0
47926,-81.9672131147541,4,2,22,82,0,0
48073,294.117647058824,4,2,22,82,1,0
48073,-81.9672131147541,4,2,22,82,0,0
56282,-89.2857142857143,4,2,22,82,0,0
57311,-81.9672131147541,4,2,22,82,0,0
57752,-98.0392156862745,4,2,22,82,0,0
65694,-89.2857142857143,4,2,22,82,0,0
66896,-100,4,2,22,92,0,1
71576,-81.9672131147541,4,2,22,92,0,1
72768,294.117647058824,4,2,22,92,1,1
76297,294.117647058824,4,2,22,92,1,9
76310,294.117647058824,4,2,22,92,1,1
76310,-454.545454545455,4,2,22,72,0,0
76341,-100,4,2,22,62,0,0
77444,-238.095238095238,4,2,22,62,0,0
78620,-121.951219512195,4,2,22,62,0,0
85679,-121.951219512195,4,2,22,52,0,0
86415,-121.951219512195,4,2,22,5,0,0

[Colours]
Combo1 : 224,214,214
Combo2 : 255,17,17
Combo3 : 135,255,47
Combo4 : 36,244,255

[HitObjects]
52,327,1022,6,0,L|113:336,1,42.4199987054444,2|0,0:0|0:0,0:0:0:0:
169,300,1316,2,0,L|210:294,1,42.4199987054444,2|0,0:0|0:0,0:0:0:0:
373,361,1610,2,0,P|356:322|354:309,1,42.4199987054444,2|0,0:0|0:0,0:0:0:0:
326,246,1904,2,0,P|336:228|342:208,1,42.4199987054444,2|0,0:0|0:0,0:0:0:0:
288,69,2198,6,0,L|227:60,1,42.4199987054444,2|0,0:0|0:0,0:0:0:0:
171,96,2492,2,0,L|130:102,1,42.4199987054444,2|0,0:0|0:0,0:0:0:0:
190,266,2786,2,0,P|205:225|207:211,1,42.4199987054444,2|0,0:0|0:0,0:0:0:0:
280,194,3080,2,0,P|285:215|294:234,1,42.4199987054444,2|0,0:0|0:0,0:0:0:0:
419,96,3374,6,0,L|436:144,1,42.4199987054444,2|0,0:0|0:0,0:0:0:0:
434,219,3669,2,0,L|419:259,1,42.4199987054444,2|0,0:0|0:0,0:0:0:0:
289,364,3963,2,0,L|241:347,1,42.4199987054444,2|0,0:0|0:0,0:0:0:0:
180,305,4257,2,0,L|140:320,1,42.4199987054444,2|0,0:0|0:0,0:0:0:0:
40,178,4551,6,0,P|54:146|60:126,1,42.4199987054444,2|0,0:0|0:0,0:0:0:0:
128,99,4845,2,0,P|135:119|144:139,1,42.4199987054444,2|0,0:0|0:0,0:0:0:0:
286,238,5139,2,0,L|340:248,1,42.4199987054444,2|0,0:0|0:0,0:0:0:0:
378,184,5433,2,0,L|419:177,1,42.4199987054444,2|0,0:0|0:0,0:0:0:0:
401,360,5727,6,0,P|392:330|391:309,1,42.4199987054444,2|0,0:0|0:0,0:0:0:0:
310,334,6021,2,0,P|307:355|299:375,1,42.4199987054444,2|0,0:0|0:0,0:0:0:0:
167,282,6315,2,0,L|123:288,1,42.4199987054444,2|0,0:0|0:0,0:0:0:0:
103,209,6609,2,0,L|60:204,1,42.4199987054444,2|0,0:0|0:0,0:0:0:0:
190,98,6903,6,0,P|216:109|235:112,1,42.4199987054444,2|0,0:0|0:0,0:0:0:0:
311,93,7197,1,2,0:0:0:0:
404,243,7344,2,0,L|404:190,1,50.5,0|0,1:0|1:0,0:0:0:0:
404,35,7471,5,8,0:0:0:0:
312,273,7638,1,0,1:0:0:0:
485,102,7763,1,8,0:0:0:0:
214,256,7918,6,0,P|155:207|12:185,1,202,6|2,1:0|0:0,0:0:0:0:
124,77,8368,2,0,P|183:107|236:112,1,113.120001380859,12|0,0:0|0:0,0:0:0:0:
434,64,8662,1,2,1:0:0:0:
363,173,8809,1,0,1:0:0:0:
245,26,8956,2,0,L|268:264,1,206.040001257568,10|0,0:0|1:0,0:0:0:0:
410,349,9397,5,2,1:0:0:0:
299,260,9544,2,0,P|245:287|171:293,1,103.020000628784,10|2,0:0|0:0,0:0:0:0:
52,148,9838,2,0,P|106:175|180:181,1,103.020000628784,2|2,1:0|1:0,0:0:0:0:
306,101,10132,1,10,0:0:0:0:
134,336,10279,6,0,P|177:238|192:101,1,206.040001257568,6|2,1:0|0:0,0:0:0:0:
364,32,10720,2,0,P|341:109|343:169,1,103.020000628784,8|0,0:0|0:0,0:0:0:0:
307,316,11014,2,0,P|300:265|282:217,1,103.020000628784,2|0,1:0|1:0,0:0:0:0:
59,138,11308,2,0,B|187:147|116:60|276:74,1,206.040001257568,10|0,0:0|1:0,0:0:0:0:
103,236,11750,5,2,1:0:0:0:
217,320,11897,2,0,P|283:345|336:344,1,103.020000628784,8|0,0:0|0:0,0:0:0:0:
463,213,12191,1,2,1:0:0:0:
420,328,12338,1,2,1:0:0:0:
336,141,12485,1,10,0:0:0:0:
393,377,12632,6,0,L|427:146,1,206.040001257568,6|2,1:0|0:0,0:0:0:0:
265,258,13073,2,0,P|299:187|301:144,1,103.020000628784,10|0,0:0|0:0,0:0:0:0:
143,320,13367,2,0,P|109:249|107:206,1,103.020000628784,2|0,1:0|1:0,0:0:0:0:
151,52,13661,2,0,P|191:127|333:157,1,206.040001257568,10|2,0:0|1:0,0:0:0:0:
456,77,14102,5,2,1:0:0:0:
385,233,14250,1,8,0:0:0:0:
336,81,14397,1,0,0:0:0:0:
401,272,14544,1,2,1:0:0:0:
472,116,14691,1,2,1:0:0:0:
321,324,14838,2,0,B|237:315|269:235|165:235,1,154.530000943176,10|0,0:0|0:0,0:0:0:0:
126,286,15132,6,0,P|76:290|8:225,1,103.020000628784,2|0,1:0|1:0,0:0:0:0:
27,226,15352,2,0,L|36:176,1,51.5100003143921,2|8,0:0|0:0,0:0:0:0:
190,347,15573,1,2,0:0:0:0:
260,175,15720,2,0,P|246:103|250:65,1,103.020000628784,2|0,1:0|1:0,0:0:0:0:
376,220,16014,2,0,P|377:272|364:322,1,103.020000628784,8|0,0:0|0:0,0:0:0:0:
154,171,16308,5,2,1:0:0:0:
233,317,16455,1,0,1:0:0:0:
368,116,16602,1,8,0:0:0:0:
251,290,16750,1,8,0:0:0:0:
135,72,16897,1,8,3:0:0:0:
264,190,17044,1,4,3:0:0:0:
367,72,17191,1,8,3:0:0:0:
282,166,17338,1,4,3:0:0:0:
153,41,17485,6,0,L|135:236,1,165.640002527466,0|8,1:0|0:0,0:0:0:0:
298,320,17926,2,0,P|262:270|266:162,1,165.640002527466,0|0,1:0|1:0,0:0:0:0:
168,324,18367,2,0,P|118:350|82:352,1,82.8200012637329,10|0,0:0|0:0,0:0:0:0:
56,146,18661,1,2,1:0:0:0:
137,206,18808,2,0,P|187:232|223:234,1,82.8200012637329,2|8,1:0|0:0,0:0:0:0:
360,54,19102,1,2,0:0:0:0:
279,114,19250,2,0,P|229:140|193:142,1,82.8200012637329,2|2,1:0|1:0,0:0:0:0:
370,213,19544,2,0,P|420:239|456:241,1,82.8200012637329,8|10,0:0|0:0,0:0:0:0:
498,174,19764,1,8,0:0:0:0:
498,174,19838,6,0,L|297:195,1,165.640002527466,2|8,1:0|0:0,0:0:0:0:
116,279,20279,2,0,P|174:329|264:325,1,165.640002527466,0|0,1:0|1:0,0:0:0:0:
116,180,20720,2,0,P|63:195|34:224,1,82.8200012637329,10|0,0:0|0:0,0:0:0:0:
230,112,21014,1,2,1:0:0:0:
273,206,21161,2,0,P|284:260|273:308,1,82.8200012637329,2|8,1:0|0:0,0:0:0:0:
427,74,21455,1,2,0:0:0:0:
384,168,21602,2,0,P|373:222|384:270,1,82.8200012637329,2|2,1:0|1:0,0:0:0:0:
265,94,21897,2,0,P|209:81|176:86,1,82.8200012637329,8|10,0:0|0:0,0:0:0:0:
104,113,22117,1,8,0:0:0:0:
104,113,22191,6,0,B|200:130|157:62|296:103,1,165.640002527466,2|8,1:0|0:0,0:0:0:0:
376,249,22632,2,0,P|301:233|231:164,1,165.640002527466,0|0,1:0|1:0,0:0:0:0:
434,159,23073,2,0,P|466:210|471:249,1,82.8200012637329,10|0,0:0|0:0,0:0:0:0:
339,322,23367,6,0,P|350:283|375:250,1,82.8200012637329,2|0,1:0|1:0,0:0:0:0:
224,332,23661,2,0,P|171:346|116:340,1,82.8200012637329,10|0,0:0|0:0,0:0:0:0:
42,222,23955,2,0,P|95:236|150:230,1,82.8200012637329,2|0,1:0|1:0,0:0:0:0:
262,97,24250,2,0,P|249:151|218:197,1,82.8200012637329,10|8,0:0|0:0,0:0:0:0:
165,136,24470,1,8,0:0:0:0:
165,136,24544,6,0,L|352:168,1,165.640002527466,2|8,1:0|0:0,0:0:0:0:
481,313,24985,2,0,B|383:312|428:249|302:244,1,165.640002527466,0|0,1:0|1:0,0:0:0:0:
241,367,25426,2,0,P|295:358|330:323,1,82.8200012637329,12|0,0:0|0:0,0:0:0:0:
139,250,25720,6,0,L|33:272,1,82.8200012637329,2|0,1:0|1:0,0:0:0:0:
309,152,26004,2,0,L|227:136,1,82.8200012637329,12|0,0:0|0:0,0:0:0:0:
406,69,26298,5,10,0:0:0:0:
143,121,26445,1,8,0:0:0:0:
402,302,26592,1,8,0:0:0:0:
139,250,26739,1,8,0:0:0:0:
486,217,26897,6,0,P|410:266|283:275,1,206.040001257568,6|8,1:0|0:0,0:0:0:0:
118,219,27338,1,0,0:0:0:0:
278,86,27485,2,0,P|277:180|254:230,1,103.020000628784,2|0,1:0|1:0,0:0:0:0:
142,352,27779,2,0,P|132:302|138:251,1,103.020000628784,10|0,0:0|0:0,0:0:0:0:
319,317,28073,6,0,P|386:352|442:354,1,103.020000628784,2|0,1:0|1:0,0:0:0:0:
444,140,28367,1,10,0:0:0:0:
284,219,28514,2,0,P|211:240|156:231,1,103.020000628784,2|0,0:0|1:0,0:0:0:0:
81,68,28808,2,0,P|148:103|204:105,1,103.020000628784,2|8,1:0|0:0,0:0:0:0:
367,48,29102,1,2,0:0:0:0:
93,188,29249,6,0,P|93:271|202:342,1,206.040001257568,2|8,1:0|0:0,0:0:0:0:
326,345,29691,1,0,0:0:0:0:
304,164,29838,2,0,P|266:226|263:273,1,103.020000628784,2|0,1:0|1:0,0:0:0:0:
432,151,30132,2,0,P|420:102|382:47,1,103.020000628784,10|0,0:0|0:0,0:0:0:0:
401,249,30426,6,0,P|412:299|442:340,1,103.020000628784,2|0,1:0|1:0,0:0:0:0:
304,164,30720,1,10,0:0:0:0:
171,269,30867,2,0,L|33:290,1,103.020000628784,2|0,0:0|0:0,0:0:0:0:
164,151,31161,1,0,1:0:0:0:
315,290,31308,1,10,0:0:0:0:
375,81,31455,1,2,0:0:0:0:
204,315,31602,6,0,L|188:81,1,206.040001257568,2|8,1:0|0:0,0:0:0:0:
294,27,32044,1,0,0:0:0:0:
376,182,32191,2,0,L|350:299,1,103.020000628784,2|0,1:0|1:0,0:0:0:0:
181,367,32485,2,0,L|158:267,1,103.020000628784,10|0,0:0|0:0,0:0:0:0:
290,119,32779,5,2,1:0:0:0:
136,184,32926,1,2,1:0:0:0:
353,283,33073,1,10,0:0:0:0:
112,172,33220,2,0,L|-1:204,1,103.020000628784,2|0,0:0|0:0,0:0:0:0:
253,273,33514,1,2,1:0:0:0:
375,143,33661,2,0,L|488:175,1,103.020000628784,10|0,0:0|0:0,0:0:0:0:
311,353,33955,6,0,P|290:276|285:224,1,103.020000628784,2|0,1:0|1:0,0:0:0:0:
160,85,34249,2,0,P|151:136|135:185,1,103.020000628784,8|0,0:0|1:0,0:0:0:0:
348,52,34544,2,0,P|418:30|464:30,1,103.020000628784,8|0,0:0|0:0,0:0:0:0:
252,238,34838,1,0,1:0:0:0:
139,71,34985,6,0,P|69:49|23:49,1,103.020000628784,8|0,0:0|0:0,0:0:0:0:
216,224,35279,1,0,1:0:0:0:
348,52,35426,1,8,0:0:0:0:
348,52,35720,5,10,0:0:0:0:
245,311,35867,1,8,0:0:0:0:
161,119,36014,1,8,3:0:0:0:
258,341,36161,1,4,3:0:0:0:
322,145,36308,6,0,L|385:163,1,62.6199975156861,2|0,1:0|0:0,0:0:0:0:
298,226,36602,2,0,L|361:244,1,62.6199975156861,0|0,1:0|0:0,0:0:0:0:
183,252,36897,2,0,L|120:270,1,62.6199975156861,2|0,1:0|0:0,0:0:0:0:
270,325,37191,1,2,1:0:0:0:
354,358,37338,2,0,L|417:376,1,62.6199975156861,2|0,0:0|1:0,0:0:0:0:
493,290,37632,1,0,0:0:0:0:
418,226,37779,2,0,L|355:244,1,62.6199975156861,2|0,1:0|0:0,0:0:0:0:
254,166,38073,1,0,1:0:0:0:
329,102,38220,2,0,L|392:120,1,62.6199975156861,2|0,0:0|1:0,0:0:0:0:
252,40,38514,5,0,0:0:0:0:
252,40,38588,1,0,0:0:0:0:
252,40,38661,2,0,L|111:60,1,125.239995031372,2|0,1:0|1:0,0:0:0:0:
47,166,39102,1,2,0:0:0:0:
100,243,39249,2,0,L|163:261,1,62.6199975156861,2|0,1:0|0:0,0:0:0:0:
302,257,39544,1,2,1:0:0:0:
249,334,39691,2,0,L|186:352,1,62.6199975156861,2|0,0:0|1:0,0:0:0:0:
249,180,39985,1,0,0:0:0:0:
302,257,40132,1,2,1:0:0:0:
394,224,40279,2,0,L|409:147,1,62.6199975156861,2|0,0:0|1:0,0:0:0:0:
308,48,40573,2,0,L|319:110,1,62.6199975156861,2|0,0:0|1:0,0:0:0:0:
196,55,40867,5,0,0:0:0:0:
196,55,40941,1,0,0:0:0:0:
196,55,41014,2,0,P|132:49|68:98,1,125.239995031372,2|0,1:0|1:0,0:0:0:0:
141,197,41455,1,0,0:0:0:0:
141,197,41529,1,0,0:0:0:0:
141,197,41602,2,0,P|154:149|154:130,1,62.6199975156861,2|0,1:0|0:0,0:0:0:0:
41,193,41897,2,0,P|44:225|54:254,1,62.6199975156861,0|0,1:0|0:0,0:0:0:0:
136,298,42117,5,0,0:0:0:0:
136,298,42191,2,0,B|207:298|182:259|283:258,1,125.239995031372,2|0,1:0|1:0,0:0:0:0:
331,353,42632,1,0,0:0:0:0:
331,353,42705,1,0,0:0:0:0:
331,353,42779,2,0,P|348:318|354:283,1,62.6199975156861,2|0,1:0|0:0,0:0:0:0:
231,202,43073,2,0,P|238:233|253:261,1,62.6199975156861,0|0,1:0|0:0,0:0:0:0:
355,151,43367,6,0,P|311:95|289:27,1,125.239995031372,2|0,1:0|1:0,0:0:0:0:
123,178,43955,2,0,P|99:236|60:285,1,125.239995031372,2|0,1:0|1:0,0:0:0:0:
117,363,44397,1,0,0:0:0:0:
201,266,44544,6,0,P|245:287|267:289,1,62.6199975156861,2|0,1:0|0:0,0:0:0:0:
382,335,44838,2,0,P|338:356|316:358,1,62.6199975156861,0|0,1:0|0:0,0:0:0:0:
420,212,45132,1,2,1:0:0:0:
163,64,45426,1,0,1:0:0:0:
325,35,45720,6,0,P|316:63|317:82,1,44.4400013562012,2|0,0:0|0:0,0:0:0:0:
234,174,46308,2,0,P|241:195|242:217,1,44.4400013562012,2|0,0:0|0:0,0:0:0:0:
129,309,46897,2,0,P|121:330|119:367,1,55.5500016952515,2|0,0:0|0:0,0:0:0:0:
140,370,47328,6,0,L|156:311,1,61.6099974617463,0|0,1:0|1:0,0:0:0:0:
140,141,47475,5,8,0:0:0:0:
254,315,47648,1,0,1:0:0:0:
218,54,47773,1,8,0:0:0:0:
39,250,47926,6,0,B|192:259|101:156|298:163,1,246.439989846985,6|0,1:0|1:0,0:0:0:0:
452,348,48367,2,0,P|374:328|338:284,1,123.219994923493,10|0,0:0|0:0,0:0:0:0:
334,91,48661,2,0,P|412:111|448:155,1,123.219994923493,2|0,1:0|1:0,0:0:0:0:
272,321,48955,1,8,0:0:0:0:
442,253,49102,1,0,0:0:0:0:
239,138,49249,6,0,L|100:157,1,123.219994923493,2|0,1:0|1:0,0:0:0:0:
53,353,49544,2,0,L|189:374,1,123.219994923493,10|0,0:0|0:0,0:0:0:0:
257,231,49838,1,2,1:0:0:0:
148,277,49985,1,0,1:0:0:0:
277,367,50132,1,10,0:0:0:0:
239,138,50279,6,0,L|-21:234,1,246.439989846985,6|0,1:0|1:0,0:0:0:0:
348,242,50720,2,0,L|473:261,1,123.219994923493,10|0,0:0|0:0,0:0:0:0:
263,41,51014,2,0,L|129:61,1,123.219994923493,2|0,1:0|1:0,0:0:0:0:
364,152,51308,1,8,0:0:0:0:
437,37,51455,1,0,0:0:0:0:
239,138,51602,6,0,P|225:200|238:268,1,123.219994923493,2|0,1:0|1:0,0:0:0:0:
357,341,51897,2,0,P|360:291|338:204,1,123.219994923493,10|0,0:0|0:0,0:0:0:0:
189,351,52191,2,0,P|134:364|55:352,1,123.219994923493,2|0,1:0|1:0,0:0:0:0:
28,161,52485,1,10,0:0:0:0:
229,237,52632,6,0,P|284:250|421:116,1,246.439989846985,6|0,1:0|1:0,0:0:0:0:
138,83,53073,2,0,P|83:99|31:150,1,123.219994923493,10|0,0:0|0:0,0:0:0:0:
24,330,53367,2,0,P|79:314|132:256,1,123.219994923493,2|0,1:0|1:0,0:0:0:0:
218,146,53661,1,8,0:0:0:0:
236,287,53808,1,0,0:0:0:0:
318,85,53955,6,0,L|354:207,1,123.219994923493,2|0,1:0|0:0,0:0:0:0:
245,362,54249,2,0,L|282:237,1,123.219994923493,10|0,0:0|0:0,0:0:0:0:
144,90,54544,2,0,L|3:122,1,123.219994923493,2|0,1:0|1:0,0:0:0:0:
188,250,54838,1,10,0:0:0:0:
318,85,54985,6,0,P|408:94|473:229,1,246.439989846985,6|0,1:0|1:0,0:0:0:0:
224,352,55426,2,0,P|134:343|84:201,1,246.439989846985,8|0,0:0|1:0,0:0:0:0:
145,91,55867,1,0,1:0:0:0:
319,249,56014,1,8,0:0:0:0:
319,249,56308,6,0,L|94:170,1,226.240002761719,2|8,1:0|0:0,0:0:0:0:
474,59,56897,2,0,L|428:292,1,226.240002761719,2|8,1:0|0:0,0:0:0:0:
100,355,57338,6,0,L|151:35,1,308.049987308732,6|0,1:0|0:0,0:0:0:0:
159,13,57779,2,0,P|237:33|277:82,1,103.020000628784,10|0,0:0|0:0,0:0:0:0:
293,276,58073,2,0,P|215:256|177:203,1,103.020000628784,2|0,1:0|1:0,0:0:0:0:
148,51,58367,1,8,0:0:0:0:
272,182,58514,1,0,0:0:0:0:
125,303,58661,6,0,L|3:324,1,103.020000628784,2|0,1:0|0:0,0:0:0:0:
272,182,58955,2,0,L|377:198,1,103.020000628784,10|0,0:0|0:0,0:0:0:0:
199,242,59249,1,2,1:0:0:0:
234,88,59397,1,0,1:0:0:0:
120,187,59544,1,10,0:0:0:0:
279,298,59691,6,0,L|376:354,1,103.020000628784,6|0,1:0|0:0,0:0:0:0:
400,153,59985,1,2,1:0:0:0:
333,63,60132,2,0,L|210:94,1,103.020000628784,10|0,0:0|0:0,0:0:0:0:
179,324,60426,2,0,L|278:299,1,103.020000628784,2|0,1:0|1:0,0:0:0:0:
147,108,60720,1,8,0:0:0:0:
61,212,60867,1,0,0:0:0:0:
278,299,61014,6,0,P|292:237|281:177,1,103.020000628784,6|0,1:0|0:0,0:0:0:0:
147,108,61308,2,0,P|143:159|158:214,1,103.020000628784,8|0,0:0|0:0,0:0:0:0:
333,63,61602,2,0,P|388:50|454:80,1,103.020000628784,2|0,1:0|0:0,0:0:0:0:
494,200,61897,1,10,0:0:0:0:
225,48,62044,6,0,L|19:104,1,206.040001257568,6|0,1:0|1:0,0:0:0:0:
193,380,62485,2,0,P|248:364|292:307,1,103.020000628784,10|0,0:0|0:0,0:0:0:0:
253,147,62779,2,0,P|198:163|157:212,1,103.020000628784,2|0,1:0|1:0,0:0:0:0:
59,331,63073,1,8,0:0:0:0:
41,190,63220,1,0,0:0:0:0:
279,336,63367,6,0,L|243:214,1,103.020000628784,2|0,1:0|0:0,0:0:0:0:
281,47,63661,2,0,L|248:163,1,103.020000628784,10|0,0:0|0:0,0:0:0:0:
375,343,63955,2,0,L|339:221,1,103.020000628784,2|0,1:0|0:0,0:0:0:0:
396,79,64249,1,10,0:0:0:0:
279,336,64397,6,0,P|189:327|145:213,1,206.040001257568,6|0,1:0|1:0,0:0:0:0:
272,38,64838,2,0,B|289:139|215:120|255:261,1,206.040001257568,8|8,0:0|0:0,0:0:0:0:
171,65,65279,1,0,1:0:0:0:
346,190,65426,1,8,0:0:0:0:
346,190,65720,6,0,L|101:250,1,226.240002761719,6|8,1:0|0:0,0:0:0:0:
285,304,66161,1,0,1:0:0:0:
285,304,66235,1,0,1:0:0:0:
285,304,66308,2,0,L|402:333,1,113.120001380859,10|0,0:0|1:0,0:0:0:0:
360,159,66602,2,0,L|243:188,1,113.120001380859,8|2,0:0|1:0,0:0:0:0:
65,105,66897,5,10,0:0:0:0:
110,289,67044,1,0,1:0:0:0:
277,86,67191,5,8,0:0:0:0:
232,270,67338,1,0,1:0:0:0:
167,94,67485,5,10,0:0:0:0:
323,255,67632,1,0,1:0:0:0:
406,26,67779,5,10,0:0:0:0:
250,187,67926,1,2,1:0:0:0:
474,243,68073,5,8,0:0:0:0:
277,86,68220,1,2,1:0:0:0:
282,340,68367,5,10,0:0:0:0:
354,146,68514,1,0,1:0:0:0:
371,380,68661,5,8,0:0:0:0:
250,187,68808,1,2,1:0:0:0:
424,307,68955,2,0,L|449:176,1,101,8|0,0:0|1:0,0:0:0:0:
159,226,69249,5,10,0:0:0:0:
354,146,69397,1,0,1:0:0:0:
178,108,69544,5,8,0:0:0:0:
322,261,69691,1,2,1:0:0:0:
257,41,69838,5,10,0:0:0:0:
60,199,69985,1,0,1:0:0:0:
354,146,70132,5,10,0:0:0:0:
143,314,70279,1,2,1:0:0:0:
115,36,70426,5,8,0:0:0:0:
322,261,70573,1,0,1:0:0:0:
25,282,70720,5,10,0:0:0:0:
238,86,70867,1,2,1:0:0:0:
147,349,71014,5,10,0:0:0:0:
119,71,71161,1,2,1:0:0:0:
322,261,71308,2,0,L|299:373,1,101,8|0,0:0|1:0,0:0:0:0:
83,172,71602,5,10,0:0:0:0:
318,36,71749,1,0,1:0:0:0:
223,295,71897,5,8,0:0:0:0:
98,37,72044,1,0,1:0:0:0:
57,333,72191,5,10,0:0:0:0:
209,88,72338,1,0,1:0:0:0:
235,384,72485,5,8,0:0:0:0:
83,136,72632,1,0,1:0:0:0:
339,270,72768,5,10,0:0:0:0:
57,333,72915,1,0,1:0:0:0:
413,320,73062,5,8,0:0:0:0:
131,257,73209,1,0,1:0:0:0:
419,160,73356,5,10,0:2:0:0:
235,384,73503,1,0,1:0:0:0:
229,96,73650,5,8,0:0:0:0:
413,320,73797,1,0,1:0:0:0:
512,105,73944,5,10,0:0:0:0:
245,265,74091,1,0,1:0:0:0:
512,353,74238,5,8,0:0:0:0:
361,79,74385,1,0,1:0:0:0:
235,384,74532,5,10,0:0:0:0:
512,203,74679,1,0,1:0:0:0:
162,117,74826,5,8,0:0:0:0:
413,320,74973,1,0,1:0:0:0:
111,236,75120,5,10,0:0:0:0:
443,137,75268,1,0,1:0:0:0:
49,66,75415,5,8,0:0:0:0:
368,215,75562,1,0,1:0:0:0:
119,333,75709,5,10,0:0:0:0:
169,161,75856,1,0,1:0:0:0:
226,336,76003,1,8,3:0:0:0:
270,189,76150,1,4,3:0:0:0:
111,236,76310,6,0,L|16:245,1,88.8800027124024,6|2,1:0|0:0,0:0:0:0:
8,219,77486,6,0,L|188:243,1,169.679994821777,6|2,1:0|0:0,0:0:0:0:
420,156,78662,6,0,P|371:173|312:170,1,82.8200012637329,6|2,1:0|1:0,0:0:0:0:
183,101,78957,1,2,0:0:0:0:
253,40,79104,2,0,P|293:47|332:61,1,82.8200012637329,2|8,1:0|0:0,0:0:0:0:
176,242,79398,1,2,1:0:0:0:
108,172,79545,2,0,P|67:179|28:193,1,82.8200012637329,2|0,1:0|0:0,0:0:0:0:
250,315,79839,5,2,1:0:0:0:
287,189,79986,1,2,1:0:0:0:
274,343,80133,1,2,0:0:0:0:
253,163,80280,2,0,L|246:76,1,82.8200012637329,2|8,1:0|0:0,0:0:0:0:
387,188,80574,1,2,1:0:0:0:
457,119,80721,2,0,L|463:37,1,82.8200012637329,2|0,1:0|0:0,0:0:0:0:
328,265,81015,6,0,L|136:288,1,165.640002527466,6|2,1:0|0:0,0:0:0:0:
42,176,81457,2,0,P|86:202|154:207,1,82.8200012637329,2|8,1:0|0:0,0:0:0:0:
236,112,81751,1,2,1:0:0:0:
166,53,81898,2,0,P|122:79|72:83,1,82.8200012637329,2|0,1:0|0:0,0:0:0:0:
321,66,82192,5,2,1:0:0:0:
277,201,82339,1,2,1:0:0:0:
293,36,82486,1,2,0:0:0:0:
291,240,82633,2,0,L|293:327,1,82.8200012637329,2|8,1:0|0:0,0:0:0:0:
163,189,82927,1,2,1:0:0:0:
93,254,83074,2,0,L|91:341,1,82.8200012637329,2|0,1:0|0:0,0:0:0:0:
88,106,83368,6,0,P|151:151|259:153,1,165.640002527466,6|2,1:0|0:0,0:0:0:0:
391,97,83810,2,0,P|321:103|298:119,1,82.8200012637329,2|10,1:0|0:0,0:0:0:0:
436,223,84104,1,2,1:0:0:0:
373,294,84251,2,0,P|334:309|293:306,1,82.8200012637329,2|0,1:0|0:0,0:0:0:0:
167,158,84545,5,2,1:0:0:0:
191,284,84692,1,2,1:0:0:0:
195,136,84839,1,2,0:0:0:0:
163,302,84986,2,0,L|150:391,1,82.8200012637329,2|10,1:0|0:0,0:0:0:0:
80,211,85280,1,2,1:0:0:0:
19,281,85427,2,0,L|32:370,1,82.8200012637329,2|0,1:0|0:0,0:0:0:0:
70,118,85721,5,2,1:0:0:0:
256,192,85795,12,0,86751,0:0:0:0:
