osu file format v14

[General]
AudioFilename: audio.mp3
AudioLeadIn: 0
PreviewTime: 48294
Countdown: 0
SampleSet: Soft
StackLeniency: 0.7
Mode: 0
LetterboxInBreaks: 0
WidescreenStoryboard: 1

[Editor]
DistanceSpacing: 0.7
BeatDivisor: 4
GridSize: 32
TimelineZoom: 1.700001

[Metadata]
Title:Black Rover (TV Size)
TitleUnicode:Black Rover (TV Size)
Artist:Vickeblanka
ArtistUnicode:ビッケブランカ
Creator:OliBomby
Version:PP Harder
Source:ブラッククローバー
Tags:clover opening op
BeatmapID:1691131
BeatmapSetID:805652

[Difficulty]
HPDrainRate:5.2
CircleSize:4.2
OverallDifficulty:9.6
ApproachRate:9.7
SliderMultiplier:2.02
SliderTickRate:1

[Events]
//Background and Video events
0,0,"boio.jpg",0,0
//Break Periods
//Storyboard Layer 0 (Background)
//Storyboard Layer 1 (Fail)
//Storyboard Layer 2 (Pass)
//Storyboard Layer 3 (Foreground)
//Storyboard Sound Samples

[TimingPoints]
1022,294.117647058824,4,2,22,42,1,0
1022,-238.095238095238,4,2,22,42,0,0
5727,294.117647058824,4,2,22,42,1,0
5727,-238.095238095238,4,2,22,42,0,0
7333,-100,4,2,22,52,0,0
7344,255.31914893617,4,2,22,42,1,0
7471,303.030303030303,4,2,22,42,1,0
7622,283.018867924528,4,2,22,42,1,0
7763,294.117647058824,4,2,22,42,1,0
7901,-98.0392156862745,4,2,22,72,0,0
7918,329.67032967033,4,2,22,72,1,0
8247,294.117647058824,4,2,22,72,1,0
8368,294.117647058824,4,2,22,72,1,0
8368,-89.2857142857143,4,2,22,72,0,0
8956,-98.0392156862745,4,2,22,72,0,0
9250,294.117647058824,4,2,22,72,1,0
10279,-98.0392156862745,4,2,22,72,0,0
17485,-121.951219512195,4,2,22,52,0,0
18930,-121.951219512195,4,2,22,52,0,0
19827,-121.951219512195,4,2,22,52,0,0
22193,-121.951219512195,4,2,22,52,0,0
22474,-121.951219512195,4,2,22,52,0,0
23058,-121.951219512195,4,2,22,52,0,0
24530,-121.951219512195,4,2,22,52,0,0
26004,294.117647058824,4,2,22,52,1,0
26724,-98.0392156862745,4,2,22,62,0,0
26897,294.117647058824,4,2,22,62,1,0
26897,-98.0392156862745,4,2,22,62,0,0
33441,-98.0392156862745,4,2,22,5,0,0
33514,-98.0392156862745,4,2,22,62,0,0
36283,-161.290322580645,4,2,22,52,0,0
45695,-454.545454545455,4,2,22,42,0,0
47333,-98.0392156862745,4,2,22,72,0,0
47921,-81.9672131147541,4,2,22,82,0,0
48289,-98.0392156862745,4,2,22,82,0,0
56282,-89.2857142857143,4,2,22,82,0,0
57311,-81.9672131147541,4,2,22,82,0,0
57752,-98.0392156862745,4,2,22,82,0,0
65694,-89.2857142857143,4,2,22,82,0,0
66897,-81.9672131147541,4,2,22,92,0,1
71598,-81.9672131147541,4,2,22,92,0,1
72768,294.117647058824,4,2,22,92,1,1
76310,294.117647058824,4,2,22,62,1,0
76310,-454.545454545455,4,2,22,62,0,0
76341,-100,4,2,22,62,0,0
77444,-238.095238095238,4,2,22,62,0,0
78620,-121.951219512195,4,2,22,62,0,0
78930,-121.951219512195,4,2,22,62,0,0
79523,-121.951219512195,4,2,22,62,0,0
79812,-121.951219512195,4,2,22,62,0,0
80975,-121.951219512195,4,2,22,62,0,0
84955,-121.951219512195,4,2,22,62,0,0
85679,-121.951219512195,4,2,22,52,0,0
86415,-121.951219512195,4,2,22,5,0,0

[Colours]
Combo1 : 0,215,107
Combo2 : 64,0,0
Combo3 : 94,0,187
Combo4 : 217,0,0
Combo5 : 0,217,217

[HitObjects]
178,245,1022,6,0,P|199:276|212:286,1,42.4199987054444,2|0,0:0|0:0,0:0:0:0:
213,248,1316,2,0,P|234:279|247:289,1,42.4199987054444,2|0,0:0|0:0,0:0:0:0:
297,319,1610,2,0,P|276:288|263:278,1,42.4199987054444,2|0,0:0|0:0,0:0:0:0:
262,316,1904,2,0,P|241:285|228:275,1,42.4199987054444,2|0,0:0|0:0,0:0:0:0:
371,200,2198,6,0,P|340:221|330:234,1,42.4199987054444,2|0,0:0|0:0,0:0:0:0:
368,235,2492,2,0,P|337:256|327:269,1,42.4199987054444,2|0,0:0|0:0,0:0:0:0:
297,319,2786,2,0,P|328:298|338:285,1,42.4199987054444,2|0,0:0|0:0,0:0:0:0:
300,284,3080,2,0,P|331:263|341:250,1,42.4199987054444,2|0,0:0|0:0,0:0:0:0:
328,160,3374,6,0,L|274:165,1,42.4199987054444,2|0,0:0|0:0,0:0:0:0:
186,143,3669,2,0,L|228:139,1,42.4199987054444,2|0,0:0|0:0,0:0:0:0:
307,194,3963,2,0,L|253:199,1,42.4199987054444,2|0,0:0|0:0,0:0:0:0:
165,177,4258,2,0,L|207:173,1,42.4199987054444,2|0,0:0|0:0,0:0:0:0:
148,319,4551,6,0,L|143:265,1,42.4199987054444,2|0,0:0|0:0,0:0:0:0:
165,177,4846,2,0,L|168:219,1,42.4199987054444,2|0,0:0|0:0,0:0:0:0:
114,298,5140,2,0,L|109:244,1,42.4199987054444,2|0,0:0|0:0,0:0:0:0:
131,156,5435,2,0,L|134:198,1,42.4199987054444,0|0,0:0|0:0,0:0:0:0:
76,76,5727,6,0,P|113:76|130:71,1,42.4199987054444,2|0,0:0|0:0,0:0:0:0:
35,40,6021,2,0,P|35:77|40:94,1,42.4199987054444,2|0,0:0|0:0,0:0:0:0:
68,9,6315,2,0,P|31:9|14:14,1,42.4199987054444,2|0,0:0|0:0,0:0:0:0:
109,45,6609,2,0,P|109:8|104:-9,1,42.4199987054444,2|0,0:0|0:0,0:0:0:0:
172,141,6903,6,0,B|172:178|172:178|177:195,1,42.4199987054444,2|0,0:0|0:0,0:0:0:0:
305,42,7197,2,0,B|305:5|305:5|300:-12,1,42.4199987054444,2|0,0:0|1:0,0:0:0:0:
249,106,7471,5,8,0:0:0:0:
249,106,7546,1,0,0:0:0:0:
249,106,7622,1,0,1:0:0:0:
207,26,7763,1,8,0:0:0:0:
206,210,7918,6,0,P|248:253|376:222,1,202,6|2,1:0|0:0,0:0:0:0:
275,377,8368,2,0,L|273:254,1,113.120001380859,12|0,0:0|0:0,0:0:0:0:
294,165,8662,1,2,1:0:0:0:
409,281,8809,1,0,1:0:0:0:
195,364,8956,2,0,P|202:308|167:255,1,103.020000628784,10|0,0:0|0:0,0:0:0:0:
103,335,9250,5,0,1:0:0:0:
115,325,9397,2,0,L|106:224,1,101,2|10,1:0|0:0,0:0:0:0:
89,100,9691,1,2,0:0:0:0:
72,113,9838,2,0,L|63:216,1,101,2|2,1:0|1:0,0:0:0:0:
50,365,10132,1,10,0:0:0:0:
207,219,10279,6,0,P|254:139|264:66,1,154.530000943176,6|0,1:0|0:0,0:0:0:0:
264,69,10573,1,2,0:0:0:0:
280,290,10720,2,0,L|381:306,1,103.020000628784,8|0,0:0|0:0,0:0:0:0:
511,213,11014,2,0,L|410:229,1,103.020000628784,2|0,1:0|1:0,0:0:0:0:
500,314,11308,2,0,P|514:264|511:213,1,103.020000628784,10|0,0:0|0:0,0:0:0:0:
510,46,11602,5,0,0:0:0:0:
285,11,11750,1,2,1:0:0:0:
441,117,11897,2,0,P|481:93|512:32,1,103.020000628784,8|0,0:0|0:0,0:0:0:0:
281,164,12191,1,2,1:0:0:0:
469,177,12338,2,0,P|491:136|487:67,1,103.020000628784,2|10,1:0|0:0,0:0:0:0:
290,191,12632,6,0,P|298:292|272:376,1,154.530000943176,6|0,1:0|0:0,0:0:0:0:
280,358,12926,1,2,0:0:0:0:
443,262,13073,1,10,0:0:0:0:
450,270,13367,6,0,L|336:281,1,103.020000628784,2|0,1:0|1:0,0:0:0:0:
62,243,13661,2,0,L|176:232,1,103.020000628784,10|0,0:0|0:0,0:0:0:0:
326,210,13955,5,2,1:0:0:0:
265,128,14102,1,2,1:0:0:0:
268,287,14250,2,0,P|311:254|325:192,1,103.020000628784,8|0,0:0|0:0,0:0:0:0:
246,98,14544,5,2,1:0:0:0:
255,311,14691,1,2,1:0:0:0:
321,128,14838,2,0,P|314:64|237:21,1,154.530000943176,10|0,0:0|0:0,0:0:0:0:
101,244,15132,6,0,L|117:140,1,103.020000628784,2|0,1:0|1:0,0:0:0:0:
3,202,15426,1,8,0:0:0:0:
0,213,15573,1,2,0:0:0:0:
96,349,15720,6,0,P|166:310|198:253,2,103.020000628784,2|0|8,1:0|1:0|0:0,0:0:0:0:
8,344,16161,1,0,0:0:0:0:
175,310,16308,2,0,P|216:241|215:175,2,103.020000628784,2|0|8,1:0|1:0|0:0,0:0:0:0:
96,349,16749,5,8,0:0:0:0:
238,247,16897,1,8,3:0:0:0:
265,355,17044,1,4,3:0:0:0:
105,267,17191,1,8,3:0:0:0:
251,300,17338,1,4,3:0:0:0:
161,202,17485,6,0,B|180:116|238:146|269:79,1,165.640002527466,0|8,1:0|0:0,0:0:0:0:
283,7,17926,1,0,1:0:0:0:
283,7,18220,1,0,1:0:0:0:
359,116,18367,2,0,P|411:115|376:32,1,165.640002527466,10|2,0:0|1:0,0:0:0:0:
321,62,18808,1,2,1:0:0:0:
439,179,18955,2,0,P|461:267|433:345,1,165.640002527466,8|2,0:0|1:0,0:0:0:0:
409,362,19397,1,2,1:0:0:0:
334,260,19544,1,8,0:0:0:0:
188,355,19691,5,10,0:0:0:0:
181,349,19764,1,8,0:0:0:0:
176,343,19838,2,0,P|165:297|63:250,1,165.640002527466,2|8,1:0|0:0,0:0:0:0:
87,344,20279,1,0,1:0:0:0:
87,344,20573,1,0,1:0:0:0:
10,217,20720,2,0,B|3:146|72:147|64:66,1,165.640002527466,10|2,0:0|1:0,0:0:0:0:
63,17,21161,1,2,1:0:0:0:
126,158,21308,1,8,0:0:0:0:
151,63,21455,1,0,0:0:0:0:
126,158,21602,2,0,L|211:149,1,82.8200012637329,2|2,1:0|1:0,0:0:0:0:
321,138,21897,1,8,0:0:0:0:
241,18,22044,5,10,0:0:0:0:
238,25,22117,1,8,0:0:0:0:
235,31,22191,2,0,P|258:94|250:212,1,165.640002527466,2|8,1:0|0:0,0:0:0:0:
198,269,22632,2,0,P|197:191|245:115,1,165.640002527466,0|0,1:0|1:0,0:0:0:0:
344,68,23073,1,10,0:0:0:0:
344,68,23367,1,2,1:0:0:0:
377,139,23514,1,0,1:0:0:0:
467,31,23661,1,10,0:0:0:0:
467,31,23955,1,2,1:0:0:0:
443,111,24102,1,0,1:0:0:0:
311,0,24250,1,10,0:0:0:0:
439,119,24397,5,8,0:0:0:0:
435,130,24470,1,8,0:0:0:0:
431,140,24544,2,0,B|413:191|462:246|429:305,1,165.640002527466,2|8,1:0|0:0,0:0:0:0:
412,334,24985,1,0,1:0:0:0:
307,331,25132,2,0,P|364:265|376:277,1,124.230001895599,2|0,0:0|0:0,0:0:0:0:
361,263,25426,2,0,B|302:282|288:238|212:270,1,124.230001895599,12|0,0:0|0:0,0:0:0:0:
206,267,25720,5,2,1:0:0:0:
328,191,25867,1,0,1:0:0:0:
133,291,26004,2,0,B|117:236|166:205|150:143,1,151.5,12|0,0:0|0:0,0:0:0:0:
127,93,26298,5,10,0:0:0:0:
79,173,26445,1,8,0:0:0:0:
172,75,26592,5,8,0:0:0:0:
169,208,26739,1,8,0:0:0:0:
238,22,26897,6,0,L|354:36,1,103.020000628784,6|0,1:0|0:0,0:0:0:0:
442,46,27191,2,0,L|326:32,1,103.020000628784,8|0,0:0|0:0,0:0:0:0:
501,0,27485,2,0,P|515:60|485:113,1,103.020000628784,2|0,1:0|1:0,0:0:0:0:
391,115,27779,2,0,P|403:44|428:63,1,103.020000628784,10|0,0:0|0:0,0:0:0:0:
465,247,28073,2,0,B|420:184|484:152|452:92,1,154.530000943176,2|0,1:0|0:0,0:0:0:0:
439,82,28367,1,10,0:0:0:0:
302,202,28514,2,0,L|319:307,1,103.020000628784,2|0,0:0|1:0,0:0:0:0:
373,169,28808,2,0,P|356:108|311:65,1,103.020000628784,2|8,1:0|0:0,0:0:0:0:
186,279,29102,5,2,0:0:0:0:
201,289,29176,1,0,0:0:0:0:
217,296,29249,2,0,P|269:308|321:302,1,103.020000628784,2|0,1:0|1:0,0:0:0:0:
460,254,29544,1,8,0:0:0:0:
340,232,29691,1,0,0:0:0:0:
460,254,29838,6,0,P|406:260|351:244,1,103.020000628784,2|0,1:0|1:0,0:0:0:0:
240,347,30132,2,0,P|294:353|349:337,1,103.020000628784,10|0,0:0|0:0,0:0:0:0:
491,384,30426,2,0,P|444:345|443:257,1,154.530000943176,2|0,1:0|0:0,0:0:0:0:
475,216,30720,1,10,0:0:0:0:
330,260,30867,2,0,B|247:287|221:207|120:257,1,206.040001257568,2|0,0:0|1:0,0:0:0:0:
184,343,31308,1,10,0:0:0:0:
140,170,31455,5,2,0:0:0:0:
141,158,31529,1,0,0:0:0:0:
145,147,31602,2,0,P|172:98|218:61,1,103.020000628784,2|0,1:0|0:0,0:0:0:0:
65,12,31897,1,8,0:0:0:0:
73,121,32044,1,0,0:0:0:0:
65,12,32191,2,0,L|73:126,1,103.020000628784,2|0,1:0|1:0,0:0:0:0:
45,271,32485,2,0,P|16:217|17:155,1,103.020000628784,10|0,0:0|0:0,0:0:0:0:
242,139,32779,5,2,1:0:0:0:
106,194,32926,1,2,1:0:0:0:
293,208,33073,2,0,L|401:218,2,103.020000628784,10|2|0,0:0|0:0|0:0,0:0:0:0:
193,201,33514,1,2,1:0:0:0:
379,69,33661,2,0,P|372:141|330:215,1,154.530000943176,10|0,0:0|0:0,0:0:0:0:
300,234,33955,6,0,L|311:122,1,103.020000628784,2|0,1:0|1:0,0:0:0:0:
404,42,34249,1,8,0:0:0:0:
229,124,34397,1,0,1:0:0:0:
414,46,34544,1,8,0:0:0:0:
423,49,34838,1,0,1:0:0:0:
465,224,34985,1,8,0:0:0:0:
398,168,35132,2,0,P|449:138|508:145,1,103.020000628784,0|0,0:0|1:0,0:0:0:0:
499,310,35426,2,0,B|424:341|425:278|342:314,1,154.530000943176,8|0,0:0|0:0,0:0:0:0:
320,355,35720,5,10,0:0:0:0:
239,286,35867,1,8,0:0:0:0:
159,348,36014,1,8,3:0:0:0:
85,308,36161,1,4,3:0:0:0:
21,355,36308,6,0,P|29:300|-1:238,1,125.239995031372,2|0,1:0|1:0,0:0:0:0:
67,135,36897,2,0,P|127:157|188:144,1,125.239995031372,2|2,1:0|1:0,0:0:0:0:
251,48,37338,5,2,0:0:0:0:
247,58,37411,1,0,0:0:0:0:
244,67,37485,2,0,B|236:108|269:113|256:162,1,93.9299962735292,0|0,1:0|0:0,0:0:0:0:
246,198,37779,2,0,L|371:187,2,125.239995031372,2|0|0,1:0|1:0|1:0,0:0:0:0:
445,57,38661,6,0,P|438:141|455:196,1,125.239995031372,2|0,1:0|1:0,0:0:0:0:
473,215,39102,1,2,0:0:0:0:
407,120,39249,2,0,P|354:76|286:59,1,125.239995031372,2|2,1:0|1:0,0:0:0:0:
248,58,39691,1,2,0:0:0:0:
121,152,39838,2,0,B|170:178|197:130|250:169,1,125.239995031372,0|2,1:0|1:0,0:0:0:0:
237,226,40279,2,0,L|243:150,1,62.6199975156861,2|0,0:0|1:0,0:0:0:0:
248,71,40573,2,0,L|244:143,1,62.6199975156861,2|0,0:0|1:0,0:0:0:0:
168,263,41014,6,0,P|211:342|327:303,1,219.169991304901,2|0,1:0|0:0,0:0:0:0:
320,315,41602,2,0,P|245:287|141:374,1,219.169991304901,2|0,1:0|0:0,0:0:0:0:
143,365,42191,2,0,B|65:285|152:240|66:153,1,219.169991304901,2|0,1:0|0:0,0:0:0:0:
56,147,42779,1,2,1:0:0:0:
51,142,43073,1,0,1:0:0:0:
7,252,43367,6,0,P|96:274|211:211,1,219.169991304901,2|0,1:0|0:0,0:0:0:0:
205,218,43955,2,0,P|263:184|362:284,1,219.169991304901,2|0,1:0|0:0,0:0:0:0:
363,271,44544,2,0,P|424:328|437:234,1,219.169991304901,2|0,1:0|0:0,0:0:0:0:
412,279,45132,1,2,1:0:0:0:
415,284,45426,1,0,1:0:0:0:
415,284,45720,6,0,L|323:290,2,88.8800027124024,2|2|2,0:0|0:0|0:0,0:0:0:0:
350,60,47191,5,0,0:0:0:0:
350,60,47264,1,0,0:0:0:0:
350,60,47338,1,0,1:0:0:0:
432,215,47485,1,8,0:0:0:0:
271,117,47632,1,0,1:0:0:0:
495,158,47779,1,8,0:0:0:0:
286,270,47926,6,0,B|202:326|180:208|32:269,1,246.439989846985,6|0,1:0|1:0,0:0:0:0:
55,365,48367,6,0,L|47:220,1,103.020000628784,10|0,0:0|0:0,0:0:0:0:
38,83,48661,2,0,P|72:98|62:52,1,103.020000628784,2|0,1:0|1:0,0:0:0:0:
0,184,48955,1,8,0:0:0:0:
177,200,49102,1,0,0:0:0:0:
0,184,49249,6,0,L|107:193,1,103.020000628784,2|0,1:0|1:0,0:0:0:0:
286,365,49544,2,0,P|261:293|280:212,1,154.530000943176,10|0,0:0|0:0,0:0:0:0:
315,163,49838,1,2,1:0:0:0:
170,317,49985,1,0,1:0:0:0:
378,282,50132,1,10,0:0:0:0:
178,123,50279,2,0,P|114:120|175:192,1,206.040001257568,6|0,1:0|1:0,0:0:0:0:
431,0,50720,6,0,L|425:105,1,103.020000628784,10|0,0:0|0:0,0:0:0:0:
413,342,51014,2,0,P|374:355|393:315,1,103.020000628784,2|0,1:0|1:0,0:0:0:0:
512,229,51308,1,8,0:0:0:0:
332,213,51455,1,0,0:0:0:0:
512,229,51602,6,0,L|400:220,1,103.020000628784,2|0,1:0|1:0,0:0:0:0:
131,286,51897,2,0,P|224:303|264:222,1,154.530000943176,10|0,0:0|0:0,0:0:0:0:
278,217,52191,1,2,1:0:0:0:
326,342,52338,1,0,1:0:0:0:
188,237,52485,1,10,0:0:0:0:
370,68,52632,2,0,B|329:164|398:188|354:272,1,206.040001257568,6|0,1:0|1:0,0:0:0:0:
182,347,53073,6,0,L|189:232,1,103.020000628784,10|0,0:0|0:0,0:0:0:0:
51,232,53367,2,0,L|104:143,1,103.020000628784,2|0,1:0|1:0,0:0:0:0:
185,12,53661,1,8,0:0:0:0:
322,134,53808,1,0,0:0:0:0:
185,12,53955,6,0,P|192:80|258:134,1,154.530000943176,2|0,1:0|0:0,0:0:0:0:
322,134,54249,2,0,P|199:170|174:229,1,154.530000943176,10|0,0:0|0:0,0:0:0:0:
168,232,54544,1,2,1:0:0:0:
111,93,54691,1,0,1:0:0:0:
281,232,54838,1,10,0:0:0:0:
440,16,54985,6,0,P|404:83|432:235,1,206.040001257568,6|0,1:0|1:0,0:0:0:0:
501,308,55426,1,8,0:0:0:0:
495,140,55573,1,0,0:0:0:0:
335,277,55720,5,0,1:0:0:0:
500,228,55867,1,0,1:0:0:0:
265,299,56014,1,8,0:0:0:0:
429,269,56161,1,0,0:0:0:0:
257,302,56308,6,0,P|255:226|167:85,1,226.240002761719,2|8,1:0|0:0,0:0:0:0:
143,234,56897,2,0,P|209:270|375:264,1,226.240002761719,2|8,1:0|0:0,0:0:0:0:
53,25,57338,2,0,B|0:141|101:161|44:274,1,246.439989846985,6|0,1:0|0:0,0:0:0:0:
142,92,57779,6,0,P|196:108|280:90,1,103.020000628784,10|0,0:0|0:0,0:0:0:0:
423,139,58073,2,0,L|317:146,1,103.020000628784,2|0,1:0|1:0,0:0:0:0:
496,55,58367,1,8,0:0:0:0:
372,7,58514,1,0,0:0:0:0:
496,55,58661,6,0,L|492:196,1,103.020000628784,2|0,1:0|0:0,0:0:0:0:
407,286,58955,2,0,P|390:221|414:154,1,103.020000628784,10|0,0:0|0:0,0:0:0:0:
454,356,59249,2,0,B|386:393|355:333|303:363,1,154.530000943176,2|0,1:0|0:0,0:0:0:0:
281,374,59544,1,10,0:0:0:0:
307,221,59691,2,0,P|284:167|246:254,1,206.040001257568,6|2,1:0|1:0,0:0:0:0:
369,269,60132,2,0,P|370:163|338:116,1,154.530000943176,10|0,0:0|0:0,0:0:0:0:
287,77,60426,2,0,L|396:68,1,103.020000628784,2|0,1:0|1:0,0:0:0:0:
184,50,60720,6,0,B|168:124|221:135|193:213,1,154.530000943176,8|0,0:0|0:0,0:0:0:0:
184,244,61014,1,6,1:0:0:0:
116,170,61161,1,0,0:0:0:0:
249,303,61308,6,0,B|189:353|151:299|97:344,1,154.530000943176,8|0,0:0|0:0,0:0:0:0:
74,356,61602,1,2,1:0:0:0:
92,265,61749,1,0,0:0:0:0:
208,359,61897,1,10,0:0:0:0:
320,151,62044,2,0,P|366:132|326:205,1,206.040001257568,6|0,1:0|1:0,0:0:0:0:
183,18,62485,6,0,L|172:163,1,103.020000628784,10|0,0:0|0:0,0:0:0:0:
206,282,62779,2,0,P|225:232|211:150,1,103.020000628784,2|0,1:0|1:0,0:0:0:0:
161,356,63073,1,8,0:0:0:0:
101,254,63220,1,0,0:0:0:0:
161,356,63367,6,0,P|222:369|306:355,1,103.020000628784,2|0,1:0|0:0,0:0:0:0:
254,160,63661,2,0,L|264:298,1,103.020000628784,10|0,0:0|0:0,0:0:0:0:
354,66,63955,2,0,P|293:53|209:67,1,103.020000628784,2|0,1:0|0:0,0:0:0:0:
162,107,64249,1,10,0:0:0:0:
443,178,64397,2,0,P|503:130|415:117,1,206.040001257568,6|0,1:0|1:0,0:0:0:0:
402,334,64838,5,8,0:0:0:0:
347,176,64985,1,0,0:0:0:0:
269,355,65132,5,8,0:0:0:0:
345,262,65279,1,0,1:0:0:0:
202,289,65426,1,8,0:0:0:0:
364,259,65573,1,0,1:0:0:0:
78,313,65720,6,0,B|42:214|120:178|82:83,1,226.240002761719,6|8,1:0|0:0,0:0:0:0:
158,254,66161,1,0,1:0:0:0:
160,259,66235,1,0,1:0:0:0:
163,265,66308,2,0,P|220:307|207:202,1,226.240002761719,10|8,0:0|0:0,0:0:0:0:
316,347,66749,2,0,P|341:311|352:285,1,56.5600006904297,2|0,1:0|0:0,0:0:0:0:
474,0,66897,5,10,0:0:0:0:
445,384,67044,1,0,1:0:0:0:
348,0,67191,5,8,0:0:0:0:
378,384,67338,1,0,1:0:0:0:
277,0,67485,5,10,0:0:0:0:
248,384,67632,1,0,1:0:0:0:
134,0,67779,5,10,0:0:0:0:
163,384,67926,1,2,1:0:0:0:
512,155,68073,5,8,0:0:0:0:
67,216,68220,1,2,1:0:0:0:
512,234,68367,5,10,0:0:0:0:
81,121,68514,1,0,1:0:0:0:
512,311,68661,5,8,0:0:0:0:
124,41,68808,1,2,1:0:0:0:
512,384,68955,5,8,0:0:0:0:
202,0,69102,1,0,1:0:0:0:
48,353,69249,5,10,0:0:0:0:
512,244,69397,1,0,1:0:0:0:
0,264,69544,5,8,0:0:0:0:
469,350,69691,1,2,1:0:0:0:
48,97,69838,5,10,0:0:0:0:
512,206,69986,1,0,1:0:0:0:
0,186,70133,5,10,0:0:0:0:
469,100,70280,1,2,1:0:0:0:
121,384,70426,5,8,0:0:0:0:
192,0,70573,1,0,1:0:0:0:
235,384,70720,5,10,0:0:0:0:
107,0,70867,1,2,1:0:0:0:
410,350,71014,5,10,0:0:0:0:
0,119,71161,1,2,1:0:0:0:
512,142,71308,5,8,0:0:0:0:
0,274,71455,1,0,1:0:0:0:
512,384,71602,5,10,0:0:0:0:
406,0,71749,1,0,1:0:0:0:
361,384,71897,5,8,0:0:0:0:
341,24,72044,1,0,1:0:0:0:
244,353,72191,5,10,0:0:0:0:
276,48,72338,1,0,1:0:0:0:
164,316,72485,5,8,0:0:0:0:
211,72,72632,1,0,1:0:0:0:
0,345,72768,5,10,0:0:0:0:
403,299,72915,1,0,1:0:0:0:
0,248,73062,5,8,0:0:0:0:
345,323,73209,1,0,1:0:0:0:
16,138,73356,5,10,0:2:0:0:
279,345,73503,1,0,1:0:0:0:
74,34,73650,5,8,0:0:0:0:
219,364,73797,1,0,1:0:0:0:
512,0,73944,5,10,0:0:0:0:
108,119,74091,1,0,1:0:0:0:
496,147,74238,5,8,0:0:0:0:
169,45,74385,1,0,1:0:0:0:
404,256,74532,5,10,0:0:0:0:
261,17,74679,1,0,1:0:0:0:
268,284,74826,5,8,0:0:0:0:
351,49,74973,1,0,1:0:0:0:
82,229,75120,5,10,0:0:0:0:
431,162,75268,1,0,1:0:0:0:
82,229,75415,5,8,0:0:0:0:
431,162,75562,1,0,1:0:0:0:
144,144,75709,5,10,0:0:0:0:
369,234,75857,1,0,0:0:0:0:
144,144,76004,5,8,3:0:0:0:
369,234,76151,1,4,3:0:0:0:
130,319,76310,6,0,P|166:286|185:230,1,88.8800027124024,6|2,1:0|0:0,0:0:0:0:
238,56,77486,2,0,L|252:221,1,148.469995469055,6|0,1:0|0:0,0:0:0:0:
256,232,78074,6,0,L|246:235,14,10.6049996763611,2|0|0|0|0|0|0|0|0|0|0|0|0|0|0,0:0|0:0|0:0|0:0|0:0|0:0|0:0|0:0|0:0|0:0|0:0|0:0|0:0|0:0|0:0,0:0:0:0:
289,219,78662,2,0,P|333:229|371:333,1,165.640002527466,6|2,1:0|0:0,0:0:0:0:
297,301,79104,2,0,L|287:199,1,82.8200012637329,2|12,1:0|0:0,0:0:0:0:
278,113,79398,1,2,1:0:0:0:
180,205,79545,1,2,1:0:0:0:
180,205,79839,5,2,1:0:0:0:
317,195,79986,1,2,1:0:0:0:
167,232,80133,1,2,0:0:0:0:
328,218,80280,2,0,P|387:196|410:165,1,82.8200012637329,2|8,1:0|0:0,0:0:0:0:
442,97,80574,1,2,1:0:0:0:
455,235,80721,2,0,P|473:288|512:324,1,82.8200012637329,2|0,1:0|0:0,0:0:0:0:
289,324,81015,6,0,P|223:278|136:321,1,165.640002527466,6|2,1:0|0:0,0:0:0:0:
214,361,81457,2,0,L|205:248,1,82.8200012637329,2|8,1:0|0:0,0:0:0:0:
203,169,81751,1,2,1:0:0:0:
302,245,81898,1,2,1:0:0:0:
302,245,82192,5,2,1:0:0:0:
143,230,82339,1,2,1:0:0:0:
314,272,82486,1,2,0:0:0:0:
118,260,82633,2,0,P|85:227|75:184,1,82.8200012637329,2|8,1:0|0:0,0:0:0:0:
81,93,82927,1,2,1:0:0:0:
0,207,83074,2,0,P|-3:157|3:112,1,82.8200012637329,2|0,1:0|0:0,0:0:0:0:
164,0,83368,6,0,P|178:84|180:174,1,165.640002527466,6|2,1:0|0:0,0:0:0:0:
261,179,83810,2,0,P|251:130|214:81,1,82.8200012637329,2|14,1:0|0:0,0:0:0:0:
179,164,84104,1,2,1:0:0:0:
343,198,84251,1,2,1:0:0:0:
343,198,84545,5,2,1:0:0:0:
328,64,84692,1,2,1:0:0:0:
370,213,84839,1,2,0:0:0:0:
356,50,84986,2,0,P|395:33|445:29,1,82.8200012637329,2|10,1:0|0:0,0:0:0:0:
482,36,85280,1,2,1:0:0:0:
378,129,85427,2,0,P|415:111|456:112,1,82.8200012637329,2|0,1:0|0:0,0:0:0:0:
439,233,85721,5,2,1:0:0:0:
256,192,85795,12,0,86457,0:0:0:0:
