osu file format v14

[General]
AudioFilename: audio.mp3
AudioLeadIn: 0
PreviewTime: -1
Countdown: 0
SampleSet: None
StackLeniency: 0.7
Mode: 0
LetterboxInBreaks: 0
WidescreenStoryboard: 0

[Editor]
DistanceSpacing: 1
BeatDivisor: 4
GridSize: 32
TimelineZoom: 2.4

[Metadata]
Title:Black Rover (TV Size)
TitleUnicode:Black Rover (TV Size)
Artist:Vickeblanka
ArtistUnicode:ビッケブランカ
Creator:Moecho
Version:moecho
Source:
Tags:
BeatmapID:2210158
BeatmapSetID:1057429

[Difficulty]
HPDrainRate:6
CircleSize:4
OverallDifficulty:8
ApproachRate:9
SliderMultiplier:1.8
SliderTickRate:1

[Events]
//Background and Video events
//Break Periods
//Storyboard Layer 0 (Background)
//Storyboard Layer 1 (Fail)
//Storyboard Layer 2 (Pass)
//Storyboard Layer 3 (Foreground)
//Storyboard Layer 4 (Overlay)
//Storyboard Sound Samples

[TimingPoints]
1022,294.117647058824,4,2,1,60,1,0
1022,-166.666666666667,4,2,1,60,0,0
1610,-100,4,2,1,60,0,0
2198,-250,4,2,1,60,0,0
2786,-166.666666666667,4,2,1,60,0,0
3374,-333.333333333333,4,2,1,60,0,0
3963,-250,4,2,1,60,0,0
4551,-500,4,2,1,60,0,0
5139,-400,4,2,1,60,0,0
7344,255.31914893617,4,2,1,60,1,0
7471,335.195530726257,4,2,1,60,1,0
7471,-50,4,2,1,60,0,0
7638,250,4,2,1,60,1,0
7763,294.117647058824,4,2,1,60,1,0
7763,-50,4,2,1,60,0,0
7918,329.67032967033,4,2,1,60,1,0
7918,-66.6666666666667,4,2,1,60,0,0
8082,329.67032967033,4,2,1,60,1,0
8247,294.117647058824,4,2,1,60,1,0
8368,294.117647058824,4,2,1,60,1,0
8368,-50,4,2,1,60,0,0
8662,-133.333333333333,4,2,1,60,0,0
9250,294.117647058824,4,2,1,60,1,0
9397,-80,4,2,1,60,0,0
10279,-66.6666666666667,4,2,1,60,0,0
10573,-100,4,2,1,60,0,0
11308,-200,4,2,1,60,0,0
11897,-100,4,2,1,60,0,0
12191,-133.333333333333,4,2,1,60,0,0
12632,-66.6666666666667,4,2,1,60,0,0
12926,-100,4,2,1,60,0,0
13367,-80,4,2,1,60,0,0
15132,-400,4,2,1,60,0,0
15720,-100,4,2,1,60,0,0
17485,-200,4,2,1,60,0,0
26004,294.117647058824,4,2,1,60,1,0
26897,294.117647058824,4,2,1,60,1,0
26897,-133.333333333333,4,2,1,60,0,0
35720,-400,4,2,1,60,0,0
47328,294.117647058824,4,2,1,60,1,0
47475,346.820809248555,4,2,1,60,1,0
47475,-66.6666666666667,4,2,1,60,0,0
47648,250,4,2,1,60,1,0
47773,306.122448979592,4,2,1,60,1,0
47926,294.117647058824,4,2,1,60,1,0
47926,-66.6666666666667,4,2,1,60,0,0
48073,294.117647058824,4,2,1,60,1,0
50278,-66.6666666666667,4,2,1,60,0,0
50573,-100,4,2,1,60,0,0
51602,-66.6666666666667,4,2,1,60,0,0
51896,-100,4,2,1,60,0,0
52631,-66.6666666666667,4,2,1,60,0,0
52925,-100,4,2,1,60,0,0
53955,-66.6666666666667,4,2,1,60,0,0
54249,-100,4,2,1,60,0,0
54984,-66.6666666666667,4,2,1,60,0,0
55278,-100,4,2,1,60,0,0
56308,-50,4,2,1,60,0,0
57337,-33.3333333333333,4,2,1,60,0,0
57778,-66.6666666666667,4,2,1,60,0,0
72768,294.117647058824,4,2,1,60,1,0
76297,294.117647058824,4,2,1,60,1,8
76310,294.117647058824,4,2,1,60,1,0

[HitObjects]
120,135,1022,6,0,L|124:188,1,53.9999983520508
120,135,1316,2,0,L|124:188,1,53.9999983520508
286,274,1610,6,0,L|175:264,1,90
286,274,1904,2,0,L|196:265,1,90
68,326,2198,6,0,L|63:281,1,36
68,326,2492,2,0,L|64:290,1,36
120,135,2786,6,0,L|124:188,1,53.9999983520508
120,135,3080,2,0,L|124:188,1,53.9999983520508
15,179,3374,6,0,L|51:182,1,26.9999991760254
15,179,3669,2,0,L|51:182,1,26.9999991760254
201,65,3963,6,0,L|204:100,1,36
201,65,4257,2,0,L|204:100,1,36
278,230,4551,6,0,L|295:231,1,18
278,230,4845,2,0,L|295:231,1,18
401,301,5139,6,0,L|399:278,1,22.5
401,301,5433,2,0,L|399:278,1,22.5
496,179,5727,5,0,0:0:0:0:
500,168,5874,1,0,0:0:0:0:
420,146,6022,5,0,0:0:0:0:
416,125,6169,1,0,0:0:0:0:
331,139,6316,5,0,0:0:0:0:
294,107,6463,1,0,0:0:0:0:
231,160,6610,5,0,0:0:0:0:
171,159,6757,1,0,0:0:0:0:
125,233,6904,5,0,0:0:0:0:
74,286,7051,1,0,0:0:0:0:
118,362,7198,5,0,0:0:0:0:
118,362,7344,2,0,L|162:358,1,45
240,384,7471,6,0,B|320:383|281:333|360:327,1,135
356,327,7638,2,0,L|360:283,1,45
252,206,7763,6,0,B|172:205|211:155|132:149,1,135
69,180,7918,6,0,B|22:204|22:204|-13:113|60:77,1,202.500007724762
60,76,8246,2,0,L|104:80,1,45
252,206,8368,6,0,B|317:196|317:196|342:59|342:59|289:21,1,270
216,21,8662,6,0,P|216:37|222:53,1,33.7500012874604
260,128,8809,2,0,P|274:136|291:138,1,33.7500012874604
374,143,8956,2,0,P|405:132|427:107,1,67.5000025749208,0|0,3:0|3:0,3:0:0:0:
451,31,9250,5,0,0:0:0:0:
512,235,9397,2,0,P|457:245|407:221,1,112.5,0|0,3:0|3:0,3:0:0:0:
259,218,9691,5,0,0:0:0:0:
259,218,9764,1,0,0:0:0:0:
259,218,9838,1,0,0:0:0:0:
81,358,9985,2,0,P|44:316|40:261,1,112.5,0|0,3:0|3:0,3:0:0:0:
105,80,10279,6,0,B|152:56|152:56|187:147|114:183,1,202.500007724762
113,183,10573,2,0,L|117:227,1,45
292,339,10720,6,0,L|157:326,1,135
157,326,11014,1,0,0:0:0:0:
355,287,11161,5,0,0:0:0:0:
355,287,11235,1,0,0:0:0:0:
355,287,11308,2,0,L|348:219,1,67.5
188,140,11602,5,0,0:0:0:0:
188,140,11750,2,0,L|185:117,1,22.5
291,9,11897,6,0,L|426:22,1,135
500,21,12191,6,0,P|500:37|494:53,1,33.7500012874604
456,128,12338,2,0,P|442:136|425:138,1,33.7500012874604
341,142,12485,2,0,P|325:139|310:131,1,33.7500012874604
123,0,12632,6,0,B|43:15|43:15|66:133,1,202.500007724762
66,133,12926,2,0,L|110:137,1,45
225,264,13073,2,0,B|290:271|290:271|297:279|297:279|355:286,1,135
417,345,13367,6,0,B|495:314|481:238|481:238|449:240,1,168.75
356,286,13661,2,0,B|264:277|318:350|209:347,1,168.75
209,347,13955,1,0,0:0:0:0:
0,268,14102,2,0,P|37:227|91:217,1,112.5
206,166,14397,1,0,0:0:0:0:
206,166,14470,1,0,0:0:0:0:
206,166,14544,1,0,0:0:0:0:
122,25,14691,2,0,L|110:136,1,112.5
110,136,14985,1,0,0:0:0:0:
208,242,15132,6,0,L|230:239,1,22.5
230,239,15352,1,0,0:0:0:0:
186,320,15426,2,0,L|208:317,1,22.5
208,317,15647,1,0,0:0:0:0:
287,384,15720,6,0,L|296:294,1,90
500,95,16014,2,0,L|410:104,1,90
208,0,16308,2,0,L|198:89,1,90
198,89,16529,1,0,0:0:0:0:
198,89,16602,2,0,L|242:84,1,45
345,234,16750,2,0,L|389:229,1,45
500,95,16897,5,0,0:0:0:0:
500,95,16970,2,0,L|490:184,1,90
503,264,17191,1,0,0:0:0:0:
460,274,17264,1,0,0:0:0:0:
429,294,17338,1,0,0:0:0:0:
415,323,17411,1,0,0:0:0:0:
412,341,17485,6,0,L|344:348,1,67.5
344,348,17779,1,0,0:0:0:0:
178,167,18220,6,0,L|156:169,1,22.5
156,169,18367,1,0,0:0:0:0:
327,229,18661,6,0,L|329:207,1,22.5
404,218,18808,2,0,L|406:196,1,22.5
406,195,18956,1,0,0:0:0:0:
113,101,19250,6,0,L|115:79,1,22.5
190,90,19397,2,0,L|192:68,1,22.5
192,67,19545,1,0,0:0:0:0:
71,10,19691,5,0,0:0:0:0:
71,10,19764,1,0,0:0:0:0:
71,10,19838,2,0,L|3:17,1,67.5
3,17,20132,1,0,0:0:0:0:
249,233,20573,6,0,L|227:235,1,22.5
227,235,20720,1,0,0:0:0:0:
172,354,21014,6,0,L|170:332,1,22.5
95,343,21161,2,0,L|93:321,1,22.5
93,320,21309,1,0,0:0:0:0:
431,185,21602,6,0,L|429:163,1,22.5
354,174,21749,2,0,L|352:152,1,22.5
352,151,21897,1,0,0:0:0:0:
475,86,22044,5,0,0:0:0:0:
475,86,22117,1,0,0:0:0:0:
475,86,22191,2,0,L|407:79,1,67.5
407,79,22485,1,0,0:0:0:0:
153,250,22926,6,0,L|131:248,1,22.5
131,248,23073,1,0,0:0:0:0:
146,54,23367,6,0,L|148:76,1,22.5
223,65,23514,2,0,L|225:87,1,22.5
225,88,23662,1,0,0:0:0:0:
475,239,23955,6,0,L|473:261,1,22.5
398,250,24102,2,0,L|396:272,1,22.5
396,273,24250,1,0,0:0:0:0:
459,350,24397,5,0,0:0:0:0:
459,350,24470,1,0,0:0:0:0:
459,350,24544,2,0,L|391:357,1,67.5
391,357,24838,1,0,0:0:0:0:
308,242,24985,6,0,L|250:247,1,45
185,357,25279,6,0,L|163:359,1,22.5
163,359,25426,1,0,0:0:0:0:
206,176,25720,6,0,L|208:154,1,22.5
283,165,25867,2,0,L|285:143,1,22.5
285,142,26004,1,0,0:0:0:0:
59,59,26298,5,0,0:0:0:0:
191,44,26445,1,0,0:0:0:0:
206,176,26592,1,0,0:0:0:0:
74,191,26739,1,0,0:0:0:0:
180,307,26897,6,0,P|213:308|243:323,1,67.5000025749208
324,321,27191,2,0,P|339:350|341:384,1,67.5000025749208
508,97,27485,6,0,P|474:95|444:80,1,67.5000025749208
304,186,27779,2,0,P|288:156|286:122,1,67.5000025749208
508,97,28073,6,0,P|474:95|444:80,1,67.5000025749208
318,49,28367,1,0,0:0:0:0:
304,186,28514,2,0,P|288:156|286:122,1,67.5000025749208
130,53,28808,2,0,P|147:24|176:6,1,67.5000025749208
318,49,29102,1,0,0:0:0:0:
319,276,29249,6,0,P|285:274|255:259,1,67.5000025749208
175,262,29543,2,0,P|159:232|157:198,1,67.5000025749208
130,53,29838,6,0,P|147:24|176:6,1,67.5000025749208
304,186,30132,2,0,P|288:156|286:122,1,67.5000025749208
508,97,30426,2,0,P|474:95|444:80,1,67.5000025749208
318,49,30720,1,0,0:0:0:0:
304,186,30867,2,0,P|288:156|286:122,2,67.5000025749208
318,49,31308,1,0,0:0:0:0:
130,53,31455,1,0,0:0:0:0:
205,322,31602,6,0,P|238:320|268:305,1,67.5000025749208
349,308,31896,2,0,P|364:278|366:244,1,67.5000025749208
508,97,32191,6,0,P|474:95|444:80,1,67.5000025749208
304,186,32485,2,0,P|288:156|286:122,1,67.5000025749208
318,49,32779,1,0,0:0:0:0:
318,49,32926,1,0,0:0:0:0:
130,53,33073,1,0,0:0:0:0:
130,53,33220,2,0,P|147:24|176:6,1,67.5000025749208
318,49,33514,1,0,0:0:0:0:
304,186,33661,2,0,P|288:156|286:122,1,67.5000025749208
508,97,33955,6,0,P|506:130|491:160,1,67.5000025749208
427,249,34249,2,0,L|359:242,1,67.5
211,137,34544,2,0,L|143:130,1,67.5
66,118,34838,5,0,0:0:0:0:
318,49,34985,2,0,L|325:117,1,67.5
171,220,35279,1,0,0:0:0:0:
171,220,35426,2,0,L|178:288,1,67.5
360,242,35720,6,0,L|326:238,1,33.75
212,291,36014,2,0,L|178:287,1,33.75
92,279,36308,5,0,0:0:0:0:
448,253,36897,1,0,0:0:0:0:
92,279,37338,1,0,0:0:0:0:
448,253,37779,1,0,0:0:0:0:
92,279,38220,1,0,0:0:0:0:
263,7,38661,5,0,0:0:0:0:
289,363,39102,1,0,0:0:0:0:
289,363,39250,1,0,0:0:0:0:
263,7,39544,1,0,0:0:0:0:
263,7,39691,1,0,0:0:0:0:
289,363,40132,1,0,0:0:0:0:
263,7,40573,1,0,0:0:0:0:
488,89,41014,5,0,0:0:0:0:
340,84,41602,1,0,0:0:0:0:
228,159,42191,1,0,0:0:0:0:
181,256,42779,1,0,0:0:0:0:
179,352,43367,5,0,0:0:0:0:
308,352,43955,1,0,0:0:0:0:
374,327,44544,1,0,0:0:0:0:
398,278,45132,1,0,0:0:0:0:
396,231,45720,5,0,0:0:0:0:
396,231,46308,5,0,0:0:0:0:
396,231,46897,5,0,0:0:0:0:
288,62,47328,5,0,0:0:0:0:
288,62,47401,1,0,0:0:0:0:
288,62,47475,2,0,B|257:63|246:98|246:98|269:216,1,180.000006866455
269,216,47773,2,0,L|313:220,1,45
500,223,47926,6,0,B|524:270|524:270|433:305|397:232,1,202.500007724762
396,231,48220,1,0,0:0:0:0:
211,102,48367,2,0,P|243:72|287:61,1,90
341,383,48661,2,0,P|330:340|343:298,1,90
448,166,48955,1,0,0:0:0:0:
448,166,49102,1,0,0:0:0:0:
498,372,49249,6,0,P|454:361|422:331,1,90
160,384,49543,2,0,P|147:341|157:297,1,90
29,193,49837,2,0,P|59:160|102:147,1,90
148,22,50131,1,0,0:0:0:0:
266,161,50278,6,0,B|251:241|251:241|133:218,1,202.500007724762
132,217,50573,1,0,0:0:0:0:
0,339,50720,2,0,P|30:372|73:385,1,90
252,326,51014,2,0,P|295:316|328:286,1,90
189,145,51308,1,0,0:0:0:0:
189,145,51455,1,0,0:0:0:0:
332,12,51602,6,0,B|379:-12|379:-12|414:79|341:115,1,202.500007724762
342,201,51896,2,0,P|298:190|266:160,1,90
45,260,52190,2,0,P|32:216|42:173,1,90
106,113,52484,1,0,0:0:0:0:
266,160,52631,6,0,B|251:240|251:240|133:217,1,202.500007724762
132,216,52925,1,0,0:0:0:0:
101,18,53073,2,0,P|145:29|177:59,1,90
340,115,53367,2,0,P|352:158|342:201,1,90
124,313,53661,1,0,0:0:0:0:
124,313,53808,1,0,0:0:0:0:
263,358,53955,6,0,B|310:382|310:382|345:291|272:255,1,202.500007724762
266,160,54249,2,0,P|222:171|190:201,1,90
3,160,54543,2,0,P|-9:203|0:246,1,90
182,371,54837,1,0,0:0:0:0:
347,139,54984,6,0,B|332:59|332:59|214:82,1,202.500007724762
213,82,55278,1,0,0:0:0:0:
67,303,55425,2,0,L|202:290,1,135
263,358,55720,1,0,0:0:0:0:
262,357,55867,1,0,0:0:0:0:
67,303,56014,2,0,L|80:168,1,135
154,112,56308,6,0,B|303:128|212:214|375:244,1,270
375,244,56602,1,0,0:0:0:0:
483,45,56896,6,0,B|334:61|425:147|261:177,1,270
261,177,57190,1,0,0:0:0:0:
95,341,57337,6,0,B|296:333|163:112|379:102,1,405.000015449525
378,102,57631,1,0,0:0:0:0:
452,228,57778,6,0,B|499:252|499:252|534:161|461:125,1,202.500007724762
