osu file format v14

[General]
AudioFilename: audio.mp3
AudioLeadIn: 0
PreviewTime: 45647
Countdown: 0
SampleSet: Soft
StackLeniency: 0.7
Mode: 0
LetterboxInBreaks: 0
WidescreenStoryboard: 0

[Editor]
DistanceSpacing: 0.4
BeatDivisor: 4
GridSize: 32
TimelineZoom: 2

[Metadata]
Title:Black Rover (TV Size)
TitleUnicode:Black Rover (TV Size)
Artist:Vickeblanka
ArtistUnicode:ビッケブランカ
Creator:I love Emilia
Version:ok
Source:England
Tags:England japanese sotarks black rover clover new hot anime and car yea smh i love emilia too btw
BeatmapID:1738307
BeatmapSetID:829722

[Difficulty]
HPDrainRate:6.4
CircleSize:3.8
OverallDifficulty:8.8
ApproachRate:9
SliderMultiplier:1.4
SliderTickRate:1

[Events]
//Background and Video events
0,0,"range-rover-black-hd.jpg",0,0
//Break Periods
//Storyboard Layer 0 (Background)
//Storyboard Layer 1 (Fail)
//Storyboard Layer 2 (Pass)
//Storyboard Layer 3 (Foreground)
//Storyboard Sound Samples

[TimingPoints]
1022,294.117647058824,4,2,1,40,1,0
1022,-111.111111111111,4,2,1,40,0,0
5727,294.117647058824,4,2,1,40,1,0
7344,255.31914893617,4,2,1,40,1,0
7471,303.030303030303,4,2,1,40,1,0
7622,283.018867924528,4,2,1,40,1,0
7763,294.117647058824,4,2,1,40,1,0
7918,329.67032967033,4,2,1,50,1,0
7918,-66.6666666666667,4,2,1,50,0,0
8247,294.117647058824,4,2,1,50,1,0
8378,294.117647058824,4,2,1,50,1,0
8966,-66.6666666666667,4,2,1,50,0,0
9250,294.117647058824,4,2,1,50,1,0
10279,-66.6666666666667,4,2,1,50,0,0
17485,-83.3333333333333,4,2,1,50,0,0
19838,-100,4,2,1,50,0,0
20720,-83.3333333333333,4,2,1,50,0,0
24544,-100,4,2,1,50,0,0
25132,-83.3333333333333,4,2,1,50,0,0
26004,294.117647058824,4,2,1,45,1,0
26004,-83.3333333333333,4,2,1,45,0,0
26897,294.117647058824,4,2,1,50,1,0
26897,-83.3333333333333,4,2,1,50,0,0
27485,-66.6666666666667,4,2,1,50,0,0
36308,-100,4,2,1,50,0,0
45720,-125,4,2,1,50,0,0
46308,-142.857142857143,4,2,1,50,0,0
46897,-166.666666666667,4,2,1,50,0,0
48367,-55.5555555555556,4,2,1,50,0,0
48955,-62.5,4,2,1,50,0,0
50720,-55.5555555555556,4,2,1,50,0,0
51602,-62.5,4,2,1,50,0,0
53955,-55.5555555555556,4,2,1,50,0,0
54985,-62.5,4,2,1,50,0,0
56308,-50,4,2,1,50,0,0
56897,-45.4545454545455,4,2,1,50,0,0
57338,-41.6666666666667,4,2,1,50,0,0
57779,-62.5,4,2,1,50,0,0
60132,-55.5555555555556,4,2,1,50,0,0
60720,-62.5,4,2,1,50,0,0
62485,-55.5555555555556,4,2,1,50,0,0
65720,-66.6666666666667,4,2,1,50,0,0
72768,294.117647058824,4,2,1,60,1,0
72768,-66.6666666666667,4,2,1,60,0,0
76310,294.117647058824,4,2,1,60,1,0
76310,-125,4,2,1,60,0,0
78074,-66.6666666666667,4,2,1,60,0,0
78662,-76.9230769230769,4,2,1,60,0,0
85721,-500,4,2,1,60,0,0

[HitObjects]
127,73,1022,6,0,P|158:107|195:126,1,62.9999980773926
319,69,1316,2,0,P|288:103|251:122,1,62.9999980773926
35,190,1610,6,0,P|60:171|80:146,1,62.9999980773926
399,187,1904,2,0,P|373:168|353:143,1,62.9999980773926
90,300,2198,6,0,P|96:259|114:231,1,62.9999980773926
341,297,2492,2,0,P|335:256|317:228,1,62.9999980773926
150,121,2786,6,0,P|163:149|166:180,1,62.9999980773926
269,127,3080,2,0,P|255:155|252:186,1,62.9999980773926
341,297,3374,6,0,P|354:268|357:237,1,62.9999980773926
467,192,3669,2,0,P|453:163|450:132,1,62.9999980773926
328,67,3963,6,0,P|314:95|311:126,1,62.9999980773926
202,172,4258,2,0,P|215:200|218:231,1,62.9999980773926
114,86,4551,6,0,P|100:114|97:145,1,62.9999980773926
202,172,4845,2,0,P|188:200|185:231,1,62.9999980773926
398,86,5139,6,0,P|411:114|414:145,1,62.9999980773926
310,172,5433,2,0,P|323:200|326:231,1,62.9999980773926
160,229,5727,6,0,P|162:197|178:156,1,70
354,164,6021,2,0,P|367:192|369:234,1,70
112,228,6315,6,0,P|114:196|137:157,1,70
391,163,6609,2,0,P|404:191|406:243,1,70
211,287,6903,6,0,P|197:258|198:217,1,70
304,283,7197,2,0,P|317:254|318:213,1,70
306,197,7407,1,0,0:0:0:0:
276,176,7471,1,0,0:0:0:0:
144,186,7622,5,0,0:0:0:0:
274,300,7763,1,0,0:0:0:0:
80,326,7918,2,0,B|144:313|177:228|262:226,1,210.000008010865
426,270,8378,5,0,0:0:0:0:
289,359,8525,1,0,0:0:0:0:
360,159,8672,5,0,0:0:0:0:
446,324,8819,1,0,0:0:0:0:
262,231,8966,2,0,B|186:185|93:217|93:217|127:250,1,210.000008010865
216,323,9397,1,0,0:0:0:0:
208,130,9544,1,0,0:0:0:0:
333,255,9691,1,0,0:0:0:0:
213,94,9838,1,0,0:0:0:0:
338,219,9985,1,0,0:0:0:0:
148,205,10132,5,0,0:0:0:0:
148,205,10279,2,0,P|95:226|64:264,1,105.000004005432
162,369,10573,5,0,0:0:0:0:
239,217,10720,1,0,0:0:0:0:
78,168,10867,1,0,0:0:0:0:
245,297,11014,5,0,0:0:0:0:
197,133,11161,1,0,0:0:0:0:
46,207,11308,2,0,P|138:221|275:159,1,210.000008010865
272,49,11750,5,0,0:0:0:0:
272,49,11897,2,0,L|350:124,1,105.000004005432
262,172,12191,2,0,L|340:247,1,105.000004005432
236,273,12485,5,0,0:0:0:0:
236,273,12632,2,0,P|183:240|117:95,1,210.000008010865
259,33,13073,5,0,0:0:0:0:
208,170,13220,1,0,0:0:0:0:
382,2,13367,5,0,0:0:0:0:
331,139,13514,1,0,0:0:0:0:
194,87,13661,2,0,B|164:77|132:103|132:103|182:174|160:263,1,210.000008010865
263,258,14102,5,0,0:0:0:0:
81,320,14250,1,0,0:0:0:0:
262,360,14397,6,0,L|161:298,1,105.000004005432
403,345,14691,2,0,L|302:283,1,105.000004005432
175,217,14985,1,0,0:0:0:0:
339,145,15132,6,0,P|356:199|348:254,1,105.000004005432
258,281,15352,6,0,P|241:227|249:172,1,105.000004005432
271,153,15573,1,0,0:0:0:0:
447,159,15720,6,0,P|396:206|341:220,1,105.000004005432
198,215,16014,1,0,0:0:0:0:
198,215,16161,1,0,0:0:0:0:
423,327,16308,6,0,P|355:312|312:275,1,105.000004005432
234,155,16602,1,0,0:0:0:0:
234,155,16749,1,0,0:0:0:0:
423,83,16897,5,0,0:0:0:0:
423,237,17044,1,0,0:0:0:0:
288,159,17191,1,0,0:0:0:0:
486,154,17338,5,0,0:0:0:0:
322,27,17485,2,0,B|243:59|272:151|183:176|183:176|203:106|150:51,1,335.999989746094
91,137,18367,6,0,P|113:183|83:278,1,125.999996154785
74,312,18661,2,0,P|128:271|193:262,1,125.999996154785
236,284,18955,2,0,P|283:296|322:287,1,83.9999974365235
455,214,19250,5,0,0:0:0:0:
310,199,19397,1,0,0:0:0:0:
384,319,19544,1,0,0:0:0:0:
412,133,19691,5,0,0:0:0:0:
412,133,19764,1,0,0:0:0:0:
412,133,19838,2,0,P|363:192|272:202,1,140
257,321,20720,6,0,P|216:274|140:254,1,125.999996154785
104,253,21014,2,0,P|145:206|193:186,1,83.9999974365235
217,187,21235,2,0,P|176:140|106:118,1,125.999996154785
33,253,21602,5,0,0:0:0:0:
168,202,21750,1,0,0:0:0:0:
41,125,21897,1,0,0:0:0:0:
116,281,22044,5,0,0:0:0:0:
116,281,22117,1,0,0:0:0:0:
116,281,22191,2,0,B|149:242|116:183|157:149|157:149|177:160|187:174,1,167.999994873047
336,207,23073,6,0,P|299:237|232:243,1,83.9999974365235
321,248,23367,2,0,P|284:278|217:284,1,83.9999974365235
62,202,23661,6,0,P|99:232|166:238,1,83.9999974365235
77,243,23955,2,0,P|114:273|181:279,1,83.9999974365235
261,168,24250,6,0,P|224:138|157:132,1,83.9999974365235
164,141,24470,1,0,0:0:0:0:
141,169,24544,2,0,B|108:199|161:229|117:265|117:265|118:239|94:225,1,140
227,298,25132,6,0,P|281:272|301:243,1,83.9999974365235
314,157,25426,2,0,P|275:110|242:98,1,83.9999974365235
376,277,25720,6,0,P|364:218|342:191,1,83.9999974365235
216,128,26004,2,0,P|161:153|141:181,1,83.9999974365235
145,318,26298,5,0,0:0:0:0:
68,135,26445,1,0,0:0:0:0:
306,314,26592,5,0,0:0:0:0:
229,131,26739,1,0,0:0:0:0:
429,208,26897,6,0,P|409:151|395:242,1,251.999992309571
319,344,27485,6,0,P|269:291|229:277,1,105.000004005432
41,339,27779,2,0,P|91:286|131:272,1,105.000004005432
248,201,28073,2,0,P|293:156|311:62,1,157.500006008148
183,124,28367,5,0,0:0:0:0:
183,124,28514,2,0,P|202:168|254:202,1,105.000004005432
410,128,28808,2,0,P|391:84|339:50,1,105.000004005432
255,265,29102,1,0,0:0:0:0:
255,265,29249,2,0,P|309:250|279:117,1,210.000008010865
120,111,29838,6,0,P|168:138|224:131,1,105.000004005432
392,99,30132,2,0,P|344:126|288:119,1,105.000004005432
379,248,30426,2,0,P|319:219|209:227,1,157.500006008148
190,262,30720,6,0,P|221:287|251:289,1,52.5000020027161
292,287,30867,2,0,P|349:250|293:82,1,262.500010013581
264,88,31308,6,0,P|211:113|181:190,1,105.000004005432
141,168,31529,5,0,0:0:0:0:
141,168,31602,2,0,P|194:193|222:335,1,210.000008010865
61,306,32191,6,0,P|99:263|153:241,1,105.000004005432
345,129,32485,2,0,P|307:172|253:194,1,105.000004005432
109,152,32779,5,0,0:0:0:0:
251,75,32926,1,0,0:0:0:0:
328,216,33073,1,0,0:0:0:0:
187,293,33220,2,0,P|168:225|188:162,1,105.000004005432
308,80,33514,5,0,0:0:0:0:
308,80,33661,2,0,P|327:148|307:211,1,105.000004005432
271,271,33955,2,0,P|336:243|477:261,1,210.000008010865
389,336,34397,5,0,0:0:0:0:
389,336,34544,2,0,P|345:280|326:139,1,210.000008010865
444,26,34985,5,0,0:0:0:0:
444,26,35132,2,0,P|470:78|470:123,1,105.000004005432
281,89,35426,2,0,P|255:141|255:186,1,105.000004005432
345,311,35720,5,0,0:0:0:0:
337,141,35867,1,0,0:0:0:0:
468,337,36014,1,0,0:0:0:0:
450,79,36161,1,0,0:0:0:0:
378,303,36308,6,0,P|391:265|419:233,1,70
342,247,36602,2,0,P|355:209|383:177,1,70
267,0,36897,6,0,P|254:38|226:70,1,70
303,56,37191,2,0,P|290:94|262:126,1,70
139,135,37485,5,0,0:0:0:0:
211,47,37632,1,0,0:0:0:0:
299,119,37779,1,0,0:0:0:0:
164,198,37926,5,0,0:0:0:0:
145,65,38073,1,0,0:0:0:0:
278,46,38220,2,0,P|256:84|257:137,1,70
325,276,38661,6,0,P|287:235|191:210,1,140
129,336,39102,5,0,0:0:0:0:
129,336,39249,2,0,P|154:305|197:283,1,70
383,336,39544,5,0,0:0:0:0:
383,336,39691,2,0,P|358:305|315:283,2,70
392,225,40132,5,0,0:0:0:0:
392,225,40279,2,0,P|417:194|460:172,1,70
484,306,40573,2,0,P|459:337|416:359,1,70
281,348,41014,6,0,P|251:306|171:260,1,140
434,190,41602,2,0,P|382:194|302:241,1,140
340,0,42191,2,0,P|317:46|313:138,1,140
116,4,42779,2,0,P|149:43|233:82,1,140
267,231,43367,6,0,P|238:179|224:281,1,245
154,349,43955,6,0,B|255:389|299:260|382:313,1,245
431,248,44544,6,0,P|379:228|316:152,1,140
404,67,45132,2,0,P|456:87|519:163,1,140
461,298,45720,6,0,P|415:255|277:237,1,196
248,163,46308,6,0,P|283:157|222:107,1,171.499994766236
169,40,46897,6,0,P|151:75|68:109,1,125.999996154785
75,109,47411,1,0,0:0:0:0:
75,109,47485,1,0,0:0:0:0:
242,134,47632,1,0,0:0:0:0:
53,253,47779,1,0,0:0:0:0:
298,312,47926,1,0,0:0:0:0:
220,318,48367,6,0,P|174:266|102:237,1,125.999996154785
311,317,48661,2,0,P|357:265|429:236,1,125.999996154785
438,364,48955,1,0,0:0:0:0:
438,364,49102,1,0,0:0:0:0:
336,245,49249,6,0,P|272:212|216:217,1,112
62,255,49544,2,0,P|126:288|182:283,1,112
266,205,49838,5,0,0:0:0:0:
136,213,49985,1,0,0:0:0:0:
216,320,50132,1,0,0:0:0:0:
221,114,50279,2,0,P|242:178|374:257,1,224
385,54,50720,6,0,P|323:74|266:129,1,125.999996154785
81,52,51014,2,0,P|143:72|200:127,1,125.999996154785
69,188,51308,1,0,0:0:0:0:
69,188,51455,1,0,0:0:0:0:
241,236,51602,6,0,P|291:196|348:192,1,112
145,158,51897,2,0,P|95:198|38:202,1,112
278,153,52191,2,0,P|276:88|307:41,1,112
118,230,52486,5,0,0:0:0:0:
57,378,52632,2,0,B|121:319|223:384|282:252,1,224
248,141,53073,6,0,P|281:186|346:209,1,112
469,154,53367,2,0,P|436:109|371:86,1,112
222,137,53661,1,0,0:0:0:0:
222,137,53808,1,0,0:0:0:0:
346,270,53955,6,0,P|396:203|442:186,1,125.999996154785
345,102,54249,2,0,P|290:131|257:184,1,125.999996154785
308,301,54544,5,0,0:0:0:0:
339,177,54691,1,0,0:0:0:0:
214,199,54838,1,0,0:0:0:0:
395,282,54985,2,0,P|326:276|197:360,1,224
199,355,55426,1,0,0:0:0:0:
198,235,55720,5,0,0:0:0:0:
78,184,55867,1,0,0:0:0:0:
95,307,56014,1,0,0:0:0:0:
409,287,56308,6,0,P|348:200|163:130,1,280
134,320,56749,5,0,0:0:0:0:
134,320,56897,2,0,P|243:281|346:95,1,308.000009399414
385,322,57338,6,0,B|321:198|162:260|130:102,1,335.999989746094
20,199,57779,6,0,P|79:231|106:278,1,112
243,335,58073,2,0,P|197:277|186:121,1,224
198,113,58514,1,0,0:0:0:0:
331,65,58661,6,0,P|358:132|351:178,1,112
488,314,58955,2,0,P|461:247|468:201,1,112
331,65,59249,2,0,P|304:132|311:178,1,112
176,310,59544,5,0,0:0:0:0:
227,167,59691,2,0,B|242:267|349:244|370:344,1,224
451,278,60132,6,0,P|415:221|338:173,1,125.999996154785
168,280,60426,2,0,P|204:223|281:175,1,125.999996154785
376,115,60720,2,0,P|419:70|439:15,1,112
245,38,61014,5,0,0:0:0:0:
279,155,61161,1,0,0:0:0:0:
363,55,61308,1,0,0:0:0:0:
156,195,61455,5,0,0:0:0:0:
309,232,61602,1,0,0:0:0:0:
250,73,61749,1,0,0:0:0:0:
215,281,61897,5,0,0:0:0:0:
356,131,62044,2,0,B|264:117|223:224|97:168,1,224
256,38,62485,6,0,P|212:88|130:109,1,125.999996154785
341,34,62779,2,0,P|385:84|467:105,1,125.999996154785
307,183,63073,1,0,0:0:0:0:
307,183,63220,1,0,0:0:0:0:
376,327,63367,6,0,P|313:278|244:270,1,125.999996154785
142,127,63661,2,0,P|205:176|274:184,1,125.999996154785
404,191,63955,6,0,P|440:132|347:149,1,188.999994232178
275,73,64249,6,0,P|232:162|140:204,1,188.999994232178
83,254,64544,6,0,B|160:329|258:233|341:342,1,251.999992309571
341,350,64985,1,0,0:0:0:0:
418,209,65132,1,0,0:0:0:0:
341,350,65279,5,0,0:0:0:0:
266,203,65426,1,0,0:0:0:0:
439,236,65573,1,0,0:0:0:0:
278,341,65720,6,0,P|310:290|219:352,1,367.500014019013
242,279,66308,6,0,P|191:235|171:178,1,105.000004005432
184,52,66602,2,0,P|235:96|255:153,1,105.000004005432
290,272,66897,5,0,0:0:0:0:
353,122,67044,1,0,0:0:0:0:
485,268,67191,5,0,0:0:0:0:
422,118,67338,1,0,0:0:0:0:
324,369,67485,5,0,0:0:0:0:
387,219,67632,1,0,0:0:0:0:
450,369,67779,5,0,0:0:0:0:
387,219,67926,1,0,0:0:0:0:
212,246,68073,6,0,P|243:300|284:323,1,105.000004005432
433,247,68367,2,0,P|402:301|361:324,1,105.000004005432
289,106,68661,6,0,P|258:160|217:183,1,105.000004005432
356,101,68955,2,0,P|387:155|428:178,1,105.000004005432
371,310,69249,5,0,0:0:0:0:
299,141,69397,1,0,0:0:0:0:
238,262,69544,5,0,0:0:0:0:
166,93,69692,1,0,0:0:0:0:
105,310,69838,5,0,0:0:0:0:
177,141,69986,1,0,0:0:0:0:
238,262,70133,5,0,0:0:0:0:
310,93,70279,1,0,0:0:0:0:
369,217,70426,5,0,0:0:0:0:
151,108,70573,1,0,0:0:0:0:
285,77,70720,1,0,0:0:0:0:
256,254,70867,5,0,0:0:0:0:
365,35,71014,1,0,0:0:0:0:
396,169,71161,1,0,0:0:0:0:
180,191,71308,2,0,P|232:147|290:132,1,105.000004005432
225,52,71602,5,0,0:0:0:0:
457,169,71749,1,0,0:0:0:0:
158,166,71897,5,0,0:0:0:0:
431,71,72044,1,0,0:0:0:0:
115,89,72191,5,0,0:0:0:0:
347,206,72338,1,0,0:0:0:0:
48,203,72486,5,0,0:0:0:0:
321,108,72633,1,0,0:0:0:0:
202,309,72768,6,0,P|161:285|125:204,1,105.000004005432
136,59,73062,2,0,P|177:83|213:164,1,105.000004005432
202,309,73356,2,0,P|161:285|125:204,1,105.000004005432
293,201,73650,2,0,P|334:225|370:306,1,105.000004005432
193,355,73944,5,0,0:0:0:0:
193,355,74091,1,0,0:0:0:0:
216,134,74238,5,0,0:0:0:0:
216,134,74385,1,0,0:0:0:0:
17,270,74532,5,0,0:0:0:0:
17,270,74679,1,0,0:0:0:0:
22,52,74826,5,0,0:0:0:0:
22,52,74973,1,0,0:0:0:0:
153,97,75120,6,0,P|168:147|157:197,1,105.000004005432
265,187,75415,2,0,P|250:237|261:287,1,105.000004005432
413,355,75709,5,0,0:0:0:0:
274,163,75856,1,0,0:0:0:0:
490,236,76003,1,0,0:0:0:0:
274,305,76150,1,0,0:0:0:0:
413,121,76310,2,0,P|386:172|319:211,1,112
294,37,76898,2,0,P|249:70|223:119,1,112
406,181,77486,2,0,P|359:229|220:248,1,196
189,226,78074,6,0,L|151:198,1,35.0000013351441
204,184,78172,2,0,L|186:147,1,35.0000013351441
239,140,78270,2,0,L|238:102,1,35.0000013351441
286,120,78368,2,0,L|306:88,1,35.0000013351441
340,122,78466,2,0,L|380:99,2,35.0000013351441
382,171,78662,6,0,P|321:177|284:222,1,90.9999958343508
239,320,78957,1,0,0:0:0:0:
391,302,79104,2,0,P|353:237|238:203,1,181.999991668702
121,233,79545,1,0,0:0:0:0:
232,70,79839,5,0,0:0:0:0:
262,205,79986,1,0,0:0:0:0:
355,91,80133,5,0,0:0:0:0:
280,288,80280,1,0,0:0:0:0:
400,159,80574,5,0,0:0:0:0:
325,356,80721,1,0,0:0:0:0:
252,218,81015,6,0,P|202:190|138:188,1,90.9999958343508
393,132,81310,5,0,0:0:0:0:
393,132,81457,2,0,P|344:144|288:133,1,90.9999958343508
512,259,81751,5,0,0:0:0:0:
511,258,81898,2,0,P|467:246|422:250,1,90.9999958343508
305,343,82192,5,0,0:0:0:0:
371,189,82339,1,0,0:0:0:0:
226,261,82486,5,0,0:0:0:0:
292,107,82633,1,0,0:0:0:0:
388,340,82927,5,0,0:0:0:0:
197,115,83074,1,0,0:0:0:0:
167,278,83368,6,0,P|217:232|266:224,1,90.9999958343508
378,194,83662,5,0,0:0:0:0:
378,194,83810,2,0,P|328:148|279:140,1,90.9999958343508
136,95,84104,5,0,0:0:0:0:
136,95,84252,2,0,P|186:49|235:41,1,90.9999958343508
370,100,84545,5,0,0:0:0:0:
186,179,84692,1,0,0:0:0:0:
396,211,84839,5,0,0:0:0:0:
187,78,84986,1,0,0:0:0:0:
366,302,85280,5,0,0:0:0:0:
112,140,85427,1,0,0:0:0:0:
251,275,85721,6,0,P|235:254|178:240,1,84
