osu file format v14

[General]
AudioFilename: audio.mp3
AudioLeadIn: 0
PreviewTime: 48294
Countdown: 0
SampleSet: None
StackLeniency: 0.3
Mode: 0
LetterboxInBreaks: 0
WidescreenStoryboard: 1

[Editor]
DistanceSpacing: 1.6
BeatDivisor: 4
GridSize: 8
TimelineZoom: 3.199999

[Metadata]
Title:Black Rover (TV Size)
TitleUnicode:Black Rover (TV Size)
Artist:Vickeblanka
ArtistUnicode:ビッケブランカ
Creator:FayeurS 2
Version:HR2
Source:ブラッククローバー
Tags:clover opening op akitoshi corinn -laura- doormat lami intoon mir nevo snownino_ shunao shogunmoon naotoshi nao_tomori
BeatmapID:1951238
BeatmapSetID:934643

[Difficulty]
HPDrainRate:7
CircleSize:4.5
OverallDifficulty:8.7
ApproachRate:9.2
SliderMultiplier:1.5
SliderTickRate:1

[Events]
//Background and Video events
0,0,"BG.jpg",0,0
//Break Periods
//Storyboard Layer 0 (Background)
//Storyboard Layer 1 (Fail)
//Storyboard Layer 2 (Pass)
//Storyboard Layer 3 (Foreground)
//Storyboard Sound Samples

[TimingPoints]
1022,294.017647058824,4,2,22,42,1,0
1022,-125,4,2,22,42,0,0
7344,255.31914893617,4,2,22,42,1,0
7344,-125,4,2,22,42,0,0
7471,335.195530726257,4,2,22,42,1,0
7638,250,4,2,22,42,1,0
7763,294.117647058824,4,2,22,42,1,0
7918,329.67032967033,4,2,22,72,1,0
7918,-100,4,2,22,72,0,0
8082,329.67032967033,4,2,22,72,1,0
8247,294.117647058824,4,2,22,72,1,0
8368,294.117647058824,4,2,22,72,1,0
9250,294.117647058824,4,2,22,72,1,0
17459,-100,4,2,22,52,0,0
18734,-100,4,2,22,52,0,0
18832,-100,4,2,22,52,0,0
18930,-100,4,2,22,52,0,0
19028,-100,4,2,22,52,0,0
19126,-100,4,2,22,52,0,0
19224,-100,4,2,22,52,0,0
19322,-100,4,2,22,52,0,0
19420,-100,4,2,22,52,0,0
19518,-100,4,2,22,52,0,0
19616,-100,4,2,22,52,0,0
19714,-100,4,2,22,52,0,0
19812,-100,4,2,22,52,0,0
21087,-100,4,2,22,52,0,0
21185,-100,4,2,22,52,0,0
21283,-100,4,2,22,52,0,0
21381,-100,4,2,22,52,0,0
21479,-100,4,2,22,52,0,0
21577,-100,4,2,22,52,0,0
26004,294.117647058824,4,2,22,52,1,0
26871,-100,4,2,22,62,0,0
26897,294.117647058824,4,2,22,62,1,0
36283,-125,4,2,22,52,0,0
41577,-125,4,2,22,52,0,0
42165,-125,4,2,22,52,0,0
42753,-125,4,2,22,52,0,0
43342,-125,4,2,22,52,0,0
43930,-125,4,2,22,52,0,0
44518,-125,4,2,22,52,0,0
45106,-125,4,2,22,52,0,0
45695,-125,4,2,22,42,0,0
47328,294.117647058824,4,2,22,72,1,0
47475,346.820809248555,4,2,22,72,1,0
47648,250,4,2,22,72,1,0
47773,306.122448979592,4,2,22,72,1,0
47926,294.117647058824,4,2,22,82,1,1
47926,-100,4,2,22,82,0,1
48173,-100,4,2,22,82,0,1
57091,-100,4,2,22,82,0,1
57164,-100,4,2,22,82,0,1
57311,-100,4,2,22,82,0,1
66502,-100,4,2,22,82,0,1
66576,-100,4,2,22,82,0,1
66870,-100,4,2,22,92,0,1
72768,294.117647058824,4,2,22,92,1,1
76297,294.117647058824,4,2,22,72,1,9
76310,294.117647058824,4,2,22,72,1,0
76310,-200,4,2,22,72,0,0
76383,-100,4,2,22,62,0,0
77486,-133.333333333333,4,2,22,62,0,0
78515,-100,4,2,22,62,0,0
85679,-100,4,2,22,52,0,0
86415,-100,4,2,22,5,0,0

[Colours]
Combo1 : 224,214,214
Combo2 : 255,17,17
Combo3 : 135,255,47
Combo4 : 36,244,255

[HitObjects]
46,119,1022,6,0,L|38:40,1,60
112,159,1316,2,0,L|119:94,1,60
193,203,1610,2,0,L|185:133,1,60
259,243,1904,2,0,L|268:178,1,60
71,98,2198,6,0,L|76:18,1,60
129,149,2492,2,0,L|147:86,1,60
201,206,2786,2,0,L|205:135,1,60
259,257,3080,2,0,L|279:194,1,60
96,88,3374,6,0,L|115:11,1,60
145,148,3668,2,0,L|173:89,1,60
206,217,3962,2,0,L|222:148,1,60
254,277,4256,2,0,L|284:218,1,60
124,89,4550,6,0,L|156:16,1,60
161,156,4844,2,0,L|199:103,1,60
209,235,5138,2,0,L|237:170,1,60
246,302,5432,2,0,L|286:250,1,60
146,87,5726,6,0,L|190:21,1,60
170,159,6020,2,0,L|217:113,1,60
204,245,6314,2,0,L|242:186,1,60
229,317,6608,2,0,L|277:272,1,60
165,69,6902,6,0,L|221:12,1,60
177,144,7196,1,0,0:0:0:0:
164,217,7343,1,0,0:0:0:0:
164,217,7407,1,0,0:0:0:0:
164,217,7471,1,0,0:0:0:0:
238,96,7638,1,0,0:0:0:0:
256,263,7763,1,0,0:0:0:0:
177,144,7918,6,0,L|27:130,1,150
238,96,8368,1,0,0:0:0:0:
256,263,8515,1,0,0:0:0:0:
166,71,8662,2,0,P|201:32|300:51,1,150
248,178,9103,2,0,L|157:195,1,75
319,161,9397,5,0,0:0:0:0:
296,230,9544,1,0,0:0:0:0:
270,110,9691,1,0,0:0:0:0:
370,216,9838,1,0,0:0:0:0:
344,96,9985,1,0,0:0:0:0:
248,178,10132,1,0,0:0:0:0:
408,145,10279,6,0,P|418:66|350:18,1,150
248,178,10720,1,0,0:0:0:0:
344,96,10867,1,0,0:0:0:0:
176,135,11014,2,0,L|84:128,1,75
190,62,11308,1,0,0:0:0:0:
248,178,11455,2,0,L|244:262,1,75
176,135,11750,5,0,0:0:0:0:
251,18,11897,1,0,0:0:0:0:
122,87,12044,1,0,0:0:0:0:
190,62,12191,1,0,0:0:0:0:
162,204,12338,2,0,L|148:280,1,75
277,238,12632,6,0,L|259:75,1,150
162,204,13073,1,0,0:0:0:0:
190,62,13220,1,0,0:0:0:0:
210,258,13367,2,0,L|219:350,1,75
162,204,13661,5,0,0:0:0:0:
190,62,13808,2,0,L|279:56,1,75
162,204,14102,5,0,0:0:0:0:
311,179,14250,1,0,0:0:0:0:
200,136,14397,1,0,0:0:0:0:
350,240,14544,1,0,0:0:0:0:
126,135,14691,1,0,0:0:0:0:
280,243,14838,2,0,L|273:332,1,75
157,69,15132,6,0,P|92:66|55:115,2,112.5
89,201,15720,1,0,0:0:0:0:
126,135,15867,1,0,0:0:0:0:
181,255,16014,2,0,L|175:346,1,75
197,124,16308,5,0,0:0:0:0:
89,201,16455,1,0,0:0:0:0:
152,45,16602,2,0,L|239:41,1,75
281,103,16897,5,0,0:0:0:0:
256,180,17044,1,0,0:0:0:0:
330,42,17191,1,0,0:0:0:0:
355,119,17338,1,0,0:0:0:0:
252,31,17485,6,0,L|95:24,1,150
22,13,17926,1,0,0:0:0:0:
169,184,18220,5,0,0:0:0:0:
249,172,18367,2,0,L|398:165,1,150
473,164,18808,1,0,0:0:0:0:
416,89,18955,2,0,L|324:77,1,75
266,58,19250,5,0,0:0:0:0:
358,146,19397,1,0,0:0:0:0:
390,17,19544,1,0,0:0:0:0:
275,132,19691,1,0,0:0:0:0:
275,132,19764,1,0,0:0:0:0:
275,132,19838,6,0,L|267:302,1,150
261,356,20279,1,0,0:0:0:0:
146,52,20573,5,0,0:0:0:0:
152,126,20720,2,0,L|159:275,1,150
164,349,21161,1,0,0:0:0:0:
232,213,21308,2,0,L|242:118,1,75
250,55,21602,5,0,0:0:0:0:
152,126,21750,1,0,0:0:0:0:
303,234,21897,1,0,0:0:0:0:
305,128,22044,1,0,0:0:0:0:
305,128,22117,1,0,0:0:0:0:
305,128,22191,6,0,L|461:118,1,150
437,192,22632,2,0,L|427:270,1,75
370,41,22926,5,0,0:0:0:0:
354,193,23073,2,0,L|369:343,1,150
250,286,23514,1,0,0:0:0:0:
270,174,23661,2,0,L|280:94,1,75
291,16,23955,5,0,0:0:0:0:
340,132,24102,1,0,0:0:0:0:
208,112,24250,1,0,0:0:0:0:
379,65,24397,1,0,0:0:0:0:
379,65,24470,1,0,0:0:0:0:
379,65,24544,6,0,P|409:107|369:200,1,150
271,219,24985,1,0,0:0:0:0:
208,112,25132,2,0,L|221:18,1,75
340,132,25426,1,0,0:0:0:0:
340,132,25720,5,0,0:0:0:0:
232,264,25867,1,0,0:0:0:0:
401,292,26004,1,0,0:0:0:0:
401,292,26298,5,0,0:0:0:0:
232,264,26445,1,0,0:0:0:0:
340,132,26592,1,0,0:0:0:0:
171,104,26739,1,0,0:0:0:0:
306,208,26897,6,0,P|358:213|421:114,1,150
353,46,27338,1,0,0:0:0:0:
225,189,27485,2,0,L|232:269,1,75
373,356,27779,2,0,L|380:276,1,75
274,45,28073,6,0,L|281:125,1,75
423,45,28367,1,0,0:0:0:0:
335,171,28514,2,0,L|328:245,1,75
280,119,28808,1,0,0:0:0:0:
399,220,28955,1,0,0:0:0:0:
248,266,29102,1,0,0:0:0:0:
248,266,29176,1,0,0:0:0:0:
248,266,29249,6,0,L|89:251,1,150
216,162,29691,1,0,0:0:0:0:
284,340,29838,2,0,L|379:332,1,75
290,168,30132,2,0,L|195:160,1,75
327,258,30426,5,0,0:0:0:0:
366,83,30573,1,0,0:0:0:0:
400,206,30720,1,0,0:0:0:0:
318,18,30867,2,0,L|158:6,1,150
239,117,31308,1,0,0:0:0:0:
397,22,31455,1,0,0:0:0:0:
400,206,31602,6,0,L|407:301,1,75
239,117,31897,2,0,L|232:212,1,75
323,74,32191,5,0,0:0:0:0:
400,206,32338,1,0,0:0:0:0:
451,22,32485,2,0,L|456:117,1,75
323,74,32779,5,0,0:0:0:0:
246,206,32926,1,0,0:0:0:0:
195,22,33073,1,0,0:0:0:0:
327,242,33220,2,0,L|315:336,1,75
377,169,33514,1,0,0:0:0:0:
246,206,33661,2,0,L|139:197,1,75
377,169,33955,6,0,L|484:160,1,75
348,63,34249,2,0,L|273:56,1,75
421,14,34544,1,0,0:0:0:0:
453,251,34691,2,0,L|449:339,1,75
429,104,34985,1,0,0:0:0:0:
335,264,35132,2,0,L|339:352,1,75
425,178,35426,2,0,L|428:103,1,75
306,134,35720,5,0,0:0:0:0:
123,198,35867,1,0,0:0:0:0:
274,212,36014,1,0,0:0:0:0:
155,120,36161,1,0,0:0:0:0:
135,270,36308,6,0,P|92:265|49:192,1,120
261,285,36897,2,0,P|304:280|347:207,1,120
264,92,37338,2,0,L|275:226,1,120
396,105,37779,2,0,L|403:27,1,60
216,27,38073,1,0,0:0:0:0:
273,211,38220,1,0,0:0:0:0:
113,16,38514,5,0,0:0:0:0:
113,16,38588,1,0,0:0:0:0:
113,16,38661,2,0,L|106:144,1,120
100,235,39102,1,0,0:0:0:0:
211,117,39249,2,0,L|217:46,1,60
106,135,39544,5,0,0:0:0:0:
286,165,39691,2,0,P|368:173|422:169,1,120
321,74,40132,1,0,0:0:0:0:
323,243,40279,2,0,L|329:318,1,60
211,117,40573,2,0,L|216:47,1,60
151,192,41014,6,0,L|158:300,1,90
160,302,41308,2,0,P|162:332|171:369,1,60
339,259,41602,6,0,L|332:151,1,90
330,149,41896,2,0,P|328:119|319:82,1,60
187,29,42191,6,0,L|182:169,1,120
180,237,42632,1,0,0:0:0:0:
108,86,42779,2,0,P|68:73|-7:84,1,120
300,159,43367,6,0,P|340:146|387:161,1,90
401,171,43661,2,0,L|397:249,1,60
180,237,43955,6,0,P|140:224|93:239,1,90
80,247,44249,1,0,0:0:0:0:
189,323,44397,1,0,0:0:0:0:
222,166,44544,5,0,0:0:0:0:
320,130,44838,5,0,0:0:0:0:
399,162,45132,5,0,0:0:0:0:
422,225,45426,5,0,0:0:0:0:
418,271,45720,5,0,0:0:0:0:
417,278,47328,5,0,0:0:0:0:
417,278,47401,1,0,0:0:0:0:
417,278,47475,1,0,0:0:0:0:
346,200,47648,1,0,0:0:0:0:
357,344,47773,1,0,0:0:0:0:
440,161,47926,6,0,L|430:4,1,150
248,182,48367,6,0,L|255:265,1,75
132,161,48661,2,0,L|141:68,1,75
251,96,48955,1,0,0:0:0:0:
182,227,49102,1,0,0:0:0:0:
330,222,49249,5,0,0:0:0:0:
323,68,49396,1,0,0:0:0:0:
194,152,49543,2,0,L|102:147,1,75
182,227,49837,5,0,0:0:0:0:
251,96,49984,1,0,0:0:0:0:
330,222,50131,1,0,0:0:0:0:
182,227,50278,2,0,L|66:232,1,112.5
36,233,50573,1,0,0:0:0:0:
251,96,50720,6,0,L|241:18,1,75
330,222,51014,2,0,L|320:300,1,75
266,168,51308,1,0,0:0:0:0:
404,186,51455,1,0,0:0:0:0:
320,296,51602,5,0,0:0:0:0:
342,122,51749,1,0,0:0:0:0:
232,316,51896,2,0,L|135:303,1,75
342,122,52190,5,0,0:0:0:0:
320,296,52337,1,0,0:0:0:0:
265,87,52484,1,0,0:0:0:0:
401,329,52631,2,0,B|483:327|483:327|470:291,1,112.5
463,272,52926,1,0,0:0:0:0:
320,296,53073,6,0,L|228:308,1,75
337,198,53367,2,0,L|429:210,1,75
265,87,53661,1,0,0:0:0:0:
236,220,53808,1,0,0:0:0:0:
133,18,53955,6,0,L|120:108,1,75
236,220,54249,2,0,L|223:130,1,75
208,18,54543,5,0,0:0:0:0:
136,197,54690,1,0,0:0:0:0:
265,87,54837,1,0,0:0:0:0:
337,266,54984,2,0,P|338:313|248:346,1,150
136,197,55426,6,0,L|144:299,1,75
121,109,55720,1,0,0:0:0:0:
55,273,55867,1,0,0:0:0:0:
231,248,56014,2,0,L|241:142,1,75
116,28,56308,6,0,P|67:42|43:81,1,75
216,46,56602,1,0,0:0:0:0:
216,46,56749,1,0,0:0:0:0:
42,140,56896,5,0,0:0:0:0:
239,122,57043,1,0,0:0:0:0:
20,23,57190,1,0,0:0:0:0:
256,130,57337,6,0,P|294:133|324:22,1,150
162,200,57778,6,0,L|169:288,1,75
36,214,58073,2,0,L|43:126,1,75
169,119,58367,1,0,0:0:0:0:
98,273,58514,1,0,0:0:0:0:
267,258,58661,6,0,L|261:179,1,75
467,99,58955,2,0,L|461:178,1,75
451,272,59249,5,0,0:0:0:0:
366,67,59396,1,0,0:0:0:0:
341,313,59543,1,0,0:0:0:0:
386,42,59690,2,0,B|265:15|348:74|229:61,1,150
112,47,60131,6,0,L|124:144,1,75
246,246,60426,2,0,L|258:149,1,75
72,206,60720,2,0,L|84:303,1,75
304,316,61014,5,0,0:0:0:0:
174,154,61161,1,0,0:0:0:0:
99,348,61308,2,0,L|192:334,1,75
174,154,61602,5,0,0:0:0:0:
304,316,61749,1,0,0:0:0:0:
322,60,61896,1,0,0:0:0:0:
291,334,62043,2,0,B|390:344|333:288|439:301,1,150
329,134,62484,6,0,L|319:38,1,75
166,152,62778,2,0,L|156:248,1,75
212,332,63073,1,0,0:0:0:0:
254,147,63220,1,0,0:0:0:0:
73,204,63367,6,0,L|61:121,1,75
222,257,63661,2,0,L|210:340,1,75
148,146,63955,1,0,0:0:0:0:
97,326,64102,1,0,0:0:0:0:
254,147,64249,1,0,0:0:0:0:
305,327,64396,2,0,B|415:327|353:294|461:301,1,150
328,155,64837,6,0,L|237:145,1,75
194,258,65131,1,0,0:0:0:0:
379,209,65278,1,0,0:0:0:0:
245,74,65426,2,0,L|256:152,1,75
242,321,65720,6,0,P|140:317|114:257,1,150
245,74,66161,1,0,0:0:0:0:
245,74,66234,1,0,0:0:0:0:
245,74,66308,5,0,0:0:0:0:
277,235,66455,1,0,0:0:0:0:
342,24,66602,5,0,0:0:0:0:
282,229,66749,1,0,0:0:0:0:
442,19,66896,5,0,0:0:0:0:
287,223,67043,1,0,0:0:0:0:
256,32,67190,2,0,L|265:128,1,75
459,245,67484,6,0,L|450:149,1,75
442,19,67778,1,0,0:0:0:0:
361,187,67926,1,0,0:0:0:0:
256,32,68073,5,0,0:0:0:0:
435,96,68220,1,0,0:0:0:0:
215,109,68367,2,0,L|310:104,1,75
394,260,68661,5,0,0:0:0:0:
215,196,68808,1,0,0:0:0:0:
435,183,68955,2,0,L|340:188,1,75
125,201,69249,5,0,0:0:0:0:
271,88,69396,1,0,0:0:0:0:
184,270,69543,1,0,0:0:0:0:
212,19,69690,1,0,0:0:0:0:
243,201,69837,6,0,L|158:190,1,75
26,166,70131,1,0,0:0:0:0:
271,88,70278,1,0,0:0:0:0:
63,72,70426,5,0,0:0:0:0:
168,191,70573,1,0,0:0:0:0:
212,19,70720,1,0,0:0:0:0:
252,275,70867,2,0,L|241:186,1,75
212,19,71161,1,0,0:0:0:0:
158,265,71308,2,0,L|169:175,1,75
212,19,71602,5,0,0:0:0:0:
242,200,71749,1,0,0:0:0:0:
111,71,71896,1,0,0:0:0:0:
293,99,72043,1,0,0:0:0:0:
131,183,72190,6,0,L|223:197,1,75
401,82,72484,2,0,L|326:93,1,75
173,112,72768,5,0,0:0:0:0:
188,294,72915,1,0,0:0:0:0:
255,140,73062,1,0,0:0:0:0:
106,266,73209,1,0,0:0:0:0:
239,55,73356,5,0,0:0:0:0:
270,266,73503,1,0,0:0:0:0:
71,187,73650,2,0,L|175:165,1,75
358,165,73944,5,0,0:0:0:0:
239,55,74091,1,0,0:0:0:0:
270,266,74238,2,0,L|256:161,1,75
70,260,74532,5,0,0:0:0:0:
189,150,74679,1,0,0:0:0:0:
158,361,74826,2,0,L|172:256,1,75
208,0,75120,6,0,L|198:78,1,75
352,327,75415,2,0,L|342:252,1,75
111,179,75709,5,0,0:0:0:0:
332,173,75856,1,0,0:0:0:0:
198,74,76003,1,0,0:0:0:0:
265,227,76150,1,0,0:0:0:0:
307,27,76310,6,0,P|330:106|331:184,1,150
468,149,77486,6,0,P|445:222|445:318,1,168.750006437302
322,178,78074,1,0,0:0:0:0:
373,263,78221,1,0,0:0:0:0:
434,101,78368,1,0,0:0:0:0:
280,263,78515,6,0,L|229:269,1,37.5
87,275,78662,6,0,L|84:180,1,75
81,88,78957,1,0,0:0:0:0:
112,275,79104,6,0,L|109:180,1,75
106,88,79399,1,0,0:0:0:0:
142,199,79545,6,0,L|145:274,1,75
138,88,79839,5,0,0:0:0:0:
147,349,79986,1,0,0:0:0:0:
138,88,80133,5,0,0:0:0:0:
147,348,80280,2,0,L|145:274,1,75
138,88,80574,5,0,0:0:0:0:
145,274,80721,2,0,L|147:348,1,75
425,275,81015,6,0,L|428:180,1,75
431,88,81310,1,0,0:0:0:0:
400,275,81457,6,0,L|403:180,1,75
406,88,81752,1,0,0:0:0:0:
369,199,81898,6,0,L|367:274,1,75
374,88,82192,5,0,0:0:0:0:
365,349,82339,1,0,0:0:0:0:
374,88,82486,5,0,0:0:0:0:
364,348,82633,2,0,L|367:274,1,75
374,88,82927,5,0,0:0:0:0:
367,274,83074,2,0,L|364:348,1,75
256,277,83368,6,0,L|256:198,1,75
256,69,83662,1,0,0:0:0:0:
256,259,83810,6,0,L|256:334,1,75
256,69,84104,1,0,0:0:0:0:
256,277,84251,6,0,L|256:198,1,75
256,69,84545,5,0,0:0:0:0:
256,334,84692,1,0,0:0:0:0:
256,69,84839,5,0,0:0:0:0:
256,334,84986,2,0,L|256:255,1,75
256,69,85280,5,0,0:0:0:0:
256,259,85427,6,0,L|256:334,1,75
256,69,85721,5,0,0:0:0:0:
256,192,85795,12,0,86751,0:0:0:0:
