osu file format v14

[General]
AudioFilename: audio.mp3
AudioLeadIn: 0
PreviewTime: 48294
Countdown: 0
SampleSet: None
StackLeniency: 0.2
Mode: 0
LetterboxInBreaks: 0
WidescreenStoryboard: 0

[Editor]
DistanceSpacing: 1
BeatDivisor: 4
GridSize: 32
TimelineZoom: 2.5

[Metadata]
Title:Black Rover (TV Size)
TitleUnicode:Black Rover (TV Size)
Artist:Vickeblanka
ArtistUnicode:ビッケブランカ
Creator:FayeurS 2
Version:HD2
Source:ブラッククローバー
Tags:clover opening op akitoshi corinn -laura- doormat lami intoon mir nevo snownino_ shunao shogunmoon naotoshi nao_tomori
BeatmapID:1951236
BeatmapSetID:934643

[Difficulty]
HPDrainRate:5.5
CircleSize:4
OverallDifficulty:8
ApproachRate:8
SliderMultiplier:1.5
SliderTickRate:1

[Events]
//Background and Video events
0,0,"BG.jpg",0,0
//Break Periods
//Storyboard Layer 0 (Background)
//Storyboard Layer 1 (Fail)
//Storyboard Layer 2 (Pass)
//Storyboard Layer 3 (Foreground)
//Storyboard Sound Samples

[TimingPoints]
1022,294.117647058824,4,2,22,42,1,0
1022,-125,4,2,22,42,0,0
7333,-100,4,2,22,52,0,0
7344,255.31914893617,4,2,22,62,1,0
7471,335.195530726257,4,2,22,62,1,0
7638,250,4,2,22,62,1,0
7763,294.117647058824,4,2,22,62,1,0
7901,-100,4,2,22,72,0,0
7918,329.67032967033,4,2,22,72,1,0
8082,329.67032967033,4,2,22,72,1,0
8247,294.117647058824,4,2,22,72,1,0
8368,294.117647058824,4,2,22,72,1,0
9250,294.117647058824,4,2,22,72,1,0
17459,-125,4,2,22,52,0,0
26004,294.117647058824,4,2,22,52,1,0
26004,-125,4,2,22,52,0,0
26871,-100,4,2,22,62,0,0
26897,294.117647058824,4,2,22,62,1,0
36283,-142.857142857143,4,2,22,52,0,0
45695,-142.857142857143,4,2,22,42,0,0
47328,294.117647058824,4,2,22,72,1,0
47475,346.820809248555,4,2,22,72,1,0
47648,250,4,2,22,72,1,0
47773,306.122448979592,4,2,22,72,1,0
47926,294.117647058824,4,2,22,82,1,0
47926,-86.9565217391304,4,2,22,82,0,1
48073,294.117647058824,4,2,22,82,1,1
48073,-86.9565217391304,4,2,22,82,0,1
57190,-86.9565217391304,4,2,22,82,0,0
57337,-86.9565217391304,4,2,22,82,0,1
66602,-86.9565217391304,4,2,22,82,0,0
66896,-86.9565217391304,4,2,22,92,0,1
72768,294.117647058824,4,2,22,92,1,1
72768,-86.9565217391304,4,2,22,92,0,1
76297,294.117647058824,4,2,22,92,1,9
76310,294.117647058824,4,2,22,92,1,1
76310,-125,4,2,22,72,0,0
76341,-125,4,2,22,62,0,0
78620,-111.111111111111,4,2,22,62,0,0
85679,-111.111111111111,4,2,22,52,0,0
86415,-111.111111111111,4,2,22,5,0,0

[Colours]
Combo1 : 224,214,214
Combo2 : 255,17,17
Combo3 : 135,255,47
Combo4 : 36,244,255

[HitObjects]
122,209,1022,6,0,L|119:129,1,60
122,209,1316,2,0,L|119:129,1,60
113,144,1610,6,0,L|115:203,1,60
113,144,1904,2,0,L|115:203,1,60
265,140,2198,6,0,L|267:199,1,60
265,140,2492,2,0,L|267:199,1,60
258,191,2786,2,0,L|257:122,1,60
265,140,3080,2,0,L|263:208,1,60
122,209,3374,6,0,L|119:129,1,60
122,209,3668,2,0,L|119:129,1,60
113,144,3962,6,0,L|115:203,1,60
113,144,4256,2,0,L|115:203,1,60
312,202,4551,6,0,L|309:122,1,60
296,136,4845,2,0,L|296:197,1,60
312,202,5139,2,0,L|309:122,1,60
296,136,5433,2,0,L|296:197,1,60
152,192,5727,6,0,L|150:119,1,60
317,142,6022,2,0,L|317:205,1,60
300,195,6316,2,0,L|300:128,1,60
144,137,6610,2,0,L|149:208,1,60
225,92,6904,6,0,L|232:24,1,60
153,139,7198,2,0,L|159:217,1,60
157,198,7407,1,0,0:0:0:0:
157,198,7471,1,0,0:0:0:0:
231,32,7638,1,0,0:0:0:0:
155,139,7763,1,0,0:0:0:0:
295,81,7918,6,0,P|348:87|361:183,1,150
226,225,8368,2,0,L|301:199,1,75
368,166,8662,1,0,0:0:0:0:
294,197,8809,1,0,0:0:0:0:
295,81,8956,1,0,0:0:0:0:
295,81,9250,5,0,0:0:0:0:
294,197,9397,1,0,0:0:0:0:
359,46,9544,1,0,0:0:0:0:
224,239,9691,1,0,0:0:0:0:
295,81,9838,5,0,0:0:0:0:
294,197,9985,1,0,0:0:0:0:
359,46,10132,1,0,0:0:0:0:
295,278,10279,6,0,P|263:307|150:265,1,150
372,274,10720,2,0,L|452:271,1,75
372,274,11014,5,0,0:0:0:0:
446,271,11161,1,0,0:0:0:0:
295,278,11308,1,0,0:0:0:0:
170,191,11602,5,0,0:0:0:0:
310,190,11750,1,0,0:0:0:0:
154,269,11897,1,0,0:0:0:0:
310,190,12044,1,0,0:0:0:0:
165,104,12191,5,0,0:0:0:0:
170,191,12338,1,0,0:0:0:0:
320,115,12485,1,0,0:0:0:0:
309,268,12632,2,0,P|330:309|439:308,1,150
320,115,13073,2,0,L|310:192,1,75
424,319,13367,5,0,0:0:0:0:
320,115,13514,1,0,0:0:0:0:
310,189,13661,2,0,L|320:115,1,75
241,271,13955,5,0,0:0:0:0:
175,100,14102,1,0,0:0:0:0:
161,292,14250,1,0,0:0:0:0:
239,66,14397,1,0,0:0:0:0:
241,271,14544,5,0,0:0:0:0:
161,292,14691,1,0,0:0:0:0:
239,66,14838,1,0,0:0:0:0:
241,271,14985,1,0,0:0:0:0:
175,100,15132,6,0,L|171:220,2,112.5
171,212,15720,5,0,0:0:0:0:
175,100,15867,1,0,0:0:0:0:
171,212,16014,2,0,L|170:292,1,75
175,100,16308,5,0,0:0:0:0:
175,100,16455,1,0,0:0:0:0:
170,287,16602,2,0,L|171:212,1,75
175,100,16897,5,0,0:0:0:0:
171,288,17044,1,0,0:0:0:0:
171,212,17191,1,0,0:0:0:0:
171,288,17338,1,0,0:0:0:0:
175,100,17485,6,0,P|201:68|296:55,1,120
297,186,17926,1,0,0:0:0:0:
352,113,18073,1,0,0:0:0:0:
387,197,18220,1,0,0:0:0:0:
297,186,18367,1,0,0:0:0:0:
85,79,18661,5,0,0:0:0:0:
85,79,18808,1,0,0:0:0:0:
86,237,18955,1,0,0:0:0:0:
83,157,19102,1,0,0:0:0:0:
252,157,19250,5,0,0:0:0:0:
206,78,19397,1,0,0:0:0:0:
161,158,19544,1,0,0:0:0:0:
294,79,19691,5,0,0:0:0:0:
294,79,19764,1,0,0:0:0:0:
294,79,19838,2,0,P|335:73|407:126,1,120
386,254,20426,5,0,0:0:0:0:
386,254,20573,1,0,0:0:0:0:
399,112,20720,1,0,0:0:0:0:
386,254,21014,5,0,0:0:0:0:
386,254,21161,1,0,0:0:0:0:
399,112,21308,2,0,L|392:178,1,60
386,254,21602,5,0,0:0:0:0:
316,205,21750,1,0,0:0:0:0:
309,291,21897,1,0,0:0:0:0:
392,171,22044,5,0,0:0:0:0:
392,171,22117,1,0,0:0:0:0:
392,171,22191,2,0,P|397:127|368:52,1,120
282,38,22632,1,0,0:0:0:0:
274,163,22779,1,0,0:0:0:0:
274,163,22926,1,0,0:0:0:0:
210,8,23073,1,0,0:0:0:0:
210,8,23367,5,0,0:0:0:0:
282,38,23514,1,0,0:0:0:0:
274,163,23661,1,0,0:0:0:0:
274,163,23955,5,0,0:0:0:0:
282,38,24102,1,0,0:0:0:0:
210,8,24249,1,0,0:0:0:0:
199,136,24397,5,0,0:0:0:0:
199,136,24470,1,0,0:0:0:0:
199,136,24544,2,0,P|193:182|252:247,1,120
329,244,24985,5,0,0:0:0:0:
391,178,25132,1,0,0:0:0:0:
303,158,25279,1,0,0:0:0:0:
391,178,25426,1,0,0:0:0:0:
329,244,25720,5,0,0:0:0:0:
277,73,25867,1,0,0:0:0:0:
451,113,26004,1,0,0:0:0:0:
329,244,26298,5,0,0:0:0:0:
451,113,26445,1,0,0:0:0:0:
329,244,26592,1,0,0:0:0:0:
277,73,26739,1,0,0:0:0:0:
451,113,26886,6,0,L|446:197,1,75
446,187,27191,2,0,L|451:113,1,75
296,162,27485,5,0,0:0:0:0:
451,112,27632,1,0,0:0:0:0:
416,271,27779,2,0,L|412:347,1,75
451,112,28073,5,0,0:0:0:0:
412,345,28220,1,0,0:0:0:0:
451,112,28367,1,0,0:0:0:0:
416,271,28514,2,0,L|320:263,1,75
451,112,28808,5,0,0:0:0:0:
341,264,28955,1,0,0:0:0:0:
451,112,29102,1,0,0:0:0:0:
265,93,29249,2,0,L|180:100,1,75
316,172,29544,2,0,L|400:181,1,75
265,93,29838,5,0,0:0:0:0:
390,179,29985,1,0,0:0:0:0:
190,99,30132,2,0,L|107:104,1,75
316,172,30426,5,0,0:0:0:0:
265,93,30573,1,0,0:0:0:0:
115,103,30720,1,0,0:0:0:0:
390,179,30867,2,0,L|479:184,1,75
464,183,31161,1,0,0:0:0:0:
341,72,31308,5,0,0:0:0:0:
390,252,31455,1,0,0:0:0:0:
209,204,31602,2,0,L|294:226,1,75
185,125,31897,2,0,L|112:143,1,75
281,222,32191,5,0,0:0:0:0:
113,144,32338,1,0,0:0:0:0:
130,329,32485,2,0,L|122:244,1,75
281,222,32779,5,0,0:0:0:0:
130,328,32926,1,0,0:0:0:0:
113,144,33073,1,0,0:0:0:0:
122,254,33220,2,0,L|211:238,1,75
113,144,33514,1,0,0:0:0:0:
281,222,33661,1,0,0:0:0:0:
122,254,33808,1,0,0:0:0:0:
297,54,33955,6,0,L|199:42,1,75
375,104,34249,2,0,L|296:128,1,75
374,22,34544,1,0,0:0:0:0:
222,44,34691,2,0,L|297:54,1,75
374,22,34985,5,0,0:0:0:0:
222,44,35132,2,0,L|297:54,1,75
303,125,35426,2,0,L|375:104,1,75
222,44,35720,5,0,0:0:0:0:
375,104,35867,1,0,0:0:0:0:
303,125,36014,1,0,0:0:0:0:
297,54,36161,1,0,0:0:0:0:
308,194,36308,6,0,L|312:257,1,52.4999983978272
308,194,36602,2,0,L|312:257,1,52.4999983978272
308,194,36897,2,0,L|312:257,1,52.4999983978272
308,194,37191,2,0,L|312:257,1,52.4999983978272
203,155,37485,6,0,L|199:218,1,52.4999983978272
203,155,37779,2,0,L|199:218,1,52.4999983978272
203,155,38074,2,0,L|199:218,1,52.4999983978272
203,155,38368,2,0,L|199:218,1,52.4999983978272
91,114,38661,6,0,L|84:56,1,52.4999983978272
91,114,38955,2,0,L|84:56,1,52.4999983978272
91,114,39249,2,0,L|84:56,1,52.4999983978272
84,61,39543,2,0,L|91:114,1,52.4999983978272
102,255,39838,6,0,L|108:202,1,52.4999983978272
109,202,40132,2,0,L|102:254,1,52.4999983978272
109,202,40426,2,0,L|102:254,1,52.4999983978272
109,202,40720,2,0,L|102:254,1,52.4999983978272
210,149,41014,6,0,L|268:142,1,52.4999983978272
270,151,41308,2,0,L|211:163,1,52.4999983978272
210,149,41602,2,0,L|268:142,1,52.4999983978272
270,151,41896,2,0,L|211:163,1,52.4999983978272
193,250,42191,6,0,L|135:243,1,52.4999983978272
133,252,42485,2,0,L|192:264,1,52.4999983978272
193,250,42779,2,0,L|135:243,1,52.4999983978272
133,252,43073,2,0,L|192:264,1,52.4999983978272
94,135,43367,6,0,L|90:67,1,52.4999983978272
111,77,43661,2,0,L|114:138,1,52.4999983978272
94,135,43955,2,0,L|90:67,1,52.4999983978272
111,77,44249,2,0,L|114:138,1,52.4999983978272
279,169,44544,5,0,0:0:0:0:
262,111,44838,5,0,0:0:0:0:
279,169,45132,5,0,0:0:0:0:
262,111,45426,5,0,0:0:0:0:
198,309,45720,5,0,0:0:0:0:
222,329,47328,5,0,0:0:0:0:
222,329,47401,1,0,0:0:0:0:
222,329,47475,1,0,0:0:0:0:
187,151,47648,1,0,0:0:0:0:
262,93,47773,1,0,0:0:0:0:
222,329,47926,2,0,P|159:324|150:228,1,172.500003290176
262,93,48367,6,0,L|267:192,1,86.2500016450882
255,13,48661,1,0,0:0:0:0:
187,151,48808,1,0,0:0:0:0:
341,14,48955,2,0,L|349:126,1,86.2500016450882
255,13,49249,5,0,0:0:0:0:
261,200,49396,1,0,0:0:0:0:
187,151,49543,2,0,L|91:145,1,86.2500016450882
255,13,49837,5,0,0:0:0:0:
187,151,49984,1,0,0:0:0:0:
261,200,50131,1,0,0:0:0:0:
186,72,50278,2,0,P|134:89|121:195,1,172.500003290176
261,200,50720,5,0,0:0:0:0:
187,151,50867,1,0,0:0:0:0:
327,250,51014,2,0,L|335:340,1,86.2500016450882
261,200,51308,5,0,0:0:0:0:
187,151,51455,1,0,0:0:0:0:
117,100,51602,2,0,L|106:202,1,86.2500016450882
97,270,51896,2,0,L|107:185,1,86.2500016450882
117,100,52190,5,0,0:0:0:0:
107,185,52337,1,0,0:0:0:0:
117,100,52484,1,0,0:0:0:0:
97,270,52631,2,0,L|286:261,1,172.500003290176
107,185,53073,5,0,0:0:0:0:
117,100,53220,1,0,0:0:0:0:
196,69,53367,2,0,L|294:64,1,86.2500016450882
107,185,53661,2,0,L|111:288,1,86.2500016450882
196,69,53955,5,0,0:0:0:0:
107,185,54102,1,0,0:0:0:0:
117,100,54249,2,0,L|111:10,1,86.2500016450882
196,69,54543,5,0,0:0:0:0:
111,13,54690,1,0,0:0:0:0:
107,185,54837,1,0,0:0:0:0:
117,100,54984,2,0,L|12:92,1,86.2500016450882
111,13,55278,1,0,0:0:0:0:
190,164,55425,2,0,L|295:156,1,86.2500016450882
358,148,55720,5,0,0:0:0:0:
288,74,55867,1,0,0:0:0:0:
285,243,56014,2,0,L|275:155,1,86.2500016450882
288,74,56308,5,0,0:0:0:0:
358,148,56455,1,0,0:0:0:0:
190,164,56602,2,0,L|183:268,1,86.2500016450882
288,74,56896,5,0,0:0:0:0:
358,148,57043,1,0,0:0:0:0:
288,74,57190,1,0,0:0:0:0:
214,6,57337,2,0,L|114:13,1,86.2500016450882
288,74,57631,1,0,0:0:0:0:
358,148,57778,6,0,L|350:255,1,86.2500016450882
288,74,58073,1,0,0:0:0:0:
351,234,58220,1,0,0:0:0:0:
358,148,58367,2,0,L|350:255,1,86.2500016450882
133,247,58661,6,0,L|129:147,1,86.2500016450882
133,247,58955,2,0,L|129:147,1,86.2500016450882
135,329,59249,1,0,0:0:0:0:
129,160,59396,1,0,0:0:0:0:
121,354,59543,1,0,0:0:0:0:
129,160,59690,2,0,L|133:247,1,86.2500016450882
135,329,59984,5,0,0:0:0:0:
121,354,60131,2,0,L|233:350,1,86.2500016450882
121,354,60425,2,0,L|233:350,1,86.2500016450882
207,350,60720,2,0,L|121:354,1,86.2500016450882
135,329,61014,5,0,0:0:0:0:
120,354,61161,1,0,0:0:0:0:
207,350,61308,2,0,L|121:354,1,86.2500016450882
135,329,61602,5,0,0:0:0:0:
207,350,61749,1,0,0:0:0:0:
120,354,61896,1,0,0:0:0:0:
207,350,62043,2,0,L|391:343,1,172.500003290176
387,238,62484,5,0,0:0:0:0:
305,244,62631,1,0,0:0:0:0:
222,249,62778,2,0,L|121:254,1,86.2500016450882
305,244,63073,1,0,0:0:0:0:
222,249,63220,1,0,0:0:0:0:
135,253,63367,2,0,L|222:249,1,86.2500016450882
305,244,63661,2,0,L|218:248,1,86.2500016450882
135,253,63955,5,0,0:0:0:0:
305,244,64102,1,0,0:0:0:0:
135,253,64249,1,0,0:0:0:0:
218,248,64396,2,0,L|205:60,1,172.500003290176
101,67,64837,5,0,0:0:0:0:
113,162,64984,1,0,0:0:0:0:
101,67,65131,1,0,0:0:0:0:
113,162,65278,1,0,0:0:0:0:
101,67,65425,1,0,0:0:0:0:
113,162,65573,1,0,0:0:0:0:
124,260,65720,6,0,L|311:248,1,172.500003290176
113,162,66161,1,0,0:0:0:0:
124,260,66308,2,0,L|311:248,1,172.500003290176
251,251,66749,2,0,L|326:247,1,43.1250008225441
399,268,66896,5,0,0:0:0:0:
359,104,67043,1,0,0:0:0:0:
306,334,67190,2,0,L|294:234,1,86.2500016450882
359,104,67484,6,0,L|353:204,1,86.2500016450882
306,334,67778,1,0,0:0:0:0:
295,248,67925,1,0,0:0:0:0:
481,319,68073,5,0,0:0:0:0:
306,334,68220,1,0,0:0:0:0:
380,239,68367,2,0,L|280:249,1,86.2500016450882
218,325,68661,5,0,0:0:0:0:
393,340,68808,1,0,0:0:0:0:
294,247,68955,2,0,L|380:239,1,86.2500016450882
465,230,69249,6,0,L|352:241,1,86.2500016450882
207,252,69543,1,0,0:0:0:0:
393,340,69690,1,0,0:0:0:0:
374,58,69837,6,0,L|380:159,1,86.2500016450882
393,340,70131,1,0,0:0:0:0:
379,144,70278,1,0,0:0:0:0:
207,252,70425,5,0,0:0:0:0:
293,246,70573,1,0,0:0:0:0:
379,240,70720,1,0,0:0:0:0:
465,235,70867,1,0,0:0:0:0:
379,240,71014,5,0,0:0:0:0:
207,252,71161,1,0,0:0:0:0:
465,235,71308,1,0,0:0:0:0:
293,246,71455,1,0,0:0:0:0:
465,235,71602,6,0,L|378:240,1,86.2500016450882
120,257,71896,2,0,L|206:251,1,86.2500016450882
378,240,72190,5,0,0:0:0:0:
206,251,72337,1,0,0:0:0:0:
293,246,72484,1,0,0:0:0:0:
378,240,72631,1,0,0:0:0:0:
206,251,72768,5,0,0:0:0:0:
465,235,72915,1,0,0:0:0:0:
200,164,73062,2,0,L|205:250,1,86.2500016450882
372,152,73356,6,0,L|286:158,1,86.2500016450882
378,240,73650,1,0,0:0:0:0:
286,158,73797,1,0,0:0:0:0:
293,246,73944,5,0,0:0:0:0:
372,152,74091,1,0,0:0:0:0:
378,240,74238,1,0,0:0:0:0:
200,164,74385,1,0,0:0:0:0:
286,158,74532,5,0,0:0:0:0:
205,250,74679,1,0,0:0:0:0:
378,240,74826,1,0,0:0:0:0:
458,146,74973,1,0,0:0:0:0:
372,152,75120,5,0,0:0:0:0:
286,158,75268,1,0,0:0:0:0:
200,164,75415,1,0,0:0:0:0:
378,240,75562,1,0,0:0:0:0:
286,158,75709,5,0,0:0:0:0:
205,250,75856,1,0,0:0:0:0:
372,152,76003,1,0,0:0:0:0:
286,158,76150,1,0,0:0:0:0:
200,164,76297,5,0,0:0:0:0:
0,384,77486,5,0,0:0:0:0:
160,209,78662,6,0,L|155:139,1,67.4999979400635
167,293,78957,1,0,0:0:0:0:
155,141,79104,2,0,L|160:209,1,67.4999979400635
148,56,79398,1,0,0:0:0:0:
160,209,79545,2,0,L|155:139,1,67.4999979400635
148,56,79839,5,0,0:0:0:0:
155,141,79986,1,0,0:0:0:0:
160,209,80133,1,0,0:0:0:0:
148,56,80280,2,0,L|154:144,1,67.4999979400635
160,209,80574,1,0,0:0:0:0:
152,123,80721,2,0,L|148:56,1,67.4999979400635
159,208,81015,6,0,L|164:276,1,67.4999979400635
152,123,81310,1,0,0:0:0:0:
156,190,81457,2,0,L|152:123,1,67.4999979400635
159,208,81751,1,0,0:0:0:0:
147,55,81898,2,0,L|152:123,1,67.4999979400635
159,208,82192,5,0,0:0:0:0:
156,190,82339,1,0,0:0:0:0:
159,208,82486,1,0,0:0:0:0:
152,123,82633,2,0,L|156:190,1,67.4999979400635
159,208,82927,1,0,0:0:0:0:
151,122,83074,2,0,L|147:55,1,67.4999979400635
161,257,83368,6,0,L|156:189,1,67.4999979400635
151,122,83662,1,0,0:0:0:0:
165,324,83810,2,0,L|160:256,1,67.4999979400635
156,189,84104,1,0,0:0:0:0:
151,121,84251,2,0,L|156:189,1,67.4999979400635
147,55,84545,5,0,0:0:0:0:
160,256,84692,1,0,0:0:0:0:
147,55,84839,1,0,0:0:0:0:
164,323,84986,2,0,L|159:255,1,67.4999979400635
151,121,85280,1,0,0:0:0:0:
154,188,85427,2,0,L|158:255,1,67.4999979400635
512,0,85721,5,0,0:0:0:0:
256,192,85795,12,0,86751,0:0:0:0:
