osu file format v14

[General]
AudioFilename: audio.mp3
AudioLeadIn: 0
PreviewTime: 45647
Countdown: 0
SampleSet: Soft
StackLeniency: 0.7
Mode: 0
LetterboxInBreaks: 0
WidescreenStoryboard: 1

[Editor]
Bookmarks: 1022,7344,17485,26004,26897,36308,45720,47926,57338,66897,76310,85721
DistanceSpacing: 1
BeatDivisor: 4
GridSize: 4
TimelineZoom: 1

[Metadata]
Title:Black Rover (TV Size)
TitleUnicode:Black Rover (TV Size)
Artist:Vickeblanka
ArtistUnicode:ビッケブランカ
Creator:Dashyy-
Version:Normal
Source:ブラッククローバー
Tags:anime op opening clover hypercyte
BeatmapID:1678056
BeatmapSetID:798677

[Difficulty]
HPDrainRate:4
CircleSize:3
OverallDifficulty:4
ApproachRate:5
SliderMultiplier:0.999999999999999
SliderTickRate:1

[Events]
//Background and Video events
0,0,"VFb5jp1.jpg",0,0
//Break Periods
2,36508,44520
//Storyboard Layer 0 (Background)
//Storyboard Layer 1 (Fail)
//Storyboard Layer 2 (Pass)
//Storyboard Layer 3 (Foreground)
//Storyboard Sound Samples

[TimingPoints]
7344,255.31914893617,4,2,1,70,1,0
7471,335.195530726257,4,2,1,70,1,0
7546,-100,4,2,1,5,0,0
7638,250,4,2,1,70,1,0
7692,-100,4,2,1,5,0,0
7763,294.117647058824,4,2,1,70,1,0
7836,-100,4,2,1,5,0,0
7918,329.67032967033,4,2,1,70,1,0
8082,329.67032967033,4,2,1,70,1,0
8165,-100,4,2,1,5,0,0
8247,294.117647058824,4,2,1,70,1,0
8368,294.117647058824,4,2,1,70,1,0
9250,294.117647058824,4,2,1,70,1,0
9911,-100,4,2,1,5,0,0
9985,-100,4,2,1,70,0,0
10058,-100,4,2,1,5,0,0
10132,-100,4,2,1,70,0,0
10500,-100,4,2,1,5,0,0
10573,-100,4,2,1,70,0,0
11382,-100,4,2,1,5,0,0
11455,-100,4,2,1,70,0,0
11529,-100,4,2,1,5,0,0
11602,-100,4,2,1,70,0,0
12264,-100,4,2,1,5,0,0
12338,-100,4,2,1,70,0,0
12411,-100,4,2,1,5,0,0
12485,-100,4,2,1,70,0,0
12852,-100,4,2,1,5,0,0
12926,-100,4,2,1,70,0,0
13588,-100,4,2,1,5,0,0
13661,-100,4,2,1,70,0,0
13735,-100,4,2,1,5,0,0
13808,-100,4,2,1,70,0,0
13882,-100,4,2,1,5,0,0
13955,-100,4,2,1,70,0,0
16235,-100,4,2,1,5,0,0
16308,-100,4,2,1,70,0,0
17485,-100,4,2,1,50,0,0
17705,-100,4,2,1,5,0,0
17779,-100,4,2,1,50,0,0
20058,-100,4,2,1,5,0,0
20132,-100,4,2,1,50,0,0
22411,-100,4,2,1,5,0,0
22485,-100,4,2,1,50,0,0
24764,-100,4,2,1,5,0,0
24838,-100,4,2,1,50,0,0
26004,294.117647058824,4,2,1,50,1,0
26897,294.117647058824,4,2,1,70,1,0
26897,-100,4,2,1,70,0,0
27117,-100,4,2,1,5,0,0
27191,-100,4,2,1,70,0,0
27999,-100,4,2,1,5,0,0
28073,-100,4,2,1,70,0,0
29470,-100,4,2,1,5,0,0
29544,-100,4,2,1,70,0,0
30352,-100,4,2,1,5,0,0
30426,-100,4,2,1,70,0,0
31823,-100,4,2,1,5,0,0
31897,-100,4,2,1,70,0,0
32705,-100,4,2,1,5,0,0
32779,-100,4,2,1,70,0,0
34176,-100,4,2,1,5,0,0
34249,-100,4,2,1,70,0,0
36308,-100,4,2,1,70,0,0
47328,294.117647058824,4,2,1,70,1,0
47338,-86.2068965517241,4,2,1,70,0,0
47475,346.820809248555,4,2,1,70,1,0
47475,-86.2068965517241,4,2,1,70,0,0
47558,-100,4,2,1,5,0,0
47632,-100,4,2,1,70,0,0
47648,250,4,2,1,70,1,0
47705,-100,4,2,1,5,0,0
47773,306.122448979592,4,2,1,70,1,0
47779,-100,4,2,1,70,0,0
47852,-100,4,2,1,5,0,0
47926,-96.1538461538461,4,2,1,70,0,0
48073,294.117647058824,4,2,1,80,1,0
48147,-100,4,2,1,5,0,0
48220,-100,4,2,1,75,0,0
48882,-100,4,2,1,5,0,0
48955,-100,4,2,1,75,0,0
50499,-100,4,2,1,5,0,0
50573,-100,4,2,1,75,0,0
51235,-100,4,2,1,5,0,0
51308,-100,4,2,1,75,0,0
51602,-100,4,2,1,75,0,0
52191,-100,4,2,1,75,0,0
52632,-100,4,2,1,75,0,0
52852,-100,4,2,1,5,0,0
52926,-100,4,2,1,75,0,0
53588,-100,4,2,1,5,0,0
53661,-100,4,2,1,75,0,0
55205,-100,4,2,1,5,0,0
55279,-100,4,2,1,75,0,0
56308,-100,4,2,1,75,0,0
56529,-100,4,2,1,5,0,0
56602,-100,4,2,1,75,0,0
56897,-100,4,2,1,75,0,0
57117,-100,4,2,1,5,0,0
57191,-100,4,2,1,75,0,0
57264,-100,4,2,1,5,0,0
57338,-100,4,2,1,75,0,0
57558,-100,4,2,1,5,0,0
57632,-100,4,2,1,75,0,0
58294,-100,4,2,1,5,0,0
58367,-100,4,2,1,75,0,0
59911,-100,4,2,1,5,0,0
59985,-100,4,2,1,75,0,0
60647,-100,4,2,1,5,0,0
60720,-100,4,2,1,75,0,0
61014,-100,4,2,1,75,0,0
61602,-100,4,2,1,75,0,0
62044,-100,4,2,1,75,0,0
62264,-100,4,2,1,5,0,0
62338,-100,4,2,1,75,0,0
62999,-100,4,2,1,5,0,0
63073,-100,4,2,1,75,0,0
64617,-100,4,2,1,5,0,0
64691,-100,4,2,1,75,0,0
65425,-100,4,2,1,55,0,0
65720,-100,4,2,1,75,0,0
65941,-100,4,2,1,5,0,0
66014,-100,4,2,1,75,0,0
66382,-100,4,2,1,5,0,0
66455,-100,4,2,1,75,0,0
66896,-100,4,2,1,80,0,1
72768,294.117647058824,4,2,1,80,1,1
72768,-100,4,2,1,80,0,1
76310,294.117647058824,4,2,1,70,1,0
76310,-100,4,2,1,70,0,0
78662,-100,4,2,1,70,0,0
78883,-100,4,2,1,5,0,0
78957,-100,4,2,1,70,0,0
79765,-100,4,2,1,5,0,0
79839,-100,4,2,1,70,0,0
81236,-100,4,2,1,5,0,0
81310,-100,4,2,1,70,0,0
82118,-100,4,2,1,5,0,0
82192,-100,4,2,1,70,0,0
83589,-100,4,2,1,5,0,0
83662,-100,4,2,1,70,0,0
84471,-100,4,2,1,5,0,0
84545,-100,4,2,1,70,0,0
85721,-100,4,2,1,70,0,0
86604,-100,4,2,1,5,0,0

[Colours]
Combo1 : 199,224,150
Combo2 : 253,219,100
Combo3 : 128,64,0

[HitObjects]
156,107,7918,6,0,P|206:113|266:85,1,99.9999999999999,4|2,0:0|0:0,0:0:0:0:
298,66,8368,1,8,0:0:0:0:
384,116,8662,1,2,0:0:0:0:
313,186,8956,2,0,P|334:227|346:290,1,99.9999999999999,8|2,0:0|0:0,0:0:0:0:
262,334,9544,2,0,L|266:385,2,50,10|0|2,0:0|0:0|0:0,0:0:0:0:
258,284,9985,1,2,0:0:0:0:
164,313,10279,6,0,P|123:298|57:289,1,99.9999999999999,2|2,0:0|0:0,0:0:0:0:
18,280,10720,1,8,0:0:0:0:
53,186,11014,1,2,0:0:0:0:
8,96,11308,2,0,P|51:78|117:71,1,99.9999999999999,8|2,0:0|0:0,0:0:0:0:
175,140,11897,2,0,L|285:132,1,99.9999999999999,8|2,0:0|0:0,0:0:0:0:
324,129,12338,1,2,0:0:0:0:
268,211,12632,6,0,P|285:259|294:320,1,99.9999999999999,6|2,0:0|0:0,0:0:0:0:
267,350,13073,1,8,0:0:0:0:
365,384,13367,1,2,0:0:0:0:
462,362,13661,2,0,P|448:314|446:262,1,99.9999999999999,8|2,0:0|0:0,0:0:0:0:
349,236,14250,2,0,P|369:191|378:138,1,99.9999999999999,8|2,0:0|0:0,0:0:0:0:
461,87,14838,1,8,0:0:0:0:
401,6,15132,6,0,P|443:1|497:-2,2,74.9999999999999,2|0|0,0:0|0:0|0:0,0:0:0:0:
354,23,15720,2,0,P|298:8|250:10,1,99.9999999999999,2|8,0:0|0:0,0:0:0:0:
164,48,16308,2,0,P|182:107|185:166,1,99.9999999999999,2|8,0:0|0:0,0:0:0:0:
143,222,16897,2,0,P|129:282|132:329,1,99.9999999999999,8|2,0:0|0:0,0:0:0:0:
213,376,17485,5,6,0:0:0:0:
283,305,17779,2,0,L|496:297,1,200,8|8,0:0|0:0,0:0:0:0:
439,103,18955,2,0,L|226:95,1,200,8|8,0:0|0:0,0:0:0:0:
167,165,19838,5,2,0:0:0:0:
76,123,20132,2,0,L|56:337,1,200,8|8,0:0|0:0,0:0:0:0:
253,361,21308,2,0,L|233:147,1,200,8|8,0:0|0:0,0:0:0:0:
226,61,22191,5,2,0:0:0:0:
313,109,22485,2,0,L|518:94,1,200,8|8,0:0|0:0,0:0:0:0:
426,275,23661,2,0,L|216:256,1,200,8|8,0:0|0:0,0:0:0:0:
137,303,24544,5,2,0:0:0:0:
46,261,24838,2,0,L|30:56,1,200,8|12,0:0|0:0,0:0:0:0:
221,16,26004,1,12,0:0:0:0:
250,111,26298,2,0,L|356:117,1,99.9999999999999,8|8,0:0|0:0,0:0:0:0:
453,107,26897,5,6,0:0:0:0:
413,198,27191,1,8,0:0:0:0:
450,290,27485,2,0,P|406:309|336:309,1,99.9999999999999,2|8,0:0|0:0,0:0:0:0:
264,268,28073,2,0,P|204:259|157:260,1,99.9999999999999,2|8,0:0|0:0,0:0:0:0:
122,285,28514,2,0,P|133:235|124:167,1,99.9999999999999,0|2,0:0|0:0,0:0:0:0:
101,145,28955,1,8,0:0:0:0:
43,63,29249,5,6,0:0:0:0:
134,21,29544,1,8,0:0:0:0:
194,100,29838,2,0,L|294:106,1,99.9999999999999,2|8,0:0|0:0,0:0:0:0:
334,197,30426,2,0,L|234:203,1,99.9999999999999,2|8,0:0|0:0,0:0:0:0:
187,221,30867,2,0,P|205:255|213:325,1,99.9999999999999,0|2,0:0|0:0,0:0:0:0:
204,364,31308,1,8,0:0:0:0:
302,383,31602,5,6,0:0:0:0:
343,291,31897,1,8,0:0:0:0:
412,360,32191,2,0,L|528:368,1,99.9999999999999,2|8,0:0|0:0,0:0:0:0:
501,267,32779,2,0,P|480:217|473:170,1,99.9999999999999,2|8,0:0|0:0,0:0:0:0:
425,158,33220,2,0,P|442:112|449:56,1,99.9999999999999,0|2,0:0|0:0,0:0:0:0:
412,26,33661,1,8,0:0:0:0:
312,32,33955,6,0,P|261:50|205:49,1,99.9999999999999,6|8,0:0|0:0,0:0:0:0:
160,134,34544,2,0,L|56:133,1,99.9999999999999,8|2,0:0|0:0,0:0:0:0:
6,156,34985,2,0,P|25:204|42:320,1,150,8|8,0:0|0:0,0:0:0:0:
134,337,35720,5,2,0:0:0:0:
203,264,36014,1,2,0:0:0:0:
293,306,36308,1,12,0:0:0:0:
87,136,45720,5,4,0:0:0:0:
87,136,47475,2,0,P|126:117|188:114,1,99.9999999999999,8|8,0:0|0:0,0:0:0:0:
225,136,47926,6,0,L|336:132,1,99.9999999999999,6|2,0:0|0:0,0:0:0:0:
374,127,48367,1,8,0:0:0:0:
337,220,48661,2,0,P|331:264|354:326,1,99.9999999999999,2|8,0:0|0:0,0:0:0:0:
266,375,49249,1,2,0:0:0:0:
190,308,49544,1,8,0:0:0:0:
90,316,49838,2,0,L|83:216,1,99.9999999999999,2|8,0:0|0:0,0:0:0:0:
98,168,50279,6,0,P|114:121|118:56,1,99.9999999999999,6|2,0:0|0:0,0:0:0:0:
101,24,50720,1,8,0:0:0:0:
199,5,51014,2,0,L|309:7,1,99.9999999999999,2|8,0:0|0:0,0:0:0:0:
366,80,51602,2,0,L|469:85,2,99.9999999999999,2|8|2,0:0|0:0|0:0,0:0:0:0:
335,175,52485,1,8,0:0:0:0:
335,175,52632,6,0,P|302:218|287:270,1,99.9999999999999,6|2,0:0|0:0,0:0:0:0:
253,312,53073,1,8,0:0:0:0:
164,265,53367,2,0,L|159:161,1,99.9999999999999,2|8,0:0|0:0,0:0:0:0:
247,118,53955,1,2,0:0:0:0:
328,175,54249,1,8,0:0:0:0:
420,135,54544,2,0,P|434:88|432:30,1,99.9999999999999,2|8,0:0|0:0,0:0:0:0:
391,10,54985,6,0,P|341:29|277:28,1,99.9999999999999,6|2,0:0|0:0,0:0:0:0:
244,29,55426,1,8,0:0:0:0:
146,52,55720,2,0,L|86:45,2,50,2|2|8,0:0|0:0|0:0,0:0:0:0:
237,91,56308,2,0,P|266:174|268:202,1,99.9999999999999,2|8,0:0|0:0,0:0:0:0:
193,253,56896,2,0,P|181:300|177:359,1,99.9999999999999,2|8,0:0|0:0,0:0:0:0:
131,372,57338,6,0,P|114:318|86:266,1,99.9999999999999,4|2,0:0|0:0,0:0:0:0:
47,267,57779,1,8,0:0:0:0:
97,180,58073,2,0,L|103:79,1,99.9999999999999,2|8,0:0|0:0,0:0:0:0:
185,22,58661,1,2,0:0:0:0:
281,49,58955,1,8,0:0:0:0:
379,31,59249,2,0,P|402:74|414:140,1,99.9999999999999,2|8,0:0|0:0,0:0:0:0:
399,172,59691,6,0,P|384:211|381:273,1,99.9999999999999,6|0,0:0|0:0,0:0:0:0:
415,308,60132,1,8,0:0:0:0:
330,361,60426,2,0,L|218:351,1,99.9999999999999,2|8,0:0|0:0,0:0:0:0:
132,329,61014,2,0,L|26:331,2,99.9999999999999,2|8|2,0:0|0:0|0:0,0:0:0:0:
203,258,61897,1,8,0:0:0:0:
203,258,62044,6,0,P|183:213|179:143,1,99.9999999999999,6|2,0:0|0:0,0:0:0:0:
185,113,62485,1,8,0:0:0:0:
281,139,62779,2,0,L|381:144,1,99.9999999999999,2|8,0:0|0:0,0:0:0:0:
480,136,63367,1,2,0:0:0:0:
447,41,63661,1,8,0:0:0:0:
347,50,63955,2,0,P|305:46|232:22,1,99.9999999999999,2|8,0:0|0:0,0:0:0:0:
200,41,64397,6,0,P|146:47|96:68,1,99.9999999999999,6|0,0:0|0:0,0:0:0:0:
64,94,64838,1,8,0:0:0:0:
111,181,65132,1,2,0:0:0:0:
58,266,65426,1,2,0:0:0:0:
124,340,65720,2,0,P|181:318|241:308,1,99.9999999999999,2|8,0:0|0:0,0:0:0:0:
316,330,66308,2,0,P|372:333|431:322,1,99.9999999999999,2|2,0:0|0:0,0:0:0:0:
467,240,66897,6,0,L|458:135,1,99.9999999999999,12|8,0:0|0:0,0:0:0:0:
441,41,67485,2,0,L|329:50,1,99.9999999999999,8|8,0:0|0:0,0:0:0:0:
241,59,68073,1,8,0:0:0:0:
141,70,68367,1,8,0:0:0:0:
41,80,68661,2,0,L|54:196,1,99.9999999999999,8|8,0:0|0:0,0:0:0:0:
110,260,69249,6,0,L|119:365,1,99.9999999999999,12|8,0:0|0:0,0:0:0:0:
216,378,69837,2,0,L|328:369,1,99.9999999999999,8|8,0:0|0:0,0:0:0:0:
414,358,70425,1,8,0:0:0:0:
401,258,70719,1,8,0:0:0:0:
386,159,71013,2,0,L|373:43,1,99.9999999999999,8|8,0:0|0:0,0:0:0:0:
277,36,71602,6,0,L|267:141,1,99.9999999999999,12|8,0:0|0:0,0:0:0:0:
267,235,72191,2,0,L|257:340,1,99.9999999999999,8|8,0:0|0:0,0:0:0:0:
164,309,72768,2,0,L|154:204,1,99.9999999999999,8|8,0:0|0:0,0:0:0:0:
146,109,73357,2,0,L|136:4,1,99.9999999999999,8|8,0:0|0:0,0:0:0:0:
235,38,73944,6,0,L|340:48,1,99.9999999999999,12|8,0:0|0:0,0:0:0:0:
409,113,74533,2,0,L|514:123,1,99.9999999999999,8|8,0:0|0:0,0:0:0:0:
474,216,75120,2,0,L|369:226,1,99.9999999999999,8|8,0:0|0:0,0:0:0:0:
293,284,75709,2,2,L|188:294,1,99.9999999999999,2|2,0:0|0:0,0:0:0:0:
89,296,76310,5,12,0:0:0:0:
66,185,77486,1,10,0:0:0:0:
41,78,78662,6,0,P|92:98|148:93,1,99.9999999999999,4|2,1:0|0:0,0:0:0:0:
181,73,79104,2,0,P|220:62|286:80,1,99.9999999999999,2|2,0:0|0:0,0:0:0:0:
319,101,79545,1,2,0:0:0:0:
378,181,79839,2,0,L|450:176,2,50,2|0|0,0:0|0:0|0:0,0:0:0:0:
346,219,80280,1,0,0:0:0:0:
300,308,80574,2,0,L|249:304,1,50,0|0,0:0|0:0,0:0:0:0:
148,306,81015,6,0,P|98:295|30:289,1,99.9999999999999,6|2,0:0|0:0,0:0:0:0:
15,252,81457,2,0,P|39:207|51:154,1,99.9999999999999,2|2,0:0|0:0,0:0:0:0:
43,110,81898,1,2,0:0:0:0:
131,62,82192,2,0,L|136:-4,2,50,2|0|0,0:0|0:0|0:0,0:0:0:0:
165,97,82633,1,0,0:0:0:0:
260,66,82927,2,0,L|333:58,1,50,0|0,0:0|0:0,0:0:0:0:
406,84,83368,6,0,P|386:143|378:201,1,99.9999999999999,2|2,0:0|0:0,0:0:0:0:
404,224,83810,2,0,P|362:251|294:268,1,99.9999999999999,2|2,0:0|0:0,0:0:0:0:
292,310,84251,1,2,0:0:0:0:
214,246,84545,2,0,L|150:244,2,50,2|0|0,0:0|0:0|0:0,0:0:0:0:
252,214,84986,1,0,0:0:0:0:
256,114,85280,2,0,P|284:111|319:111,1,50,0|0,0:0|0:0,0:0:0:0:
405,122,85721,6,0,P|388:172|498:388,1,300,2|0,1:0|0:0,0:0:0:0:
