osu file format v14

[General]
AudioFilename: audio.mp3
AudioLeadIn: 0
PreviewTime: 45647
Countdown: 0
SampleSet: Soft
StackLeniency: 0.7
Mode: 0
LetterboxInBreaks: 0
WidescreenStoryboard: 1

[Editor]
Bookmarks: 1022,7344,17485,26004,26897,36308,45720,47926,57338,66897,76310,85721
DistanceSpacing: 1.3
BeatDivisor: 4
GridSize: 4
TimelineZoom: 2

[Metadata]
Title:Black Rover (TV Size)
TitleUnicode:Black Rover (TV Size)
Artist:Vickeblanka
ArtistUnicode:ビッケブランカ
Creator:Dashyy-
Version:Hard
Source:ブラッククローバー
Tags:anime op opening clover hypercyte
BeatmapID:1678055
BeatmapSetID:798677

[Difficulty]
HPDrainRate:5
CircleSize:4
OverallDifficulty:6
ApproachRate:7.5
SliderMultiplier:1.3
SliderTickRate:1

[Events]
//Background and Video events
0,0,"VFb5jp1.jpg",0,0
//Break Periods
2,36508,44820
//Storyboard Layer 0 (Background)
//Storyboard Layer 1 (Fail)
//Storyboard Layer 2 (Pass)
//Storyboard Layer 3 (Foreground)
//Storyboard Sound Samples

[TimingPoints]
7344,255.31914893617,4,2,1,70,1,0
7471,335.195530726257,4,2,1,70,1,0
7546,-100,4,2,1,5,0,0
7638,250,4,2,1,70,1,0
7692,-100,4,2,1,5,0,0
7763,294.117647058824,4,2,1,70,1,0
7836,-100,4,2,1,5,0,0
7918,329.67032967033,4,2,1,70,1,0
8082,329.67032967033,4,2,1,70,1,0
8165,-100,4,2,1,5,0,0
8247,294.117647058824,4,2,1,70,1,0
8368,294.117647058824,4,2,1,70,1,0
9250,294.117647058824,4,2,1,70,1,0
9911,-100,4,2,1,5,0,0
9985,-100,4,2,1,70,0,0
10058,-100,4,2,1,5,0,0
10132,-100,4,2,1,70,0,0
10500,-100,4,2,1,5,0,0
10573,-100,4,2,1,70,0,0
11382,-100,4,2,1,5,0,0
11455,-100,4,2,1,70,0,0
11529,-100,4,2,1,5,0,0
11602,-100,4,2,1,70,0,0
12264,-100,4,2,1,5,0,0
12338,-100,4,2,1,70,0,0
12411,-100,4,2,1,5,0,0
12485,-100,4,2,1,70,0,0
12852,-100,4,2,1,5,0,0
12926,-100,4,2,1,70,0,0
13588,-100,4,2,1,5,0,0
13661,-100,4,2,1,70,0,0
13735,-100,4,2,1,5,0,0
13808,-100,4,2,1,70,0,0
13882,-100,4,2,1,5,0,0
13955,-100,4,2,1,70,0,0
16235,-100,4,2,1,5,0,0
16308,-100,4,2,1,70,0,0
17485,-100,4,2,1,50,0,0
17705,-100,4,2,1,5,0,0
17779,-100,4,2,1,50,0,0
20058,-100,4,2,1,5,0,0
20132,-100,4,2,1,50,0,0
22411,-100,4,2,1,5,0,0
22485,-100,4,2,1,50,0,0
24764,-100,4,2,1,5,0,0
24838,-100,4,2,1,50,0,0
26004,294.117647058824,4,2,1,50,1,0
26897,294.117647058824,4,2,1,70,1,0
26897,-100,4,2,1,70,0,0
27117,-100,4,2,1,5,0,0
27191,-100,4,2,1,70,0,0
27999,-100,4,2,1,5,0,0
28073,-100,4,2,1,70,0,0
29470,-100,4,2,1,5,0,0
29544,-100,4,2,1,70,0,0
30352,-100,4,2,1,5,0,0
30426,-100,4,2,1,70,0,0
31823,-100,4,2,1,5,0,0
31897,-100,4,2,1,70,0,0
32705,-100,4,2,1,5,0,0
32779,-100,4,2,1,70,0,0
34176,-100,4,2,1,5,0,0
34249,-100,4,2,1,70,0,0
36308,-100,4,2,1,70,0,0
47328,294.117647058824,4,2,1,70,1,0
47338,-100,4,2,1,70,0,0
47475,346.820809248555,4,2,1,70,1,0
47558,-100,4,2,1,5,0,0
47632,-100,4,2,1,70,0,0
47648,250,4,2,1,70,1,0
47705,-100,4,2,1,5,0,0
47773,306.122448979592,4,2,1,70,1,0
47779,-100,4,2,1,70,0,0
47852,-100,4,2,1,5,0,0
47926,-96.1538461538461,4,2,1,70,0,0
48073,294.117647058824,4,2,1,80,1,0
48147,-100,4,2,1,5,0,0
48220,-100,4,2,1,75,0,0
48882,-100,4,2,1,5,0,0
48955,-100,4,2,1,75,0,0
50499,-100,4,2,1,5,0,0
50573,-100,4,2,1,75,0,0
51235,-100,4,2,1,5,0,0
51308,-100,4,2,1,75,0,0
51602,-100,4,2,1,75,0,0
52191,-100,4,2,1,75,0,0
52632,-100,4,2,1,75,0,0
52852,-100,4,2,1,5,0,0
52926,-100,4,2,1,75,0,0
53588,-100,4,2,1,5,0,0
53661,-100,4,2,1,75,0,0
55205,-100,4,2,1,5,0,0
55279,-100,4,2,1,75,0,0
56308,-100,4,2,1,75,0,0
56529,-100,4,2,1,5,0,0
56602,-100,4,2,1,75,0,0
56897,-100,4,2,1,75,0,0
57117,-100,4,2,1,5,0,0
57191,-100,4,2,1,75,0,0
57264,-100,4,2,1,5,0,0
57338,-100,4,2,1,75,0,0
57558,-100,4,2,1,5,0,0
57632,-100,4,2,1,75,0,0
58294,-100,4,2,1,5,0,0
58367,-100,4,2,1,75,0,0
59911,-100,4,2,1,5,0,0
59985,-100,4,2,1,75,0,0
60647,-100,4,2,1,5,0,0
60720,-100,4,2,1,75,0,0
61014,-100,4,2,1,75,0,0
61602,-100,4,2,1,75,0,0
62044,-100,4,2,1,75,0,0
62264,-100,4,2,1,5,0,0
62338,-100,4,2,1,75,0,0
62999,-100,4,2,1,5,0,0
63073,-100,4,2,1,75,0,0
64617,-100,4,2,1,5,0,0
64691,-100,4,2,1,75,0,0
65425,-100,4,2,1,55,0,0
65720,-100,4,2,1,75,0,0
65941,-100,4,2,1,5,0,0
66014,-100,4,2,1,75,0,0
66382,-100,4,2,1,5,0,0
66455,-100,4,2,1,75,0,0
66896,-100,4,2,1,80,0,1
72768,294.117647058824,4,2,1,80,1,1
72768,-100,4,2,1,80,0,1
76310,294.117647058824,4,2,1,70,1,0
76310,-100,4,2,1,70,0,0
78662,-100,4,2,1,70,0,0
78883,-100,4,2,1,5,0,0
78957,-100,4,2,1,70,0,0
79765,-100,4,2,1,5,0,0
79839,-100,4,2,1,70,0,0
81236,-100,4,2,1,5,0,0
81310,-100,4,2,1,70,0,0
82118,-100,4,2,1,5,0,0
82192,-100,4,2,1,70,0,0
83589,-100,4,2,1,5,0,0
83662,-100,4,2,1,70,0,0
84471,-100,4,2,1,5,0,0
84545,-100,4,2,1,70,0,0
85721,-100,4,2,1,70,0,0
86604,-100,4,2,1,5,0,0

[Colours]
Combo1 : 199,224,150
Combo2 : 253,219,100
Combo3 : 128,64,0

[HitObjects]
90,237,7344,5,2,0:0:0:0:
90,237,7407,1,2,0:0:0:0:
90,237,7471,2,0,L|164:227,1,65,8|2,0:0|0:0,0:0:0:0:
105,152,7763,1,8,0:0:0:0:
8,200,7918,6,0,P|25:148|29:42,1,130,4|2,0:0|0:0,0:0:0:0:
142,24,8368,2,0,P|154:68|175:103,1,65,8|0,0:0|0:0,0:0:0:0:
231,134,8662,1,2,0:0:0:0:
267,57,8809,1,2,0:0:0:0:
338,156,8956,2,0,P|374:142|403:138,1,65,8|0,0:0|0:0,0:0:0:0:
474,192,9250,5,2,0:0:0:0:
474,192,9397,2,0,P|481:228|493:267,2,65,2|10|0,0:0|0:0|0:0,0:0:0:0:
383,244,9838,2,0,P|357:269|327:285,1,65,2|2,0:0|0:0,0:0:0:0:
176,349,10279,6,0,P|111:334|36:329,1,130,2|2,0:0|0:0,0:0:0:0:
85,229,10720,2,0,P|134:219|162:204,1,65,8|0,0:0|0:0,0:0:0:0:
221,171,11014,1,2,0:0:0:0:
248,250,11161,1,2,0:0:0:0:
315,199,11308,2,0,P|304:161|299:128,1,65,8|0,0:0|0:0,0:0:0:0:
316,36,11602,5,2,0:0:0:0:
316,36,11750,2,0,P|367:42|407:43,1,65,2|8,0:0|0:0,0:0:0:0:
445,96,12044,2,0,L|516:93,2,65,0|2|2,0:0|0:0|0:0,0:0:0:0:
338,227,12632,6,0,P|308:299|301:362,1,130,6|2,0:0|0:0,0:0:0:0:
194,316,13073,2,0,P|183:271|172:241,1,65,8|0,0:0|0:0,0:0:0:0:
156,171,13367,2,0,L|71:164,1,65,2|0,0:0|0:0,0:0:0:0:
16,159,13661,5,8,0:0:0:0:
48,81,13808,2,0,P|58:41|58:5,1,65,0|2,0:0|0:0,0:0:0:0:
141,35,14102,2,0,P|149:73|149:108,2,65,2|8|0,0:0|0:0|0:0,0:0:0:0:
220,64,14544,2,0,P|225:25|232:0,2,65,2|2|8,0:0|0:0|0:0,0:0:0:0:
291,216,15132,6,0,L|376:217,1,65,2|2,0:0|0:0,0:0:0:0:
396,205,15352,1,0,0:0:0:0:
396,205,15426,2,0,P|441:191|479:192,1,65,8|0,0:0|0:0,0:0:0:0:
502,262,15720,2,0,P|496:298|496:334,1,65,2|2,0:0|0:0,0:0:0:0:
429,379,16014,1,8,0:0:0:0:
273,312,16308,6,0,L|197:316,1,65,2|2,0:0|0:0,0:0:0:0:
239,236,16602,1,8,0:0:0:0:
239,236,16750,1,8,0:0:0:0:
212,157,16897,2,0,L|140:131,1,65,8|2,0:0|0:0,0:0:0:0:
202,71,17191,2,0,L|137:29,1,65,2|0,0:0|0:0,0:0:0:0:
37,83,17485,6,0,P|51:125|61:219,1,130,6|8,0:0|0:0,0:0:0:0:
61,209,18220,2,0,L|133:215,1,65,2|8,0:0|0:0,0:0:0:0:
74,291,18661,2,0,L|146:297,2,65,2|2|8,0:0|0:0|0:0,0:0:0:0:
61,379,19250,2,0,L|-18:383,2,65,2|2|8,0:0|0:0|0:0,0:0:0:0:
163,341,19691,1,2,0:0:0:0:
163,341,19764,1,2,0:0:0:0:
163,341,19838,6,0,P|207:351|297:352,1,130,2|8,0:0|0:0,0:0:0:0:
291,352,20573,2,0,L|296:261,1,65,2|8,0:0|0:0,0:0:0:0:
369,321,21014,2,0,L|374:230,2,65,2|2|8,0:0|0:0|0:0,0:0:0:0:
448,299,21602,2,0,L|443:390,2,65,2|2|8,0:0|0:0|0:0,0:0:0:0:
491,222,22044,1,2,0:0:0:0:
491,222,22117,1,2,0:0:0:0:
491,222,22191,6,0,P|478:176|477:83,1,130,2|8,0:0|0:0,0:0:0:0:
476,93,22926,2,0,L|470:16,1,65,2|8,0:0|0:0,0:0:0:0:
395,79,23367,2,0,L|389:2,2,65,2|2|8,0:0|0:0|0:0,0:0:0:0:
322,119,23955,2,0,L|316:196,2,65,2|2|8,0:0|0:0|0:0,0:0:0:0:
266,36,24397,1,2,0:0:0:0:
266,36,24470,1,2,0:0:0:0:
266,36,24544,6,0,P|212:52|130:54,1,130,2|8,0:0|0:0,0:0:0:0:
138,55,25279,2,0,L|149:131,1,65,2|12,0:0|0:0,0:0:0:0:
61,93,25720,2,0,L|70:172,1,65,2|2,0:0|0:0,0:0:0:0:
76,236,26004,1,12,0:0:0:0:
76,236,26298,5,8,0:0:0:0:
90,319,26445,1,8,0:0:0:0:
173,309,26592,2,0,L|257:295,1,65,8|8,0:0|0:0,0:0:0:0:
322,329,26897,6,0,P|331:284|353:200,1,130,6|8,0:0|0:0,0:0:0:0:
327,121,27338,1,0,0:0:0:0:
336,204,27485,2,0,P|384:217|422:218,1,65,2|2,0:0|0:0,0:0:0:0:
441,291,27779,2,0,P|482:277|509:263,1,65,8|0,0:0|0:0,0:0:0:0:
481,185,28073,2,0,P|463:145|453:46,1,130,2|8,0:0|0:0,0:0:0:0:
374,25,28514,2,0,P|351:62|338:101,1,65,0|2,0:0|0:0,0:0:0:0:
298,153,28808,2,0,P|281:117|260:85,1,65,2|8,0:0|0:0,0:0:0:0:
282,12,29102,1,0,0:0:0:0:
194,35,29249,6,0,P|162:52|55:69,1,130,6|8,0:0|0:0,0:0:0:0:
40,159,29691,1,0,0:0:0:0:
123,145,29838,2,0,P|164:162|196:188,1,65,2|2,0:0|0:0,0:0:0:0:
258,139,30132,2,0,P|278:178|286:218,1,65,8|0,0:0|0:0,0:0:0:0:
294,282,30426,2,0,P|241:276|150:280,1,130,2|8,0:0|0:0,0:0:0:0:
133,356,30867,2,0,P|93:343|-4:279,1,130,0|2,0:0|0:0,0:0:0:0:
1,224,31308,2,0,B|1:225|4:218|8:184|31:152,1,65,8|0,0:0|0:0,0:0:0:0:
146,156,31602,6,0,P|155:109|135:10,1,130,6|8,0:0|0:0,0:0:0:0:
231,21,32044,1,0,0:0:0:0:
237,97,32191,2,0,P|268:143|275:169,1,65,2|2,0:0|0:0,0:0:0:0:
243,226,32485,2,0,P|237:281|225:305,1,65,8|0,0:0|0:0,0:0:0:0:
154,251,32779,2,0,P|112:238|73:233,2,65,2|2|8,0:0|0:0|0:0,0:0:0:0:
241,305,33220,2,0,P|285:282|379:258,1,130,0|2,0:0|0:0,0:0:0:0:
398,177,33661,1,8,0:0:0:0:
398,177,33955,6,0,P|384:120|382:46,1,130,6|8,0:0|0:0,0:0:0:0:
301,27,34397,1,2,0:0:0:0:
217,32,34544,2,0,L|112:39,2,97.5,8|0|8,0:0|0:0|0:0,0:0:0:0:
277,90,35132,2,0,P|266:129|261:227,1,130,0|8,0:0|0:0,0:0:0:0:
260,217,35720,1,2,0:0:0:0:
342,200,35867,1,2,0:0:0:0:
422,175,36014,2,0,L|428:252,1,65,2|2,0:0|0:0,0:0:0:0:
436,323,36308,5,12,0:0:0:0:
102,62,45720,5,4,0:0:0:0:
102,62,47328,1,2,0:0:0:0:
102,62,47401,1,2,0:0:0:0:
102,62,47475,2,0,L|99:143,1,65,8|2,0:0|0:0,0:0:0:0:
127,205,47773,1,8,0:0:0:0:
197,95,47926,6,0,P|201:146|221:243,1,130,6|2,0:0|0:0,0:0:0:0:
284,272,48367,2,0,P|332:258|370:254,1,65,8|0,0:0|0:0,0:0:0:0:
428,278,48661,2,0,B|443:199|395:225|408:129,1,130,2|8,0:0|0:0,0:0:0:0:
441,76,49102,1,0,0:0:0:0:
367,43,49249,2,0,P|345:85|325:108,1,65,2|2,0:0|0:0,0:0:0:0:
256,63,49544,2,0,P|214:76|171:78,1,65,8|0,0:0|0:0,0:0:0:0:
153,152,49838,2,0,P|108:140|75:139,1,65,2|2,0:0|0:0,0:0:0:0:
9,164,50132,1,8,0:0:0:0:
104,237,50279,6,0,P|123:292|134:379,1,130,6|2,0:0|0:0,0:0:0:0:
214,337,50720,2,0,P|219:287|227:260,1,65,8|0,0:0|0:0,0:0:0:0:
260,197,51014,2,0,P|313:215|404:206,1,130,2|8,0:0|0:0,0:0:0:0:
470,208,51455,1,0,0:0:0:0:
479,291,51602,2,0,P|433:281|405:282,1,65,2|2,0:0|0:0,0:0:0:0:
344,328,51897,2,0,P|309:342|284:363,1,65,8|0,0:0|0:0,0:0:0:0:
206,335,52191,2,0,P|221:289|220:249,1,65,2|2,0:0|0:0,0:0:0:0:
184,197,52485,1,8,0:0:0:0:
112,282,52632,6,0,P|104:228|70:139,1,130,6|2,0:0|0:0,0:0:0:0:
39,82,53073,2,0,P|84:72|116:57,1,65,8|0,0:0|0:0,0:0:0:0:
164,121,53367,2,0,P|215:109|310:115,1,130,2|8,0:0|0:0,0:0:0:0:
355,55,53808,1,0,0:0:0:0:
421,107,53955,2,0,P|408:147|408:183,1,65,2|2,0:0|0:0,0:0:0:0:
342,224,54249,2,0,P|359:265|387:297,1,65,8|0,0:0|0:0,0:0:0:0:
342,361,54544,2,0,P|298:350|253:346,1,65,2|2,0:0|0:0,0:0:0:0:
195,361,54838,1,8,0:0:0:0:
250,263,54985,6,0,P|237:216|226:110,1,130,6|2,0:0|0:0,0:0:0:0:
240,52,55426,1,8,0:0:0:0:
240,52,55720,2,0,L|307:49,2,65,2|2|8,0:0|0:0|0:0,0:0:0:0:
72,26,56308,6,0,P|82:82|79:161,1,130,2|8,0:0|0:0,0:0:0:0:
79,154,56897,2,0,P|71:207|71:288,1,130,2|8,0:0|0:0,0:0:0:0:
141,358,57338,6,0,P|190:330|265:324,1,130,4|2,0:0|0:0,0:0:0:0:
337,361,57779,2,0,P|377:340|418:338,1,65,8|0,0:0|0:0,0:0:0:0:
431,260,58073,2,0,L|277:248,1,130,2|8,0:0|0:0,0:0:0:0:
217,244,58514,1,0,0:0:0:0:
149,192,58661,2,0,P|181:170|208:141,1,65,2|2,0:0|0:0,0:0:0:0:
201,67,58955,2,0,P|204:23|194:-7,1,65,8|0,0:0|0:0,0:0:0:0:
282,5,59249,2,0,P|297:42|328:67,1,65,2|2,0:0|0:0,0:0:0:0:
399,63,59544,1,8,0:0:0:0:
343,151,59691,6,0,P|399:142|490:142,1,130,6|0,0:0|0:0,0:0:0:0:
512,222,60132,2,0,P|503:270|503:315,1,65,8|0,0:0|0:0,0:0:0:0:
485,368,60426,2,0,P|422:342|359:334,1,130,2|8,0:0|0:0,0:0:0:0:
289,379,60867,1,0,0:0:0:0:
228,319,61014,2,0,P|188:335|148:339,1,65,2|2,0:0|0:0,0:0:0:0:
128,263,61308,2,0,P|80:255|47:237,1,65,8|0,0:0|0:0,0:0:0:0:
17,178,61602,2,0,P|56:167|82:153,1,65,2|2,0:0|0:0,0:0:0:0:
152,116,61897,1,8,0:0:0:0:
235,190,62044,6,0,P|214:140|210:37,1,130,6|2,0:0|0:0,0:0:0:0:
270,3,62485,2,0,P|308:20|342:26,1,65,8|0,0:0|0:0,0:0:0:0:
359,104,62779,2,0,P|410:94|500:91,1,130,2|8,0:0|0:0,0:0:0:0:
468,172,63220,1,0,0:0:0:0:
484,254,63367,2,0,P|436:241|396:235,1,65,2|2,0:0|0:0,0:0:0:0:
360,296,63661,2,0,P|317:302|291:316,1,65,8|0,0:0|0:0,0:0:0:0:
228,262,63955,2,0,P|256:230|273:200,1,65,2|2,0:0|0:0,0:0:0:0:
293,132,64249,1,8,0:0:0:0:
184,61,64397,6,0,P|198:116|193:202,1,130,6|0,0:0|0:0,0:0:0:0:
151,256,64838,1,8,0:0:0:0:
151,256,65132,1,2,0:0:0:0:
74,221,65279,1,2,0:0:0:0:
0,181,65426,2,0,L|5:105,1,65,2|2,0:0|0:0,0:0:0:0:
50,45,65720,6,0,P|98:62|179:60,1,130,2|8,0:0|0:0,0:0:0:0:
185,66,66308,2,0,P|224:53|253:49,1,65,2|2,0:0|0:0,0:0:0:0:
313,102,66602,2,0,P|352:108|389:124,1,65,2|2,0:0|0:0,0:0:0:0:
407,223,66897,6,0,P|368:238|343:253,1,65,12|0,0:0|0:0,0:0:0:0:
396,319,67191,2,0,P|366:351|351:384,1,65,8|0,0:0|0:0,0:0:0:0:
276,342,67485,2,0,P|260:303|245:278,1,65,8|0,0:0|0:0,0:0:0:0:
180,331,67779,2,0,P|148:301|114:286,1,65,8|0,0:0|0:0,0:0:0:0:
82,221,68073,6,0,P|120:205|145:190,1,65,8|0,0:0|0:0,0:0:0:0:
93,125,68367,2,0,P|123:93|137:59,1,65,8|0,0:0|0:0,0:0:0:0:
213,102,68661,2,0,P|228:140|243:165,1,65,8|0,0:0|0:0,0:0:0:0:
309,113,68955,2,0,P|341:143|374:157,1,65,8|0,0:0|0:0,0:0:0:0:
436,118,69249,6,0,P|422:83|417:44,1,65,12|0,0:0|0:0,0:0:0:0:
341,17,69544,2,0,P|306:32|270:38,1,65,8|0,0:0|0:0,0:0:0:0:
197,54,69838,2,0,P|159:55|120:46,1,65,8|0,0:0|0:0,0:0:0:0:
69,108,70132,2,0,P|71:146|64:181,1,65,8|0,0:0|0:0,0:0:0:0:
77,255,70426,6,0,P|91:290|96:329,1,65,8|0,0:0|0:0,0:0:0:0:
172,356,70720,2,0,P|207:341|243:335,1,65,8|0,0:0|0:0,0:0:0:0:
316,319,71014,2,0,P|353:317|392:326,1,65,8|0,0:0|0:0,0:0:0:0:
444,265,71308,2,0,P|441:226|448:191,1,65,8|0,0:0|0:0,0:0:0:0:
361,127,71602,6,0,L|216:144,1,130,12|8,0:0|0:0,0:0:0:0:
147,155,72044,1,0,0:0:0:0:
160,238,72191,2,0,P|110:231|72:215,1,65,8|0,0:0|0:0,0:0:0:0:
26,178,72485,2,0,P|5:139|0:103,1,65,8|0,0:0|0:0,0:0:0:0:
122,46,72768,6,0,L|254:34,1,130,8|8,0:0|0:0,0:0:0:0:
334,51,73209,1,0,0:0:0:0:
317,130,73356,2,0,P|310:166|316:212,1,65,8|0,0:0|0:0,0:0:0:0:
259,260,73650,2,0,P|285:305|308:326,1,65,8|0,0:0|0:0,0:0:0:0:
449,312,73944,6,0,L|438:177,1,130,12|8,0:0|0:0,0:0:0:0:
400,106,74385,1,0,0:0:0:0:
325,146,74532,2,0,P|274:140|244:125,1,65,8|0,0:0|0:0,0:0:0:0:
184,168,74826,2,0,P|142:139|128:116,1,65,8|0,0:0|0:0,0:0:0:0:
8,202,75120,6,0,P|33:249|19:343,1,130,8|8,0:0|0:0,0:0:0:0:
93,378,75562,1,0,0:0:0:0:
156,322,75709,2,2,P|197:313|233:322,1,65,2|2,0:0|0:0,0:0:0:0:
282,372,76003,2,2,P|323:375|356:369,1,65,2|2,0:0|0:0,0:0:0:0:
400,297,76310,5,12,0:0:0:0:
400,297,77486,1,10,0:0:0:0:
400,297,78662,6,0,P|364:284|271:279,1,130,4|2,1:0|0:0,0:0:0:0:
201,324,79104,2,0,P|216:277|189:186,1,130,2|2,0:0|0:0,0:0:0:0:
121,199,79545,1,2,0:0:0:0:
121,199,79839,2,0,P|72:209|51:208,1,65,2|0,0:0|0:0,0:0:0:0:
4,142,80133,2,0,P|10:105|8:70,1,65,0|0,0:0|0:0,0:0:0:0:
52,5,80427,1,8,0:0:0:0:
101,73,80574,2,0,P|146:89|178:94,1,65,0|0,0:0|0:0,0:0:0:0:
317,24,81015,6,0,P|354:48|446:54,1,130,6|2,0:0|0:0,0:0:0:0:
508,8,81457,2,0,P|481:59|496:147,1,130,2|2,0:0|0:0,0:0:0:0:
446,203,81898,1,2,0:0:0:0:
446,203,82192,2,0,P|397:218|369:234,1,65,2|0,0:0|0:0,0:0:0:0:
301,234,82486,2,0,P|271:255|248:289,1,65,0|0,0:0|0:0,0:0:0:0:
306,343,82780,1,8,0:0:0:0:
226,370,82927,2,0,L|141:368,1,65,0|0,0:0|0:0,0:0:0:0:
6,300,83368,6,0,P|17:236|13:155,1,130,2|2,0:0|0:0,0:0:0:0:
78,114,83810,2,0,P|131:126|226:117,1,130,2|2,0:0|0:0,0:0:0:0:
257,55,84251,1,2,0:0:0:0:
257,55,84545,2,0,P|282:94|294:123,1,65,2|0,0:0|0:0,0:0:0:0:
371,132,84839,2,0,P|403:110|430:80,1,65,0|0,0:0|0:0,0:0:0:0:
465,19,85133,1,8,0:0:0:0:
505,93,85280,2,0,L|514:170,1,65,0|0,0:0|0:0,0:0:0:0:
353,214,85721,6,0,P|197:243|-13:369,1,390,2|0,1:0|0:0,0:0:0:0:
