osu file format v14

[General]
AudioFilename: audio.mp3
AudioLeadIn: 0
PreviewTime: 47176
Countdown: 0
SampleSet: None
StackLeniency: 0.3
Mode: 0
LetterboxInBreaks: 0
WidescreenStoryboard: 0

[Editor]
DistanceSpacing: 0.6
BeatDivisor: 4
GridSize: 8
TimelineZoom: 2.1

[Metadata]
Title:Black Rover
TitleUnicode:Black Rover
Artist:Vickeblanka
ArtistUnicode:Vickeblanka
Creator:P4ndemonium
Version:ye
Source:
Tags:
BeatmapID:1825298
BeatmapSetID:873229

[Difficulty]
HPDrainRate:5
CircleSize:3.8
OverallDifficulty:9.2
ApproachRate:9.6
SliderMultiplier:2
SliderTickRate:1

[Events]
//Background and Video events
0,0,"aaaa.jpg",0,0
//Break Periods
2,45904,46722
//Storyboard Layer 0 (Background)
//Storyboard Layer 1 (Fail)
//Storyboard Layer 2 (Pass)
//Storyboard Layer 3 (Foreground)
//Storyboard Sound Samples

[TimingPoints]
1000,294.117647058824,4,2,0,50,1,0
7911,-100,4,2,0,50,0,0
17470,-133.333333333333,4,2,0,50,0,0
36294,-200,4,2,0,50,0,0
41000,-200,4,2,0,50,0,0
47911,-100,4,2,0,50,0,1
76294,-200,4,2,0,50,0,0
78647,-133.333333333333,4,2,0,50,0,0

[HitObjects]
120,191,7323,5,0,0:0:0:0:
120,191,7396,1,0,0:0:0:0:
120,191,7470,1,0,0:0:0:0:
207,232,7617,1,0,0:0:0:0:
42,246,7764,1,0,0:0:0:0:
112,96,7911,6,0,P|158:111|207:104,1,100
312,60,8205,1,0,0:0:0:0:
294,273,8352,2,0,L|302:173,1,100
503,131,8646,2,0,P|454:138|407:122,1,100
314,284,8940,2,0,P|360:267|409:275,1,100
251,369,9235,5,0,0:0:0:0:
303,173,9382,1,0,0:0:0:0:
112,251,9529,2,0,L|210:268,1,100
132,362,9823,2,0,L|33:379,1,100
50,175,10117,1,0,0:0:0:0:
112,251,10264,6,0,P|66:270|17:267,1,100
172,50,10558,1,0,0:0:0:0:
193,169,10705,2,0,L|210:267,1,100
50,175,10999,2,0,L|67:76,1,100
283,102,11293,2,0,L|300:200,1,100
205,374,11587,5,0,0:0:0:0:
440,314,11735,1,0,0:0:0:0:
286,218,11882,2,0,P|266:263|269:312,1,100
459,297,12176,2,0,L|361:280,1,100
512,384,12470,1,0,0:0:0:0:
413,194,12617,6,0,L|512:177,1,100
361,280,12911,1,0,0:0:0:0:
407,79,13058,2,0,P|426:124|423:173,1,100
272,264,13352,2,0,L|173:246,1,100
232,158,13646,2,0,L|331:141,1,100
255,367,13940,5,0,0:0:0:0:
81,260,14087,1,0,0:0:0:0:
232,158,14235,2,0,P|186:177|137:174,1,100
71,64,14529,2,0,L|170:82,1,100
98,274,14823,2,0,L|0:291,1,100
214,292,15117,6,0,P|196:221|232:158,2,150
359,357,15705,2,0,L|457:339,1,100
323,124,15999,2,0,L|224:141,1,100
292,232,16293,2,0,L|390:249,1,100
492,95,16587,1,0,0:0:0:0:
323,124,16735,1,0,0:0:0:0:
411,253,16882,2,0,P|407:203|427:158,1,100
296,341,17176,2,0,P|299:291|279:246,1,100
129,300,17470,6,0,L|204:307,1,75.0000028610231
260,221,17764,2,0,L|110:207,1,150.000005722046
204,307,18205,1,0,0:0:0:0:
224,113,18352,2,0,L|150:120,1,75.0000028610231
397,220,18646,6,0,B|390:148|390:148|416:117,2,112.500004291535
298,311,19235,2,0,B|304:239|304:239|278:208,2,112.500004291535
384,384,19823,6,0,L|390:309,1,75.0000028610231
284,161,20117,2,0,L|298:311,1,150.000005722046
397,220,20558,1,0,0:0:0:0:
197,199,20705,2,0,L|203:273,1,75.0000028610231
265,58,20999,6,0,B|258:129|258:129|284:160,2,112.500004291535
160,178,21587,1,0,0:0:0:0:
175,12,21735,2,0,L|168:86,1,75.0000028610231
58,292,22029,1,0,0:0:0:0:
43,126,22177,6,0,L|49:200,1,75.0000028610231
146,327,22470,2,0,L|160:178,1,150.000005722046
58,292,22911,1,0,0:0:0:0:
242,282,23058,2,0,L|249:208,1,75.0000028610231
153,103,23352,6,0,L|159:177,1,75.0000028610231
336,253,23646,2,0,L|342:178,1,75.0000028610231
242,133,23940,2,0,L|248:207,1,75.0000028610231
425,283,24234,2,0,L|431:208,1,75.0000028610231
456,187,24455,5,0,0:0:0:0:
456,187,24529,2,0,L|449:112,1,75.0000028610231
261,246,24823,2,0,L|335:252,1,75.0000028610231
190,190,25117,1,0,0:0:0:0:
274,337,25264,1,0,0:0:0:0:
337,129,25411,2,0,L|262:135,1,75.0000028610231
190,190,25705,6,0,L|115:183,1,75.0000028610231
335,239,25999,2,0,L|261:246,1,75.0000028610231
83,340,26293,5,0,0:0:0:0:
145,264,26440,1,0,0:0:0:0:
70,179,26587,1,0,0:0:0:0:
150,79,26735,1,0,0:0:0:0:
33,0,26882,6,0,P|68:11|105:6,1,75.0000028610231
222,85,27176,2,0,P|186:73|150:79,1,75.0000028610231
316,116,27470,2,0,L|309:41,1,75.0000028610231
180,164,27764,2,0,L|173:238,1,75.0000028610231
332,280,28058,6,0,L|325:205,1,75.0000028610231
274,349,28352,1,0,0:0:0:0:
398,199,28499,2,0,P|362:210|325:205,1,75.0000028610231
401,338,28793,2,0,P|437:332|473:344,1,75.0000028610231
414,188,29087,6,0,L|401:338,1,150.000005722046
497,305,29529,2,0,L|503:230,1,75.0000028610231
430,177,29823,2,0,L|423:102,1,75.0000028610231
311,295,30117,2,0,L|318:221,1,75.0000028610231
174,158,30411,6,0,P|210:170|247:165,1,75.0000028610231
148,364,30705,1,0,0:0:0:0:
74,278,30852,2,0,L|223:264,1,150.000005722046
27,354,31293,1,0,0:0:0:0:
10,162,31440,6,0,L|159:175,1,150.000005722046
74,278,31882,2,0,L|148:271,1,75.0000028610231
249,165,32176,2,0,L|174:158,1,75.0000028610231
148,364,32470,2,0,L|222:357,1,75.0000028610231
345,271,32764,5,0,0:0:0:0:
264,181,32911,1,0,0:0:0:0:
391,98,33058,1,0,0:0:0:0:
253,27,33205,2,0,P|275:56|283:92,1,75.0000028610231
449,164,33499,1,0,0:0:0:0:
391,98,33646,2,0,P|368:127|360:163,1,75.0000028610231
438,270,33940,6,0,L|363:256,1,75.0000028610231
308,365,34234,2,0,L|383:352,1,75.0000028610231
359,163,34528,2,0,L|284:149,1,75.0000028610231
183,297,34822,1,0,0:0:0:0:
346,268,34969,2,0,L|271:281,1,75.0000028610231
286,150,35263,1,0,0:0:0:0:
123,121,35410,2,0,L|197:134,1,75.0000028610231
97,269,35704,2,0,P|95:231|77:199,1,75.0000028610231
163,366,35999,2,0,P|165:329|183:297,1,75.0000028610231
305,295,36294,6,0,P|312:318|312:343,1,50
354,220,36587,2,0,P|346:243|346:268,1,50
301,146,36881,2,0,P|308:169|308:194,1,50
350,71,37175,2,0,P|342:94|342:119,1,50
438,190,37469,6,0,L|487:185,1,50
354,220,37763,2,0,L|403:224,1,50
268,191,38057,2,0,L|317:186,1,50
184,221,38351,2,0,L|233:225,1,50
61,259,38646,6,0,P|68:282|68:307,1,50
110,184,38940,2,0,P|102:207|102:232,1,50
6,100,39234,2,0,P|27:112|43:132,1,50
165,25,39528,2,0,P|143:37|127:57,1,50
233,225,39822,6,0,L|184:221,1,50
294,104,40116,2,0,L|244:108,1,50
381,192,40410,2,0,L|331:187,1,50
441,137,40704,2,0,L|391:141,1,50
251,362,40999,6,0,P|268:291|234:226,1,150.000005722046
207,35,41587,2,0,P|162:93|167:167,1,150.000005722046
30,347,42175,2,0,P|88:302|104:231,1,150.000005722046
20,95,42763,2,0,P|23:168|73:221,1,150.000005722046
340,238,43351,6,0,B|342:206|342:206|351:198|351:198|344:190|344:190|352:94,1,150
159,216,43940,2,0,B|156:184|156:184|147:176|147:176|154:168|154:168|146:72,1,150
436,169,44528,2,0,B|438:137|438:137|447:129|447:129|440:121|440:121|448:25,1,150
255,285,45116,2,0,B|252:253|252:253|243:245|243:245|250:237|250:237|242:141,1,150
352,356,45704,5,0,0:0:0:0:
352,356,47322,5,0,0:0:0:0:
352,356,47395,1,0,0:0:0:0:
352,356,47469,1,0,0:0:0:0:
278,190,47616,1,0,0:0:0:0:
172,338,47763,1,0,0:0:0:0:
430,117,47911,6,0,B|358:125|358:125|302:101|302:101|236:93,1,200
96,239,48352,2,0,P|144:246|191:231,1,100
162,39,48647,1,0,0:0:0:0:
12,273,48794,1,0,0:0:0:0:
286,289,48941,2,0,L|278:190,1,100
104,139,49235,6,0,L|96:239,1,100
200,331,49529,2,0,L|191:231,1,100
27,384,49823,2,0,P|73:368|122:376,1,100
286,289,50117,1,0,0:0:0:0:
105,139,50264,6,0,B|177:147|177:147|233:123|233:123|299:115,1,200
467,254,50705,2,0,P|418:262|372:247,1,100
347,40,51000,1,0,0:0:0:0:
512,177,51147,1,0,0:0:0:0:
269,305,51294,2,0,L|260:205,1,100
436,0,51588,6,0,P|443:48|428:95,1,100
182,148,51882,2,0,P|220:116|268:106,1,100
438,294,52176,2,0,P|391:276|358:239,1,100
347,40,52470,1,0,0:0:0:0:
499,115,52617,6,0,B|427:107|427:107|371:131|371:131|305:139,1,200
173,297,53058,2,0,P|219:312|268:304,1,100
82,139,53352,1,0,0:0:0:0:
92,336,53500,1,0,0:0:0:0:
268,106,53647,2,0,L|169:98,1,100
0,253,53941,2,0,L|99:244,1,100
89,43,54235,2,0,P|73:89|81:138,1,100
268,304,54529,2,0,P|283:257|276:209,1,100
99,245,54823,1,0,0:0:0:0:
383,341,54970,6,0,B|375:269|375:269|399:213|399:213|407:147,1,200
512,62,55411,2,0,P|463:70|417:55,1,100
248,0,55705,1,0,0:0:0:0:
407,146,55852,1,0,0:0:0:0:
161,198,56000,2,0,L|169:98,1,100
335,339,56294,6,0,B|285:344|285:344|238:330,1,100
161,198,56588,2,0,P|168:246|153:293,1,100
0,141,56882,2,0,B|49:146|49:146|96:132,1,100
212,2,57176,1,0,0:0:0:0:
161,198,57323,6,0,B|233:190|233:190|289:214|289:214|355:222,1,200
355,31,57764,2,0,P|324:70|315:119,1,100
476,335,58058,1,0,0:0:0:0:
412,110,58205,1,0,0:0:0:0:
282,320,58352,2,0,L|381:311,1,100
315,119,58647,6,0,L|215:110,1,100
148,374,58941,2,0,P|178:335|188:286,1,100
301,136,59235,2,0,P|310:184|341:223,1,100
512,263,59529,1,0,0:0:0:0:
260,39,59676,6,0,B|332:31|332:31|388:55|388:55|454:63,1,200
260,223,60117,2,0,P|269:174|300:135,1,100
401,334,60411,1,0,0:0:0:0:
169,173,60558,1,0,0:0:0:0:
454,63,60705,2,0,L|462:162,1,100
251,322,61000,6,0,L|260:223,1,100
413,247,61294,2,0,L|421:346,1,100
160,272,61588,2,0,L|168:172,1,100
331,369,61882,1,0,0:0:0:0:
53,334,62029,6,0,B|45:262|45:262|69:206|69:206|77:140,1,200
264,164,62470,2,0,P|215:156|168:171,1,100
363,332,62764,1,0,0:0:0:0:
323,87,62911,1,0,0:0:0:0:
224,253,63058,2,0,P|272:260|319:245,1,100
422,95,63352,2,0,L|323:87,1,100
363,332,63647,2,0,L|462:323,1,100
264,164,63941,2,0,P|215:156|168:171,1,100
354,4,64235,1,0,0:0:0:0:
418,277,64382,6,0,B|346:285|346:285|290:261|290:261|224:253,1,200
96,384,64823,2,0,P|126:345|136:296,1,100
94,52,65117,1,0,0:0:0:0:
38,305,65264,1,0,0:0:0:0:
264,164,65411,2,0,L|164:172,1,100
220,338,65705,6,0,B|269:332|269:332|316:346,1,100
403,190,65999,2,0,P|383:235|387:285,1,100
487,85,66294,5,0,0:0:0:0:
253,182,66441,1,0,0:0:0:0:
479,252,66588,1,0,0:0:0:0:
225,75,66735,1,0,0:0:0:0:
204,353,66882,5,0,0:0:0:0:
331,104,67029,1,0,0:0:0:0:
310,382,67176,5,0,0:0:0:0:
147,153,67323,1,0,0:0:0:0:
479,252,67470,5,0,0:0:0:0:
98,324,67617,1,0,0:0:0:0:
303,0,67764,5,0,0:0:0:0:
198,373,67911,1,0,0:0:0:0:
119,46,68058,5,0,0:0:0:0:
288,308,68205,1,0,0:0:0:0:
407,27,68352,5,0,0:0:0:0:
198,373,68500,1,0,0:0:0:0:
223,73,68647,5,0,0:0:0:0:
388,357,68794,1,0,0:0:0:0:
511,54,68941,5,0,0:0:0:0:
147,149,69088,1,0,0:0:0:0:
411,358,69235,5,0,0:0:0:0:
303,0,69382,1,0,0:0:0:0:
198,373,69529,5,0,0:0:0:0:
435,130,69676,1,0,0:0:0:0:
71,225,69823,5,0,0:0:0:0:
489,250,69970,1,0,0:0:0:0:
119,46,70117,5,0,0:0:0:0:
411,358,70264,1,0,0:0:0:0:
49,228,70411,5,0,0:0:0:0:
512,167,70558,1,0,0:0:0:0:
0,153,70705,5,0,0:0:0:0:
489,250,70852,1,0,0:0:0:0:
0,303,71000,5,0,0:0:0:0:
503,81,71147,1,0,0:0:0:0:
167,384,71294,5,0,0:0:0:0:
345,0,71441,1,0,0:0:0:0:
285,336,71588,5,0,0:0:0:0:
130,0,71735,1,0,0:0:0:0:
149,372,71882,5,0,0:0:0:0:
264,40,72029,1,0,0:0:0:0:
381,360,72176,5,0,0:0:0:0:
177,85,72323,1,0,0:0:0:0:
277,353,72470,5,0,0:0:0:0:
402,70,72617,1,0,0:0:0:0:
154,260,72764,5,0,0:0:0:0:
512,167,72911,1,0,0:0:0:0:
90,130,73058,5,0,0:0:0:0:
458,237,73205,1,0,0:0:0:0:
74,218,73352,5,0,0:0:0:0:
424,155,73500,1,0,0:0:0:0:
78,309,73647,5,0,0:0:0:0:
381,360,73794,1,0,0:0:0:0:
264,40,73941,5,0,0:0:0:0:
158,351,74088,1,0,0:0:0:0:
176,0,74235,5,0,0:0:0:0:
294,384,74382,1,0,0:0:0:0:
97,54,74529,5,0,0:0:0:0:
0,384,74676,1,0,0:0:0:0:
9,14,74823,5,0,0:0:0:0:
158,382,74970,1,0,0:0:0:0:
320,93,75117,5,0,0:0:0:0:
14,221,75264,1,0,0:0:0:0:
349,253,75411,5,0,0:0:0:0:
19,111,75558,1,0,0:0:0:0:
387,163,75705,5,0,0:0:0:0:
78,309,75852,1,0,0:0:0:0:
416,322,76000,5,0,0:0:0:0:
123,210,76147,1,0,0:0:0:0:
467,79,76294,6,0,L|484:177,1,100
261,214,76882,2,0,L|278:115,1,100
387,163,77470,6,0,L|404:261,1,100
174,206,78058,6,0,L|176:193,14,12.5
180,173,78647,6,0,L|193:99,1,75.0000028610231
106,328,78941,1,0,0:0:0:0:
90,239,79088,2,0,L|76:165,1,75.0000028610231
232,377,79382,1,0,0:0:0:0:
248,288,79529,2,0,L|261:214,1,75.0000028610231
429,200,79823,5,0,0:0:0:0:
355,248,79970,1,0,0:0:0:0:
505,243,80117,1,0,0:0:0:0:
279,205,80264,1,0,0:0:0:0:
279,205,80558,5,0,0:0:0:0:
505,243,80705,1,0,0:0:0:0:
353,75,81000,6,0,L|339:1,1,75.0000028610231
429,200,81294,1,0,0:0:0:0:
445,111,81441,2,0,L|458:37,1,75.0000028610231
279,205,81735,1,0,0:0:0:0:
263,116,81882,2,0,L|249:42,1,75.0000028610231
129,200,82176,5,0,0:0:0:0:
203,248,82323,1,0,0:0:0:0:
53,243,82470,1,0,0:0:0:0:
279,205,82617,1,0,0:0:0:0:
279,205,82911,5,0,0:0:0:0:
53,243,83058,1,0,0:0:0:0:
203,248,83352,6,0,L|216:321,1,75.0000028610231
340,121,83647,1,0,0:0:0:0:
324,210,83794,2,0,L|310:283,1,75.0000028610231
409,61,84088,1,0,0:0:0:0:
425,150,84235,2,0,L|438:223,1,75.0000028610231
177,99,84529,5,0,0:0:0:0:
251,147,84676,1,0,0:0:0:0:
101,142,84823,1,0,0:0:0:0:
327,104,84970,1,0,0:0:0:0:
327,104,85264,5,0,0:0:0:0:
101,142,85411,1,0,0:0:0:0:
247,319,85705,5,0,0:0:0:0:
256,192,85779,12,0,86735,0:0:0:0:
