osu file format v14

[General]
AudioFilename: audio.mp3
AudioLeadIn: 0
PreviewTime: 168610
Countdown: 0
SampleSet: Soft
StackLeniency: 0.9
Mode: 0
LetterboxInBreaks: 0
WidescreenStoryboard: 1

[Editor]
Bookmarks: 60138
DistanceSpacing: 2
BeatDivisor: 4
GridSize: 32
TimelineZoom: 2.2

[Metadata]
Title:Black Rover
TitleUnicode:Black Rover
Artist:Vickeblanka
ArtistUnicode:ビッケブランカ
Creator:Keqing
Version:Ash
Source:ブラッククローバー
Tags:iljaaz elinor pepe pepekcz fuju yudragen chaoticred djulus -mikanmymommy sing milan- kalibe handsome hehe clover op opening full japanese anime asta jrock rock
BeatmapID:2924443
BeatmapSetID:1419615

[Difficulty]
HPDrainRate:6
CircleSize:4
OverallDifficulty:9
ApproachRate:9.6
SliderMultiplier:1.74
SliderTickRate:1

[Events]
//Background and Video events
0,0,"4123.jpg",0,0
//Break Periods
2,138002,146037
//Storyboard Layer 0 (Background)
//Storyboard Layer 1 (Fail)
//Storyboard Layer 2 (Pass)
//Storyboard Layer 3 (Foreground)
//Storyboard Layer 4 (Overlay)
//Storyboard Sound Samples

[TimingPoints]
1343,294.117647058824,4,2,1,30,1,0
1343,-135.135135135135,4,2,1,40,0,0
2519,-135.135135135135,4,2,1,30,0,0
3695,-135.135135135135,4,2,1,40,0,0
4872,-135.135135135135,4,2,1,30,0,0
6048,-135.135135135135,4,2,1,50,0,0
7666,287.081339712919,4,2,1,60,1,0
7666,-135.135135135135,4,2,1,60,0,0
7809,300,4,2,1,60,1,0
7813,-80.6451612903225,4,2,1,60,0,0
7959,267.857142857143,4,2,1,60,1,0
8092,306.122448979592,4,2,1,60,1,0
8245,294.117647058824,4,2,1,60,1,0
8245,-96.1538461538461,4,2,1,60,0,0
8392,294.117647058824,4,2,1,60,1,0
8686,-64.9350649350649,4,2,1,60,0,0
9127,-80.6451612903226,4,2,1,60,0,0
10303,-64.9350649350649,4,2,1,60,0,0
10597,-96.1538461538461,4,2,1,60,0,0
11038,-64.9350649350649,4,2,1,60,0,0
11774,-80.6451612903226,4,2,1,60,0,0
12950,-96.1538461538461,4,2,1,60,0,0
13391,-64.9350649350649,4,2,1,60,0,0
14127,-80.6451612903226,4,2,1,60,0,0
15156,-96.1538461538461,4,2,1,60,0,0
15450,-64.9350649350649,4,2,1,60,0,0
16333,-80.6451612903226,4,2,1,60,0,0
16627,-96.1538461538461,4,2,1,60,0,0
17803,-106.382978723404,4,2,1,50,0,0
18097,-80.6451612903226,4,2,1,50,0,0
18685,-106.382978723404,4,2,1,50,0,0
20156,-74.6268656716418,4,2,1,50,0,0
20597,-135.135135135135,4,2,1,50,0,0
21038,-87.7192982456139,4,2,1,50,0,0
22509,-74.6268656716418,4,2,1,50,0,0
22950,-135.135135135135,4,2,1,50,0,0
23391,-87.7192982456139,4,2,1,50,0,0
24862,-74.6268656716418,4,2,1,50,0,0
25450,-135.135135135135,4,2,1,50,0,0
25744,-87.7192982456139,4,2,1,50,0,0
26038,-135.135135135135,4,2,1,50,0,0
27215,-80.6451612903226,4,2,1,70,0,0
27803,-96.1538461538461,4,2,1,70,0,0
29568,-74.6268656716418,4,2,1,70,0,0
29862,-96.1538461538461,4,2,1,70,0,0
31921,-74.6268656716418,4,2,1,70,0,0
32215,-96.1538461538461,4,2,1,70,0,0
36627,-119.047619047619,4,2,1,45,0,0
46038,-227.272727272727,4,2,1,45,0,0
47640,283.018867924528,4,2,1,80,1,0
47640,-64.9350649350649,4,2,1,30,0,0
47781,300,4,2,1,80,1,0
47781,-64.9350649350649,4,2,1,40,0,0
47931,277.777777777778,4,2,1,80,1,0
47931,-64.9350649350649,4,2,1,50,0,0
48069,329.67032967033,4,2,1,80,1,0
48069,-64.9350649350649,4,2,1,60,0,0
48233,294.117647058824,4,2,1,80,1,0
48234,-64.9350649350649,4,2,1,70,0,0
48381,294.117647058824,4,2,1,80,1,0
48528,-64.9350649350649,4,2,1,80,0,0
48675,-57.4712643678161,4,2,1,80,0,0
48969,-96.1538461538461,4,2,1,80,0,0
49557,-74.6268656716418,4,2,1,80,0,0
51027,-57.4712643678161,4,2,1,80,0,0
51322,-96.1538461538461,4,2,1,80,0,0
51616,-74.6268656716418,4,2,1,80,0,0
52204,-106.382978723404,4,2,1,80,0,0
52939,-64.9350649350649,4,2,1,80,0,0
53380,-57.4712643678161,4,2,1,80,0,0
53674,-96.1538461538461,4,2,1,80,0,0
54263,-74.6268656716418,4,2,1,80,0,0
56616,-119.047619047619,4,2,1,70,0,0
57204,-74.6268656716418,4,2,1,70,0,0
57645,-64.9350649350649,4,2,1,90,0,0
58086,-57.4712643678161,4,2,1,80,0,0
58380,-96.1538461538461,4,2,1,80,0,0
58969,-74.6268656716418,4,2,1,80,0,0
59998,-64.9350649350649,4,2,1,80,0,0
60439,-57.4712643678161,4,2,1,80,0,0
60733,-96.1538461538461,4,2,1,80,0,0
61322,-74.6268656716418,4,2,1,80,0,0
61616,-57.4712643678161,4,2,1,80,0,0
62351,-64.9350649350649,4,2,1,80,0,0
62792,-57.4712643678161,4,2,1,80,0,0
63086,-96.1538461538461,4,2,1,80,0,0
63674,-74.6268656716418,4,2,1,80,0,0
66027,-106.382978723404,4,2,1,70,0,0
66616,-57.4712643678161,4,2,1,70,0,0
67057,-42.7350427350427,4,2,1,90,0,0
67204,-42.7350427350427,4,2,1,50,0,0
67351,-106.382978723404,4,2,1,50,0,0
67792,312.5,4,2,1,50,1,0
68104,301.507537688442,4,2,1,50,1,0
68405,294.261893084846,4,2,1,50,1,0
68986,-135.135135135135,4,2,1,50,0,0
69868,-135.135135135135,4,2,1,55,0,0
72221,-135.135135135135,4,2,1,60,0,0
73407,283.018867924528,4,2,1,50,1,0
73690,-135.135135135135,4,2,1,60,0,0
73973,307.692307692308,4,2,1,50,1,0
74434,294.117647058824,4,2,1,60,1,0
74434,-135.135135135135,4,2,1,60,0,0
75463,292.682926829268,4,2,1,60,1,0
75463,-135.135135135135,4,2,1,60,0,0
76632,294.117647058824,4,2,1,60,1,0
76632,-106.382978723404,4,2,1,60,0,0
78986,285.714285714286,4,2,1,60,1,0
78986,-80.6451612903224,4,2,1,60,0,0
79271,294.117647058824,4,2,1,60,1,0
79418,-135.135135135135,4,2,1,60,0,0
79859,-106.382978723404,4,2,1,60,0,0
80153,294.117647058824,4,2,1,60,1,0
80153,-106.382978723404,4,2,1,60,0,0
81329,288.461538461538,4,2,1,60,1,0
81329,-80.6451612903224,4,2,1,60,0,0
81617,294.117647058824,4,2,1,60,1,0
81764,-135.135135135135,4,2,1,60,0,0
82205,-106.382978723404,4,2,1,60,0,0
82499,294.117647058824,4,2,1,60,1,0
82499,-106.382978723404,4,2,1,60,0,0
84557,-80.6451612903226,4,2,1,60,0,0
84851,-135.135135135135,4,2,1,60,0,0
86027,-74.6268656716417,4,2,1,50,0,0
86469,-185.185185185185,4,2,1,50,0,0
95439,-119.047619047619,4,2,1,40,0,0
96616,-74.6268656716418,4,2,1,40,0,0
97792,-119.047619047619,4,2,1,40,0,0
98969,-74.6268656716418,4,2,1,40,0,0
100146,312.5,4,2,1,40,1,0
100146,-119.047619047619,4,2,1,40,0,0
100614,294.117647058824,4,2,1,40,1,0
100614,-119.047619047619,4,2,1,40,0,0
100761,277.777777777778,4,2,1,40,1,0
101038,294.117647058824,4,2,1,40,1,0
101038,-119.047619047619,4,2,1,40,0,0
101332,294.117647058824,4,2,1,40,1,0
101332,-74.6268656716418,4,2,1,40,0,0
101920,-185.185185185185,4,2,1,40,0,0
102508,-119.047619047619,4,2,1,40,0,0
103684,-74.6268656716418,4,2,1,40,0,0
104861,-156.25,4,2,1,40,0,0
106626,-49.0196078431373,4,2,1,40,0,0
106699,-49.0196078431373,4,2,1,5,0,0
106773,-49.0196078431373,4,2,1,40,0,0
106846,-49.0196078431373,4,2,1,5,0,0
107067,-64.9350649350649,4,2,1,70,0,0
107361,-64.9350649350649,4,2,1,80,0,0
107508,-57.4712643678161,4,2,1,80,0,0
107802,-96.1538461538461,4,2,1,80,0,0
108390,-74.6268656716418,4,2,1,80,0,0
109860,-57.4712643678161,4,2,1,80,0,0
110155,-96.1538461538461,4,2,1,80,0,0
110449,-74.6268656716418,4,2,1,80,0,0
111037,-106.382978723404,4,2,1,80,0,0
111772,-64.9350649350649,4,2,1,80,0,0
112213,-57.4712643678161,4,2,1,80,0,0
112507,-96.1538461538461,4,2,1,80,0,0
113096,-74.6268656716418,4,2,1,80,0,0
115449,-119.047619047619,4,2,1,70,0,0
116037,-74.6268656716418,4,2,1,70,0,0
116478,-64.9350649350649,4,2,1,90,0,0
116919,-57.4712643678161,4,2,1,80,0,0
117213,-96.1538461538461,4,2,1,80,0,0
117802,-74.6268656716418,4,2,1,80,0,0
118831,-64.9350649350649,4,2,1,80,0,0
119272,-57.4712643678161,4,2,1,80,0,0
119566,-96.1538461538461,4,2,1,80,0,0
120155,-74.6268656716418,4,2,1,80,0,0
120449,-57.4712643678161,4,2,1,80,0,0
121184,-64.9350649350649,4,2,1,80,0,0
121625,-57.4712643678161,4,2,1,80,0,0
121919,-96.1538461538461,4,2,1,80,0,0
122507,-74.6268656716418,4,2,1,80,0,0
124860,-106.382978723404,4,2,1,70,0,0
125890,-42.7350427350427,4,2,1,70,0,0
125988,-42.7350427350427,4,2,1,5,0,0
126037,-74.6268656716418,4,2,1,80,0,0
127067,-57.4712643678161,4,2,1,80,0,0
127508,-74.6268656716418,4,2,1,80,0,0
128390,-57.4712643678161,4,2,1,80,0,0
128831,-74.6268656716418,4,2,1,80,0,0
131773,-57.4712643678161,4,2,1,80,0,0
132214,-74.6268656716418,4,2,1,80,0,0
134126,-57.4712643678161,4,2,1,80,0,0
134567,-74.6268656716418,4,2,1,80,0,0
135449,-185.185185185185,4,2,1,50,0,0
136626,-119.047619047619,4,2,1,50,0,0
137140,-119.047619047619,4,2,1,5,0,0
137214,-119.047619047619,4,2,1,50,0,0
137361,-294.117647058824,4,2,1,50,0,0
147214,-156.25,4,2,1,40,0,0
148390,292.682926829268,4,2,1,40,1,0
149560,294.117647058824,4,2,1,40,1,0
149560,-156.25,4,2,1,40,0,0
151912,300,4,2,1,40,1,0
151912,-156.25,4,2,1,40,0,0
153112,294.117647058824,4,2,1,40,1,0
153994,289.855072463768,4,2,1,40,1,0
154283,294.117647058824,4,2,1,40,1,0
154283,-156.25,4,2,1,40,0,0
156626,-106.382978723404,4,2,1,40,0,0
158988,291.26213592233,4,2,1,80,1,0
158988,-106.382978723404,4,2,1,40,0,0
160153,294.117647058824,4,2,1,60,1,0
161035,-106.382978723404,4,2,1,40,0,0
161329,292.682926829268,4,2,1,40,1,0
161329,-106.382978723404,4,2,1,40,0,0
163536,294.117647058824,4,2,1,40,1,0
163684,294.117647058824,4,2,1,40,1,0
163684,-106.382978723404,4,2,1,40,0,0
164273,-106.382978723404,4,2,1,70,0,0
165890,-106.382978723404,4,2,1,40,0,0
166184,-106.382978723404,4,2,1,50,0,0
166479,-106.382978723404,4,2,1,60,0,0
166773,-106.382978723404,4,2,1,70,0,0
167949,-57.4712643678161,4,2,1,70,0,0
168243,-106.382978723404,4,2,1,70,0,0
168390,-106.382978723404,4,2,1,60,0,0
168537,-106.382978723404,4,2,1,5,0,0
168684,-156.25,4,2,1,60,0,0
168832,-156.25,4,2,1,5,0,0
168979,-156.25,4,2,1,60,0,0
169126,-156.25,4,2,1,5,0,0
169567,-57.4712643678161,4,2,1,50,0,0
169861,-57.4712643678161,4,2,1,60,0,0
170155,-49.0196078431373,4,2,1,70,0,0
170449,-42.7350427350427,4,2,1,80,0,0
170596,-64.9350649350649,4,2,1,70,0,0
170890,-64.9350649350649,4,2,1,80,0,0
171036,-57.4712643678161,4,2,1,80,0,0
171331,-96.1538461538461,4,2,1,80,0,0
171625,-74.6268656716418,4,2,1,80,0,0
172213,-106.382978723404,4,2,1,80,0,0
172948,-64.9350649350649,4,2,1,80,0,0
173389,-57.4712643678161,4,2,1,80,0,0
173683,-96.1538461538461,4,2,1,80,0,0
174272,-74.6268656716418,4,2,1,80,0,0
176625,-119.047619047619,4,2,1,70,0,0
177213,-74.6268656716418,4,2,1,70,0,0
177654,-64.9350649350649,4,2,1,90,0,0
178095,-57.4712643678161,4,2,1,80,0,0
178389,-96.1538461538461,4,2,1,80,0,0
178978,-74.6268656716418,4,2,1,80,0,0
180007,-64.9350649350649,4,2,1,80,0,0
180448,-57.4712643678161,4,2,1,80,0,0
180742,-96.1538461538461,4,2,1,80,0,0
181331,-74.6268656716418,4,2,1,80,0,0
181625,-57.4712643678161,4,2,1,80,0,0
182360,-64.9350649350649,4,2,1,80,0,0
182801,-57.4712643678161,4,2,1,80,0,0
183095,-96.1538461538461,4,2,1,80,0,0
183683,-74.6268656716418,4,2,1,80,0,0
186036,-106.382978723404,4,2,1,70,0,0
187214,-106.382978723404,4,2,1,80,0,0
191920,-106.382978723404,4,2,1,90,0,0
193684,291.26213592233,4,2,1,90,1,0
193975,288.461538461538,4,2,1,90,1,0
194263,292.682926829268,4,2,1,90,1,0
196604,297.029702970297,4,2,1,50,1,0
196604,-106.382978723404,4,2,1,50,0,0
197792,294.117647058824,4,2,1,60,1,0
197792,-106.382978723404,4,2,1,50,0,0
198527,-42.7350427350427,4,2,1,60,0,0
199410,-119.047619047619,4,2,1,60,0,0
206027,-227.272727272727,4,2,1,60,0,0

[Colours]
Combo1 : 255,53,43
Combo2 : 115,255,21
Combo3 : 0,251,113
Combo4 : 149,226,255
Combo5 : 98,141,255
Combo6 : 238,23,255
Combo7 : 174,74,255
Combo8 : 255,221,26

[HitObjects]
485,288,1343,38,0,P|458:270|423:263,1,64.3800015717774,2|0,0:0|0:0,0:0:0:0:
288,363,1637,2,0,P|316:349|359:343,1,64.3800015717774,2|0,0:0|0:0,0:0:0:0:
218,226,1931,6,0,L|202:297,1,64.3800015717774,2|0,0:0|0:0,0:0:0:0:
370,368,2225,2,0,L|355:304,1,64.3800015717774,2|0,0:0|0:0,0:0:0:0:
472,105,2519,102,0,P|450:147|366:152,1,128.760003143555,2|2,0:0|0:0,0:0:0:0:
374,157,3107,2,0,P|369:126|355:89,1,64.3800015717774,2|0,0:0|0:0,0:0:0:0:
218,226,3401,2,0,P|221:196|233:160,1,64.3800015717774,2|0,0:0|0:0,0:0:0:0:
185,35,3695,6,0,P|213:47|238:79,1,64.3800015717774,2|0,0:0|0:0,0:0:0:0:
377,176,3990,2,0,P|352:196|316:204,1,64.3800015717774,2|0,0:0|0:0,0:0:0:0:
137,304,4284,102,0,P|200:313|274:335,1,128.760003143555,2|2,0:0|0:0,0:0:0:0:
262,330,4872,6,0,P|234:316|212:283,1,64.3800015717774,2|0,0:0|0:0,0:0:0:0:
70,367,5166,2,0,P|100:353|128:320,1,64.3800015717774,2|0,0:0|0:0,0:0:0:0:
228,193,5460,101,2,0:0:0:0:
212,198,5607,1,0,0:0:0:0:
86,84,5754,5,2,0:0:0:0:
179,120,5901,1,0,0:0:0:0:
93,224,6048,102,0,P|79:196|91:161,1,64.3800015717774,2|0,0:0|0:0,0:0:0:0:
259,60,6343,2,0,P|273:88|261:123,1,64.3800015717774,2|0,0:0|0:0,0:0:0:0:
155,43,6637,5,2,0:0:0:0:
161,25,6784,1,0,0:0:0:0:
264,118,6931,101,2,0:0:0:0:
307,243,7078,1,0,0:0:0:0:
426,185,7225,6,0,P|395:178|364:163,1,64.3800015717774,2|0,0:0|0:0,0:0:0:0:
223,378,7519,1,2,0:0:0:0:
334,286,7666,37,0,3:2:0:0:
307,243,7737,1,0,3:2:0:0:
256,238,7809,1,8,0:0:0:0:
204,296,7959,1,0,3:2:0:0:
121,195,8092,5,8,0:0:0:0:
312,316,8245,2,0,B|215:291|234:383|114:344,1,180.959998895508,4|0,3:2|3:2,0:0:0:0:
292,146,8686,102,0,B|340:155|397:102|397:102|403:102|403:102|354:137|367:202,1,200.969996013474,12|0,0:0|0:0,0:0:0:0:
442,171,8980,1,0,3:2:0:0:
306,51,9128,2,0,L|322:-3,2,53.9399978600465,2|2|10,3:2|0:0|0:0,0:0:0:0:
196,203,9422,2,0,P|234:162|303:157,1,107.879995720093,2|0,0:0|3:2,0:0:0:0:
156,43,9716,5,2,3:2:0:0:
271,233,9863,1,8,0:0:0:0:
308,80,10010,101,2,0:0:0:0:
282,152,10157,2,0,P|283:123|296:103,1,53.9399978600465,2|0,3:2|0:0,0:0:0:0:
391,98,10304,2,0,P|407:158|354:211,1,133.979997342316,2|8,3:2|0:2,0:2:0:0:
185,320,10598,6,0,B|113:305|146:269|56:254,1,135.719999171631,2|0,3:2|0:0,0:0:0:0:
57,246,10892,1,0,3:2:0:0:
0,359,11039,102,0,P|29:344|73:334,1,66.9899986711579,8|0,0:0|0:0,0:0:0:0:
201,221,11186,2,0,P|172:236|133:246,1,66.9899986711579,2|0,0:0|0:0,0:0:0:0:
198,321,11334,5,0,3:2:0:0:
91,166,11481,1,0,3:2:0:0:
136,384,11628,101,8,0:0:0:0:
295,263,11775,2,0,P|260:225|201:227,1,107.879995720093,2|0,0:0|3:2,0:0:0:0:
295,263,12069,5,2,3:2:0:0:
91,166,12216,1,10,0:0:0:0:
253,106,12363,1,2,0:0:0:0:
157,19,12510,101,0,3:2:0:0:
123,83,12657,1,0,3:2:0:0:
144,0,12804,1,10,0:2:0:0:
354,204,12951,6,0,P|337:272|324:368,1,135.719999171631,4|0,3:2|0:0,0:0:0:0:
334,349,13245,1,0,3:2:0:0:
452,169,13392,102,0,B|470:125|516:127|516:127|469:107|422:130|411:174,1,200.969996013474,12|2,0:0|0:0,0:0:0:0:
354,204,13686,1,0,3:2:0:0:
453,348,13834,2,0,P|467:321|467:283,2,66.9899986711579,0|0|8,3:2|3:2|0:0,0:0:0:0:
240,241,14128,6,0,P|240:168|304:88,1,161.819993580139,2|0,0:2|0:0,0:0:0:0:
345,39,14422,102,0,P|360:65|365:108,1,53.9399978600465,0|0,3:2|0:0,0:0:0:0:
240,241,14569,1,8,0:0:0:0:
152,127,14716,6,0,P|180:134|215:163,1,53.9399978600465,2|0,0:0|0:0,0:0:0:0:
370,251,14863,2,0,P|348:266|311:271,1,53.9399978600465,0|0,3:2|0:0,0:0:0:0:
199,372,15010,2,0,P|199:346|221:310,1,53.9399978600465,0|0,3:2|0:0,0:0:0:0:
239,241,15157,102,0,P|188:293|116:275,1,135.719999171631,8|0,0:0|0:0,0:0:0:0:
81,222,15451,22,0,P|77:188|61:144,2,66.9899986711579,2|0|0,3:1|0:0|3:2,0:0:0:0:
0,338,15672,1,2,0:1:0:0:
0,338,15745,2,0,P|10:310|16:270,1,66.9899986711579,10|0,0:0|0:0,0:0:0:0:
126,384,15892,2,0,P|117:355|114:309,1,66.9899986711579,2|0,0:1|0:0,0:0:0:0:
172,201,16039,85,0,3:2:0:0:
9,352,16186,1,0,3:2:0:0:
172,201,16334,2,0,P|249:219|315:289,1,161.819993580139,8|0,0:0|0:0,0:0:0:0:
355,340,16628,5,0,3:2:0:0:
238,302,16775,1,0,3:2:0:0:
409,269,16922,5,8,0:0:0:0:
203,381,17069,1,8,0:0:0:0:
277,138,17216,85,8,0:0:0:0:
355,340,17363,1,0,3:2:0:0:
306,273,17510,5,0,3:2:0:0:
332,201,17657,1,0,3:2:0:0:
505,349,17804,38,0,B|494:302|494:302|499:282|499:282|483:221,1,122.669998128204,4|0,3:2|0:2,0:2:0:0:
485,229,18098,6,0,P|427:228|408:273,1,107.879995720093,8|0,0:0|3:2,0:0:0:0:
196,97,18539,101,0,3:2:0:0:
65,0,18686,2,0,P|94:31|144:44,1,81.7799987521363,8|0,0:0|0:0,0:0:0:0:
194,95,18907,1,2,0:0:0:0:
194,95,18981,2,0,P|232:89|268:56,1,81.7799987521363,2|0,3:2|3:2,0:0:0:0:
130,153,19275,2,0,P|114:190|117:243,1,81.7799987521363,8|2,0:0|0:0,0:0:0:0:
53,68,19569,5,2,3:2:0:0:
130,43,19716,1,2,3:2:0:0:
0,187,19863,101,8,0:0:0:0:
204,312,20010,1,8,0:0:0:0:
204,312,20084,1,8,0:0:0:0:
204,312,20157,6,0,B|154:312|119:250|119:250|133:324|75:371,1,233.159988971009,4|8,3:2|0:0,0:0:0:0:
346,213,20598,2,0,P|376:160|365:77,1,128.760003143555,0|0,3:2|3:2,0:0:0:0:
215,216,21039,2,0,B|262:238|262:238|277:277|277:277|333:303,1,148.76999818396,10|0,0:0|0:0,0:0:0:0:
345,308,21334,101,2,3:2:0:0:
265,135,21554,1,2,0:1:0:0:
268,124,21628,1,8,0:0:0:0:
113,230,21775,1,2,0:0:0:0:
37,98,21922,6,0,P|58:110|88:122,1,49.5899993946533,0|0,3:2|0:0,0:0:0:0:
215,216,22069,1,0,3:2:0:0:
32,351,22216,1,8,0:0:0:0:
31,250,22363,101,8,0:0:0:0:
31,250,22436,1,8,0:0:0:0:
31,250,22510,6,0,B|156:214|112:349|280:310,1,233.159988971009,4|8,3:2|0:0,0:0:0:0:
417,231,22951,2,0,B|343:217|366:261|277:241,1,128.760003143555,0|0,3:2|3:2,0:0:0:0:
133,127,23392,102,0,B|191:115|191:115|212:212,1,148.76999818396,8|0,0:0|0:0,0:0:0:0:
215,216,23686,1,0,3:2:0:0:
325,339,23834,1,0,3:2:0:0:
322,354,23907,1,0,3:2:0:0:
318,378,23981,1,8,0:0:0:0:
512,151,24275,5,0,3:2:0:0:
417,231,24422,1,0,3:2:0:0:
512,384,24569,101,8,0:0:0:0:
336,178,24716,1,8,0:2:0:0:
336,178,24789,1,8,0:2:0:0:
336,178,24863,6,0,P|446:213|458:327,1,233.159988971009,4|8,3:2|0:0,0:0:0:0:
401,363,25304,1,0,3:2:0:0:
512,151,25451,2,0,P|486:167|451:172,1,64.3800015717774,2|0,0:0|3:2,0:0:0:0:
325,264,25745,102,0,P|263:237|259:142,1,148.76999818396,10|0,0:2|0:0,0:0:0:0:
349,114,26039,2,0,L|336:177,2,64.3800015717774,0|0|8,3:2|3:2|0:0,0:0:0:0:
351,105,26628,5,8,0:0:0:0:
462,317,26775,1,8,0:0:0:0:
248,163,26922,101,8,0:0:0:0:
173,378,27069,1,8,0:0:0:0:
334,205,27216,54,0,P|340:237|354:280,1,53.9399978600465,4|0,3:2|0:0,0:0:0:0:
345,334,27363,2,0,P|340:312|328:281,1,53.9399978600465,2|0,0:0|0:0,0:0:0:0:
123,199,27510,6,0,P|64:252|90:336,1,161.819993580139,12|0,0:0|0:0,0:0:0:0:
79,325,27804,2,0,P|119:338|169:365,1,90.4799994477539,2|0,3:2|3:2,0:0:0:0:
334,205,28098,2,0,P|378:200|421:185,1,90.4799994477539,10|0,0:0|0:2,0:0:0:0:
227,16,28392,101,2,3:2:0:0:
302,0,28539,1,0,3:2:0:0:
345,62,28686,1,10,0:0:0:0:
210,179,28834,2,0,P|165:194|114:198,1,90.4799994477539,2|0,0:0|3:2,0:0:0:0:
315,322,29128,1,2,3:2:0:0:
315,322,29275,2,0,P|355:307|408:297,1,90.4799994477539,8|2,0:0|0:0,0:0:0:0:
446,233,29495,1,2,0:0:0:0:
446,233,29569,6,0,P|482:275|467:341,1,116.579994485504,0|0,3:2|3:2,0:0:0:0:
210,179,29863,2,0,P|215:113|285:78,1,135.719999171631,8|0,0:0|0:0,0:0:0:0:
341,110,30157,2,0,P|330:137|325:172,1,45.239999723877,0|0,3:2|0:0,0:0:0:0:
184,265,30304,1,0,3:2:0:0:
184,265,30378,1,0,3:2:0:0:
184,265,30451,2,0,P|200:226|210:168,1,90.4799994477539,8|0,0:0|0:0,0:0:0:0:
315,322,30745,101,2,3:2:0:0:
280,257,30892,1,0,3:2:0:0:
77,373,31039,1,8,0:0:0:0:
100,299,31186,1,2,0:0:0:0:
213,372,31334,5,2,3:2:0:0:
175,218,31481,1,0,3:2:0:0:
140,65,31628,1,8,0:0:0:0:
360,161,31775,101,2,0:0:0:0:
360,161,31848,1,2,0:0:0:0:
360,161,31922,2,0,P|314:245|221:226,1,174.869991728257,4|0,3:2|0:0,0:0:0:0:
194,298,32216,2,0,P|169:260|180:208,1,90.4799994477539,8|0,0:0|0:0,0:0:0:0:
319,59,32510,5,2,3:2:0:0:
481,179,32657,1,0,3:2:0:0:
429,239,32804,2,0,P|383:248|332:268,1,90.4799994477539,10|0,0:0|0:0,0:0:0:0:
508,273,33098,101,2,3:2:0:0:
360,161,33245,1,0,3:2:0:0:
319,354,33392,5,8,0:0:0:0:
481,179,33539,2,0,P|487:131|504:82,1,90.4799994477539,2|0,0:0|3:2,0:0:0:0:
342,263,33834,101,0,3:2:0:0:
204,143,33981,2,0,P|196:217|173:286,1,135.719999171631,8|0,0:0|0:0,0:0:0:0:
167,287,34275,5,2,3:2:0:0:
323,136,34422,1,0,3:2:0:0:
323,136,34495,1,0,3:2:0:0:
323,136,34569,1,8,0:0:0:0:
136,49,34716,101,0,3:2:0:0:
279,220,34863,2,0,P|267:265|260:324,1,90.4799994477539,12|0,0:0|0:0,0:0:0:0:
384,185,35157,1,0,3:2:0:0:
219,384,35304,6,0,P|271:325|370:346,1,180.959998895508,8|0,0:0|3:2,0:0:0:0:
196,154,35745,2,0,P|149:143|96:125,1,90.4799994477539,8|0,0:0|0:0,0:0:0:0:
28,171,36039,101,8,0:0:0:0:
229,65,36186,1,8,0:0:0:0:
151,25,36334,5,0,3:0:0:0:
212,160,36481,1,0,3:2:0:0:
90,274,36628,38,0,P|104:206|108:128,2,146.159995539551,4|0|2,3:2|3:2|3:2,0:0:0:0:
83,280,37510,1,2,3:2:0:0:
263,343,37657,5,2,0:0:0:0:
263,343,37731,1,2,0:0:0:0:
263,343,37804,2,0,P|260:293|179:260,1,146.159995539551,2|2,3:2|3:2,0:0:0:0:
71,384,38245,102,0,P|105:373|146:368,1,73.0799977697755,2|0,0:0|3:2,0:0:0:0:
286,251,38539,2,0,P|321:263|363:272,1,73.0799977697755,2|0,0:0|3:2,0:0:0:0:
411,383,38981,6,0,B|387:307|456:326|428:236,1,146.159995539551,2|0,3:2|3:2,0:2:0:0:
315,130,39422,1,2,0:0:0:0:
332,55,39569,2,0,P|295:60|259:72,1,73.0799977697755,2|0,3:2|0:2,0:2:0:0:
383,179,39863,1,2,3:2:0:0:
326,233,40010,102,0,P|268:225|192:162,1,146.159995539551,2|0,0:0|0:0,0:0:0:0:
179,99,40451,1,2,3:2:0:0:
28,206,40598,2,0,P|35:172|42:123,1,73.0799977697755,2|0,0:0|3:2,0:0:0:0:
187,275,40892,2,0,P|128:281|39:330,1,146.159995539551,2|0,0:0|0:0,0:0:0:0:
51,319,41260,1,2,0:0:0:0:
51,319,41334,6,0,P|86:328|125:351,1,73.0799977697755,2|0,3:2|0:0,0:0:0:0:
214,207,41628,2,0,P|187:239|179:278,1,73.0799977697755,0|0,3:2|0:0,0:0:0:0:
298,365,41922,102,0,P|261:355|219:332,1,73.0799977697755,2|0,3:2|0:0,0:0:0:0:
28,206,42216,2,0,P|65:196|107:173,1,73.0799977697755,0|0,3:2|0:0,0:0:0:0:
278,26,42510,6,0,P|231:16|193:102,1,146.159995539551,2|0,3:2|3:2,0:0:0:0:
168,160,42951,1,0,0:0:0:0:
168,160,43098,2,0,P|233:179|319:224,1,146.159995539551,2|0,3:2|3:2,0:0:0:0:
461,48,43686,102,0,P|403:32|350:103,1,146.159995539551,2|0,3:2|3:2,0:0:0:0:
294,140,44128,1,0,0:0:0:0:
294,140,44275,2,0,P|303:171|308:224,1,73.0799977697755,2|0,3:2|0:0,0:0:0:0:
420,272,44569,2,0,P|411:303|406:356,1,73.0799977697755,0|0,3:2|0:0,0:0:0:0:
318,383,44863,6,0,B|239:365|281:321|190:304,1,146.159995539551,2|0,3:2|3:2,0:0:0:0:
307,211,45304,1,0,0:0:0:0:
197,312,45451,2,0,P|230:307|274:282,1,73.0799977697755,2|0,3:2|0:0,0:0:0:0:
129,259,45745,1,2,3:2:0:0:
332,61,46039,102,0,P|317:99|308:226,2,153.120004672852,6|2|2,0:0|0:0|0:0,0:0:0:0:
340,68,47640,5,0,3:2:0:0:
340,68,47710,1,0,3:2:0:0:
340,68,47781,2,0,P|317:84|261:88,1,66.9899986711579,10|0,0:0|0:0,0:0:0:0:
136,227,47931,2,0,P|142:192|163:164,1,66.9899986711579,0|0,3:2|0:0,0:0:0:0:
29,30,48069,22,0,P|52:55|94:72,1,66.9899986711579,10|0,0:0|0:0,0:0:0:0:
240,228,48234,2,0,B|133:205|157:304|36:269,1,200.969996013474,4|0,3:2|0:0,0:0:0:0:
45,268,48528,1,0,3:2:0:0:
220,320,48675,102,0,B|281:340|342:272|342:272|304:313|311:354,1,227.070001905647,12|0,0:2|0:0,0:0:0:0:
474,242,48969,6,0,B|434:248|390:200|390:200|432:241|423:290,1,180.959998895508,4|8,3:2|0:0,0:0:0:0:
314,110,49410,1,2,0:0:0:0:
408,50,49557,102,0,P|396:78|391:114,1,58.2899972427522,2|0,3:2|0:0,0:0:0:0:
240,228,49704,2,0,P|251:199|257:164,1,58.2899972427522,0|0,3:2|0:0,0:0:0:0:
163,30,49851,6,0,P|95:18|55:117,1,174.869991728257,8|0,0:0|0:0,0:0:0:0:
39,112,50145,1,2,3:2:0:0:
238,0,50292,1,0,3:2:0:0:
21,25,50439,101,10,0:0:0:0:
240,228,50586,2,0,P|167:212|107:301,1,174.869991728257,4|0,3:2|0:0,0:0:0:0:
50,328,50880,2,0,P|73:347|108:354,1,58.2899972427522,0|0,3:2|0:0,0:0:0:0:
320,272,51027,6,0,P|330:211|269:143,1,151.380001270432,12|0,0:0|0:0,0:0:0:0:
163,30,51322,2,0,P|157:74|139:130,1,90.4799994477539,4|0,3:2|3:2,3:2:0:0:
84,167,51542,1,0,3:2:0:0:
84,167,51616,102,0,P|73:151|72:98,1,58.2899972427522,8|0,0:0|0:0,0:0:0:0:
237,0,51763,2,0,P|248:16|249:69,1,58.2899972427522,2|0,3:2|0:0,0:0:0:0:
469,275,51910,5,0,3:2:0:0:
276,145,52057,1,0,3:2:0:0:
443,36,52204,102,0,P|403:25|348:89,1,122.669998128204,10|0,0:2|0:2,0:2:0:0:
341,85,52498,1,0,3:2:0:0:
201,218,52645,1,0,3:2:0:0:
253,53,52792,5,8,0:0:0:0:
476,257,52939,2,0,B|391:275|391:275|317:226|360:182,1,200.969996013474,4|0,3:2|0:0,0:0:0:0:
367,174,53233,1,0,3:2:0:0:
153,344,53380,102,0,B|281:304|281:304|231:333|231:379,1,227.070001905647,12|0,0:0|0:0,0:0:0:0:
130,182,53674,2,0,B|27:138|27:138|64:161|68:206,1,180.959998895508,4|8,3:2|0:0,0:0:0:0:
253,53,54116,1,2,0:0:0:0:
194,0,54263,6,0,P|179:29|176:62,1,58.2899972427522,2|0,3:2|0:0,0:0:0:0:
305,154,54410,1,0,3:2:0:0:
305,154,54483,1,0,3:2:0:0:
305,154,54557,2,0,P|335:108|332:48,1,116.579994485504,8|0,0:0|0:0,0:0:0:0:
130,182,54851,101,0,3:2:0:0:
307,294,54998,1,0,3:2:0:0:
125,370,55145,6,0,P|137:341|146:300,1,58.2899972427522,8|0,0:0|0:0,0:0:0:0:
360,219,55292,2,0,P|420:280|406:369,1,174.869991728257,4|0,3:2|0:0,0:0:0:0:
400,376,55586,1,0,3:2:0:0:
215,255,55733,1,8,0:0:0:0:
125,370,55880,101,0,3:2:0:0:
308,295,56027,1,0,3:2:0:0:
130,182,56174,5,0,3:2:0:0:
239,379,56322,2,0,B|227:340|227:340|232:309|232:309|216:256,1,116.579994485504,8|0,0:0|0:0,0:0:0:0:
331,65,56616,102,0,P|383:45|383:117,1,146.159995539551,4|8,3:2|0:0,0:0:0:0:
331,65,57204,6,0,P|301:58|265:36,1,58.2899972427522,2|0,3:2|0:0,0:0:0:0:
462,207,57351,1,0,3:2:0:0:
462,207,57424,1,0,3:2:0:0:
462,207,57498,2,0,P|474:235|476:270,1,58.2899972427522,10|0,0:0|0:0,0:0:0:0:
491,122,57645,102,0,B|377:96|407:202|288:172,1,200.969996013474,4|0,3:2|0:0,0:0:0:0:
253,230,57939,2,0,P|233:198|233:165,1,66.9899986711579,2|0,3:2|0:0,0:0:0:0:
30,19,58086,6,0,P|130:11|162:129,1,227.070001905647,12|0,0:0|0:0,0:0:0:0:
344,267,58380,102,0,P|277:256|224:347,1,180.959998895508,4|8,3:2|0:0,0:0:0:0:
344,267,58822,1,2,0:0:0:0:
167,117,58969,6,0,P|159:152|147:189,1,58.2899972427522,2|0,3:2|0:0,0:0:0:0:
317,379,59116,1,0,3:2:0:0:
317,379,59189,1,0,3:2:0:0:
317,379,59263,2,0,P|324:322|345:262,2,116.579994485504,10|0|2,0:0|0:0|3:2,0:0:0:0:
462,176,59704,1,0,3:2:0:0:
390,199,59851,1,8,0:0:0:0:
491,359,59998,102,0,P|528:308|508:238,1,133.979997342316,4|0,3:2|0:0,0:0:0:0:
347,129,60292,1,0,3:2:0:0:
499,43,60439,6,0,B|455:84|366:51|366:51|414:68|425:117,1,227.070001905647,12|0,0:0|0:0,0:0:0:0:
347,129,60733,2,0,B|305:129|272:156|272:156|203:114|242:80,1,180.959998895508,4|8,3:2|0:0,0:0:0:0:
390,199,61174,1,2,0:0:0:0:
225,346,61322,102,0,P|232:318|239:275,1,58.2899972427522,2|0,3:2|0:0,0:0:0:0:
390,199,61469,2,0,P|383:227|376:270,1,58.2899972427522,2|0,3:2|0:0,0:0:0:0:
512,343,61616,6,0,B|493:303|433:272|381:297|381:297|418:309|434:350,1,227.070001905647,10|0,0:0|0:0,0:0:0:0:
360,369,61910,1,2,3:2:0:0:
237,289,62057,1,0,3:0:0:0:
276,281,62130,1,0,3:0:0:0:
305,316,62204,1,10,0:0:0:0:
134,384,62351,102,0,P|102:311|130:178,1,200.969996013474,6|0,3:2|0:0,0:0:0:0:
180,146,62645,1,0,3:2:0:0:
56,17,62792,6,0,B|147:43|147:43|117:41|87:59,1,151.380001270432,14|0,0:2|0:2,3:2:0:0:
255,187,63086,2,0,B|362:163|362:163|321:167|278:138,1,180.959998895508,6|8,3:2|0:0,0:0:0:0:
478,46,63527,1,2,0:0:0:0:
410,4,63674,2,0,P|402:38|390:74,1,58.2899972427522,2|0,3:2|0:0,0:0:0:0:
479,227,63822,1,0,3:2:0:0:
482,230,63895,1,0,3:2:0:0:
486,234,63969,2,0,P|495:178|518:106,1,116.579994485504,10|0,0:0|0:0,0:0:0:0:
257,191,64263,101,0,3:2:0:0:
345,361,64410,1,0,3:2:0:0:
486,234,64557,6,0,P|456:245|416:251,1,58.2899972427522,8|0,0:0|0:0,0:0:0:0:
283,310,64704,2,0,B|378:300|348:365|457:355,1,174.869991728257,4|0,3:2|0:0,0:0:0:0:
456,349,64998,1,0,3:2:0:0:
257,191,65145,102,0,P|206:220|215:273,1,116.579994485504,10|0,0:0|0:0,0:0:0:0:
184,343,65439,5,12,0:0:0:0:
326,145,65586,1,0,3:2:0:0:
257,191,65733,101,8,3:0:0:0:
298,292,65880,1,8,3:0:0:0:
355,236,66027,6,0,P|367:153|385:59,1,163.559997504273,4|0,3:2|0:2,0:2:0:0:
381,74,66616,102,0,P|443:105|451:187,1,151.380001270432,4|0,3:2|0:0,0:0:0:0:
298,292,66910,1,8,3:0:0:0:
109,191,67057,6,0,P|29:260|64:342,1,203.580000776596,6|0,0:0|3:2,0:0:0:0:
59,338,67351,1,0,3:2:0:0:
216,230,67498,2,0,P|206:193|202:127,2,81.7799987521363,8|0|8,0:0|3:2|0:0,0:0:0:0:
214,239,68104,101,0,3:2:0:0:
83,78,68254,1,8,0:0:0:0:
109,191,68552,5,0,3:2:0:0:
234,38,68699,1,8,0:0:0:0:
234,38,68993,102,0,P|204:27|164:10,1,64.3800015717774,0|0,3:2|3:2,0:2:0:0:
294,166,69287,1,8,0:0:0:0:
407,122,69434,5,8,0:0:0:0:
407,122,69508,1,8,0:0:0:0:
407,122,69582,1,0,3:2:0:0:
332,93,69729,1,0,3:2:0:0:
275,245,69876,1,8,0:0:0:0:
349,217,70023,1,0,3:2:0:0:
294,166,70170,1,8,0:0:0:0:
294,166,70464,101,0,3:2:0:0:
411,264,70611,1,8,0:0:0:0:
421,187,70906,5,0,3:2:0:0:
265,330,71053,1,8,0:0:0:0:
265,330,71347,102,0,P|297:339|330:353,1,64.3800015717774,0|0,3:2|3:2,0:0:0:0:
181,234,71641,1,8,0:0:0:0:
87,351,71789,5,8,0:0:0:0:
87,351,71862,1,8,0:0:0:0:
87,351,71936,1,0,3:2:0:0:
154,313,72083,1,0,3:2:0:0:
248,182,72230,1,8,0:0:0:0:
172,154,72377,1,0,3:2:0:0:
181,234,72524,1,8,0:0:0:0:
181,234,72818,101,0,3:2:0:0:
101,62,72966,1,8,0:0:0:0:
171,29,73260,5,0,3:2:0:0:
82,152,73407,1,8,0:0:0:0:
82,152,73690,102,0,P|88:187|94:222,1,64.3800015717774,0|0,3:2|3:2,0:0:0:0:
0,105,73973,1,8,0:0:0:0:
74,75,74126,1,0,3:2:0:0:
159,258,74280,5,8,0:0:0:0:
93,215,74434,2,0,P|72:274|69:351,2,128.760003143555,0|0|0,3:2|3:2|3:2,0:0:0:0:
91,204,75316,101,0,3:2:0:0:
279,363,75463,2,0,P|251:378|210:384,1,64.3800015717774,8|0,0:2|0:0,0:0:0:0:
164,338,75682,1,8,3:0:0:0:
164,338,75755,5,0,3:2:0:0:
289,248,75902,1,8,3:0:0:0:
353,292,76048,101,0,3:2:0:0:
432,384,76194,1,8,3:0:0:0:
495,330,76341,5,0,3:2:0:0:
502,315,76487,1,0,3:2:0:0:
416,250,76632,6,0,P|354:255|280:335,1,163.559997504273,4|8,3:2|0:0,0:0:0:0:
96,218,77074,2,0,P|45:208|4:98,1,163.559997504273,0|0,3:2|3:2,3:2:0:0:
221,8,77515,2,0,P|209:43|202:88,1,81.7799987521363,10|0,0:0|0:0,0:0:0:0:
136,126,77734,1,2,0:0:0:0:
136,126,77809,5,2,3:2:0:0:
106,56,77956,1,0,3:2:0:0:
257,153,78103,1,8,0:0:0:0:
291,85,78250,1,2,0:0:0:0:
188,195,78397,1,0,3:2:0:0:
188,195,78544,2,0,P|198:236|204:282,1,81.7799987521363,0|8,3:2|0:0,0:0:0:0:
374,370,78837,1,8,0:0:0:0:
348,384,78912,1,8,0:0:0:0:
305,359,78986,102,0,P|294:276|417:237,1,215.759991440186,4|8,3:2|0:0,0:0:0:0:
460,184,79418,2,0,P|503:234|486:302,1,128.760003143555,0|0,3:2|3:2,0:0:0:0:
382,136,79859,2,0,P|386:97|407:50,1,81.7799987521363,10|0,0:0|0:0,0:0:0:0:
358,0,80079,1,2,0:0:0:0:
358,0,80153,5,2,3:2:0:0:
421,43,80300,1,0,3:2:0:0:
309,161,80447,1,10,0:0:0:0:
382,136,80594,1,2,0:0:0:0:
238,27,80741,1,2,3:2:0:0:
238,27,80888,2,0,P|234:70|216:114,1,81.7799987521363,0|8,3:2|0:0,0:0:0:0:
48,227,81182,1,8,0:0:0:0:
25,199,81255,1,8,0:0:0:0:
51,157,81329,102,0,P|123:153|180:274,1,215.759991440186,4|8,3:2|0:0,0:0:0:0:
236,324,81764,2,0,P|193:376|130:372,1,128.760003143555,0|0,3:2|3:2,0:0:0:0:
75,320,82205,6,0,P|86:281|91:239,1,81.7799987521363,10|0,0:0|0:0,0:0:0:0:
281,163,82499,2,0,P|270:202|265:244,1,81.7799987521363,2|0,3:2|3:2,0:0:0:0:
127,43,82792,102,0,P|165:56|209:67,1,81.7799987521363,10|0,0:0|0:0,0:0:0:0:
343,266,83086,2,0,P|304:252|261:242,1,81.7799987521363,2|0,3:2|3:2,0:0:0:0:
454,162,83380,1,8,0:0:0:0:
375,64,83527,5,8,0:0:0:0:
375,64,83601,1,8,0:0:0:0:
375,64,83674,2,0,P|302:106|319:187,1,163.559997504273,4|8,3:2|0:0,0:0:0:0:
264,242,84116,1,2,3:2:0:0:
436,319,84263,2,0,P|425:281|424:227,1,81.7799987521363,2|0,3:2|3:2,0:0:0:0:
284,355,84557,2,0,P|230:365|171:385,1,107.879995720093,12|0,0:2|0:2,0:2:0:0:
32,193,84851,2,0,P|95:198|140:256,1,128.760003143555,2|8,3:2|0:0,0:0:0:0:
136,244,85439,101,8,0:0:0:0:
0,384,85586,1,8,0:0:0:0:
203,295,85733,5,8,0:0:0:0:
0,121,85880,1,8,0:0:0:0:
191,21,86027,6,0,P|168:104|138:266,1,233.159988971009,4|8,3:2|0:0,0:0:0:0:
5,49,86469,5,0,3:2:0:0:
8,52,86542,1,0,3:2:0:0:
12,56,86616,2,0,P|17:79|21:108,1,46.9800011469727,0|0,3:2|3:2,0:0:0:0:
241,227,86910,1,8,0:0:0:0:
90,312,87057,1,2,0:3:0:0:
223,364,87204,101,0,3:2:0:0:
203,295,87351,1,0,3:2:0:0:
80,165,87498,5,8,0:0:0:0:
109,96,87645,2,0,P|131:89|165:84,1,46.9800011469727,2|0,0:0|3:2,0:0:0:0:
12,56,87939,101,4,3:2:0:0:
241,227,88086,1,8,0:0:0:0:
203,295,88233,5,2,0:0:0:0:
409,122,88380,2,0,L|394:180,1,46.9800011469727,0|0,3:2|3:2,0:0:0:0:
444,229,88674,101,8,0:0:0:0:
316,75,88822,1,0,3:2:0:0:
319,78,88895,1,0,3:2:0:0:
323,82,88969,1,0,3:2:0:0:
352,7,89116,1,0,3:2:0:0:
481,162,89263,1,8,0:0:0:0:
444,229,89410,1,2,0:3:0:0:
439,46,89557,5,0,3:2:0:0:
512,26,89704,1,0,3:2:0:0:
397,167,89851,101,8,0:0:0:0:
326,193,89998,1,4,0:3:0:0:
198,77,90145,5,0,3:2:0:0:
339,119,90292,1,4,3:3:0:0:
481,162,90439,1,8,0:0:0:0:
197,77,90733,101,0,3:2:0:0:
294,311,90880,6,0,P|301:290|306:259,1,46.9800011469727,0|8,3:2|3:2,0:0:0:0:
101,366,91174,1,8,3:0:0:0:
104,369,91248,1,8,3:0:0:0:
108,373,91322,2,0,P|103:353|98:315,1,46.9800011469727,0|0,3:2|3:2,0:0:0:0:
213,207,91616,101,8,0:0:0:0:
139,226,91763,1,2,0:3:0:0:
259,379,91910,1,0,3:2:0:0:
184,352,92057,1,0,3:2:0:0:
23,296,92204,5,8,0:0:0:0:
213,207,92351,1,4,0:3:0:0:
80,108,92498,101,0,3:2:0:0:
58,182,92645,1,4,0:3:0:0:
259,379,92792,2,0,P|266:343|277:308,1,70.470001720459,8|0,0:0|0:0,0:0:0:0:
285,303,93086,5,0,3:2:0:0:
184,352,93233,1,0,3:2:0:0:
299,222,93380,101,8,0:0:0:0:
398,305,93527,1,0,3:2:0:0:
401,308,93601,1,0,3:2:0:0:
405,312,93674,1,0,3:2:0:0:
478,293,93822,1,0,3:2:0:0:
352,384,93969,1,8,0:0:0:0:
423,227,94116,5,0,3:2:0:0:
426,230,94189,1,0,3:2:0:0:
430,234,94263,2,0,P|424:213|419:179,1,46.9800011469727,0|0,3:2|3:2,0:0:0:0:
356,140,94557,1,8,0:0:0:0:
360,144,94851,85,8,0:0:0:0:
495,60,94998,1,8,0:3:0:0:
464,126,95146,1,0,3:2:0:0:
296,50,95292,1,0,3:2:0:0:
244,109,95439,38,0,P|163:131|97:156,1,146.159995539551,4|0,3:2|0:0,0:0:0:0:
212,38,95880,2,0,P|175:50|138:59,1,73.0799977697755,0|0,3:2|0:0,0:0:0:0:
279,177,96322,6,0,P|243:185|208:197,1,73.0799977697755,0|0,3:2|0:0,0:0:0:0:
13,275,96616,2,0,P|114:304|244:366,1,233.159988971009,8|2,0:0|0:0,0:0:0:0:
180,300,97057,1,2,0:0:0:0:
81,383,97204,1,2,0:0:0:0:
154,372,97351,1,2,0:0:0:0:
329,62,97792,102,0,P|273:109|298:199,1,146.159995539551,0|0,3:2|0:0,0:0:0:0:
410,77,98233,2,0,P|408:42|384:-1,1,73.0799977697755,0|0,3:2|0:0,0:0:0:0:
355,133,98674,6,0,P|382:154|432:153,1,73.0799977697755,0|0,3:2|0:0,0:0:0:0:
454,304,98969,102,0,P|443:199|406:66,1,233.159988971009,8|2,0:0|0:0,0:0:0:0:
481,112,99410,1,2,0:0:0:0:
419,156,99557,1,2,0:0:0:0:
493,232,99704,1,2,0:0:0:0:
208,344,99998,5,2,0:0:0:0:
208,344,100072,1,2,0:0:0:0:
208,344,100146,2,0,P|201:268|187:185,1,146.159995539551,2|0,3:2|0:0,0:0:0:0:
286,358,100614,2,0,P|281:320|279:273,1,73.0799977697755,0|0,3:2|0:0,0:0:0:0:
129,384,101038,102,0,P|126:347|122:311,1,73.0799977697755,0|0,3:2|0:0,0:0:0:0:
286,195,101332,2,0,P|366:195|436:335,1,233.159988971009,8|0,0:0|0:0,0:0:0:0:
503,354,101773,1,2,0:0:0:0:
439,314,101920,6,0,P|405:325|391:384,1,93.9600022939454,2|0,0:0|0:0,0:0:0:0:
42,113,102508,102,0,B|111:89|111:89|166:148,1,146.159995539551,2|0,3:2|0:0,0:0:0:0:
236,125,102949,2,0,B|239:164|239:164|215:203,1,73.0799977697755,0|0,3:2|0:0,0:0:0:0:
213,268,103390,6,0,B|177:264|177:264|149:228,1,73.0799977697755,0|0,3:2|0:0,0:0:0:0:
76,217,103684,102,0,L|309:191,2,233.159988971009,8|0|8,0:0|3:2|0:0,0:0:0:0:
24,270,104420,1,0,0:0:0:0:
0,123,104567,5,0,3:2:0:0:
164,243,104714,1,0,3:2:0:0:
164,243,104787,1,0,3:2:0:0:
164,243,104861,102,0,P|151:294|145:356,1,111.36,8|0,0:0|3:2,0:0:0:0:
307,191,105302,1,0,3:2:0:0:
443,341,105449,5,0,3:2:0:0:
409,261,105596,1,0,3:2:0:0:
222,169,105743,101,0,3:2:0:0:
253,248,105890,1,0,3:2:0:0:
379,79,106037,5,8,3:2:0:0:
286,315,106184,1,8,3:2:0:0:
189,95,106332,101,8,3:2:0:0:
325,384,106479,1,8,3:2:0:0:
512,138,106626,86,0,B|473:149|473:149|469:154|469:154|416:173,1,88.740000541626,12|0,0:0|0:0,0:0:0:0:
145,352,106773,6,0,B|106:341|106:341|102:336|102:336|49:317,1,88.740000541626,12|0,0:0|0:0,0:0:0:0:
62,321,107067,38,0,B|39:366|-5:368|-5:368|58:379|93:319,1,200.969996013474,4|0,3:2|0:0,0:0:0:0:
146,272,107361,1,0,3:2:0:0:
87,168,107508,6,0,B|59:124|5:123|5:123|66:149|89:227,1,227.070001905647,14|0,0:0|0:0,0:0:0:0:
146,272,107802,2,0,L|259:252,1,90.4799994477539,6|0,3:2|3:2,0:0:0:0:
308,242,108023,1,0,3:2:0:0:
320,240,108096,1,8,0:0:0:0:
213,179,108243,1,2,0:0:0:0:
403,129,108390,102,0,P|392:158|386:194,1,58.2899972427522,2|0,3:2|0:0,0:0:0:0:
219,312,108537,2,0,P|229:282|236:247,1,58.2899972427522,0|0,3:2|0:0,0:0:0:0:
450,338,108684,6,0,B|358:322|381:396|287:378,1,174.869991728257,8|0,0:0|0:0,0:0:0:0:
277,372,108979,1,0,3:2:0:0:
143,154,109126,1,0,3:2:0:0:
176,146,109199,1,0,3:2:0:0:
213,179,109273,1,8,0:0:0:0:
63,341,109420,102,0,B|25:342|3:370|3:370|20:315|93:321,1,174.869991728257,4|0,3:2|0:0,0:0:0:0:
147,273,109714,1,0,3:2:0:0:
187,366,109861,6,0,P|96:361|49:245,1,227.070001905647,12|0,0:0|0:0,0:0:0:0:
272,122,110155,102,0,P|254:191|246:260,1,135.719999171631,4|0,3:2|0:0,0:0:0:0:
236,266,110449,5,8,0:0:0:0:
93,84,110596,1,2,0:0:0:0:
233,26,110743,101,2,3:2:0:0:
67,166,110890,1,0,3:2:0:0:
233,26,111037,6,0,P|290:66|276:127,1,122.669998128204,8|0,0:0|0:0,0:0:0:0:
272,122,111332,101,2,3:2:0:0:
119,4,111479,1,0,3:2:0:0:
180,177,111626,5,8,0:0:0:0:
364,1,111773,2,0,P|266:40|291:142,1,200.969996013474,4|0,3:2|0:0,0:0:0:0:
333,173,112067,2,0,P|348:144|347:98,1,66.9899986711579,0|0,3:2|0:0,0:0:0:0:
180,177,112214,102,0,B|47:205|47:205|94:195|145:235,1,227.070001905647,12|0,0:0|0:0,0:0:0:0:
270,324,112508,2,0,B|377:348|377:348|332:344|304:373,1,180.959998895508,4|8,3:2|0:0,0:0:0:0:
484,253,112949,1,2,0:0:0:0:
512,346,113096,6,0,P|482:331|445:321,1,58.2899972427522,0|0,3:2|0:0,0:0:0:0:
339,129,113243,1,0,3:2:0:0:
339,129,113317,1,0,3:2:0:0:
339,129,113390,2,0,P|371:174|451:171,1,116.579994485504,10|0,0:0|0:0,0:0:0:0:
270,324,113684,101,0,3:2:0:0:
432,185,113832,1,0,3:2:0:0:
222,63,113979,6,0,P|232:93|239:135,1,58.2899972427522,8|0,0:0|0:0,0:0:0:0:
397,268,114126,2,0,P|406:184|435:83,1,174.869991728257,4|0,3:2|0:0,0:0:0:0:
440,84,114420,101,0,3:2:0:0:
277,194,114567,1,8,0:0:0:0:
320,129,114714,1,0,3:2:0:0:
472,299,114861,1,0,3:2:0:0:
459,225,115008,1,0,3:2:0:0:
293,292,115155,5,10,0:0:0:0:
369,384,115302,1,2,0:0:0:0:
293,292,115449,102,0,P|226:293|186:357,1,146.159995539551,4|8,3:2|0:0,0:0:0:0:
186,354,116037,6,0,P|158:367|119:375,1,58.2899972427522,4|0,3:2|0:0,0:0:0:0:
301,301,116184,1,0,3:2:0:0:
301,301,116258,1,0,3:2:0:0:
301,301,116332,2,0,P|309:274|317:226,1,58.2899972427522,8|0,0:0|0:0,0:0:0:0:
128,64,116479,102,0,P|54:105|91:219,1,200.969996013474,4|0,3:2|0:0,0:0:0:0:
63,286,116773,2,0,P|94:282|138:249,1,66.9899986711579,0|0,3:2|0:0,0:0:0:0:
265,133,116920,6,0,P|341:126|437:243,1,227.070001905647,12|0,0:0|0:0,0:0:0:0:
344,376,117214,102,0,P|331:305|312:237,1,135.719999171631,4|0,3:2|0:0,0:0:0:0:
302,232,117508,1,8,0:0:0:0:
437,325,117655,1,2,0:0:0:0:
491,213,117802,6,0,P|461:225|423:230,1,58.2899972427522,0|0,3:2|0:0,0:0:0:0:
279,384,117949,2,0,P|308:372|347:367,1,58.2899972427522,0|0,3:2|0:0,0:0:0:0:
145,214,118096,102,0,B|109:158|38:170|38:170|62:180|76:207,1,174.869991728257,8|0,0:2|0:0,0:0:0:0:
9,238,118390,1,0,3:2:0:0:
124,142,118537,1,0,3:2:0:0:
0,96,118684,5,8,0:0:0:0:
169,345,118832,2,0,P|156:287|144:206,1,133.979997342316,4|0,3:2|0:0,0:0:0:0:
298,90,119126,1,0,3:2:0:0:
245,26,119273,102,0,B|217:-11|141:-5|141:-5|199:0|233:61,1,227.070001905647,12|0,0:0|0:0,0:0:0:0:
383,78,119567,6,0,B|431:71|446:23|446:23|419:61|361:62,1,180.959998895508,6|8,3:2|0:0,0:0:0:0:
298,90,120008,1,2,0:0:0:0:
418,145,120155,102,0,P|389:159|351:168,1,58.2899972427522,0|0,3:2|0:0,0:0:0:0:
133,287,120302,2,0,P|158:296|186:314,1,58.2899972427522,0|0,3:2|0:0,0:0:0:0:
249,384,120449,6,0,P|297:286|258:172,1,227.070001905647,8|0,0:0|0:0,0:0:0:0:
196,142,120743,1,2,3:2:0:0:
380,287,120890,1,0,3:2:0:0:
418,145,121037,101,8,0:0:0:0:
249,384,121184,2,0,P|269:311|395:296,1,200.969996013474,4|0,3:2|0:0,0:0:0:0:
437,236,121479,2,0,P|454:264|458:297,1,66.9899986711579,0|0,3:2|0:0,0:0:0:0:
195,142,121626,6,0,B|155:131|107:108|107:108|57:112|16:163|61:203,1,227.070001905647,12|0,0:0|0:0,0:0:0:0:
192,236,121920,102,0,B|231:229|270:207|270:207|329:234|304:293,1,180.959998895508,4|8,3:2|0:0,0:0:0:0:
195,142,122361,1,2,0:0:0:0:
371,104,122508,6,0,P|360:134|356:171,1,58.2899972427522,2|0,3:2|0:0,0:0:0:0:
177,292,122655,2,0,P|187:261|192:225,1,58.2899972427522,2|0,3:2|0:0,0:0:0:0:
38,0,122802,102,0,P|38:61|148:85,1,174.869991728257,10|0,0:0|0:0,0:0:0:0:
195,142,123096,1,2,3:2:0:0:
367,21,123243,1,0,3:2:0:0:
245,0,123390,5,8,0:0:0:0:
451,242,123537,2,0,B|400:240|362:174|362:174|392:246|331:298,1,233.159988971009,4|0,3:2|3:2,0:0:0:0:
454,156,123979,2,0,P|490:96|473:53,1,116.579994485504,8|0,0:0|0:0,0:0:0:0:
290,221,124273,101,0,3:2:0:0:
424,319,124420,1,0,3:2:0:0:
451,242,124567,5,8,0:0:0:0:
299,356,124714,1,2,0:0:0:0:
159,167,124861,102,0,P|79:143|-6:128,1,163.559997504273,4|8,3:2|0:0,0:0:0:0:
0,128,125449,5,8,0:0:0:0:
212,263,125596,1,8,0:0:0:0:
0,302,125743,101,8,0:0:0:0:
222,127,125890,2,0,P|277:160|257:249,1,135.720000517731,12|0,0:0|0:0,0:0:0:0:
277,225,126037,6,0,P|216:228|176:165,1,116.579994485504,4|0,3:1|0:2,0:2:0:0:
401,32,126332,2,0,P|381:93|373:149,1,116.579994485504,8|0,0:0|0:0,0:0:0:0:
309,36,126626,1,0,3:2:0:0:
457,136,126773,1,0,3:2:0:0:
277,225,126920,1,8,0:0:0:0:
457,136,127067,102,0,P|381:171|394:308,1,227.070001905647,4|0,3:2|0:0,0:0:0:0:
440,358,127361,2,0,P|458:332|454:271,1,75.6900006352158,0|0,3:2|0:0,0:0:0:0:
278,226,127508,6,0,P|243:278|256:337,1,116.579994485504,8|0,0:2|0:2,3:2:0:0:
395,215,127802,1,0,3:2:0:0:
354,152,127949,1,0,3:2:0:0:
354,152,128096,2,0,P|294:138|232:109,1,116.579994485504,8|0,0:2|0:0,0:0:0:0:
370,329,128390,102,0,P|259:345|141:383,1,227.070001905647,4|0,3:2|0:0,0:0:0:0:
139,375,128684,1,8,0:0:0:0:
278,226,128832,1,0,3:2:0:0:
61,149,128979,1,0,3:2:0:0:
84,221,129126,1,0,3:2:0:0:
212,269,129273,1,8,0:0:0:0:
146,170,129420,6,0,P|65:177|12:311,1,233.159988971009,4|0,3:2|3:2,0:0:0:0:
243,115,129861,1,8,0:0:0:0:
370,329,130008,1,8,0:0:0:0:
278,226,130155,101,0,3:2:0:0:
353,255,130302,1,0,3:2:0:0:
235,370,130449,6,0,P|200:318|230:251,1,116.579994485504,8|0,0:0|0:0,0:0:0:0:
413,107,130743,102,0,P|482:185|472:313,2,233.159988971009,4|8|0,3:2|0:0|3:2,0:0:0:0:
278,226,131479,1,0,3:2:0:0:
353,255,131626,1,8,0:0:0:0:
247,0,131773,6,0,P|231:68|202:157,1,151.380001270432,4|0,3:2|0:0,0:0:0:0:
353,255,132067,1,0,3:2:0:0:
107,108,132214,102,0,P|116:164|136:232,1,116.579994485504,8|0,0:0|0:0,0:0:0:0:
0,384,132508,2,0,P|33:321|136:322,1,174.869991728257,0|0,3:2|0:0,0:0:0:0:
197,278,132802,1,8,0:0:0:0:
35,176,132949,1,0,3:2:0:0:
197,278,133096,6,0,P|237:234|220:162,1,116.579994485504,4|0,3:2|0:2,0:2:0:0:
437,5,133390,2,0,P|355:-5|297:123,1,233.159988971009,8|0,0:2|3:2,0:2:0:0:
157,24,133832,1,0,3:2:0:0:
230,0,133979,1,8,0:0:0:0:
434,168,134126,102,0,P|348:128|294:113,1,151.380001270432,4|0,3:2|0:0,0:0:0:0:
472,81,134420,1,0,3:2:0:0:
361,221,134567,6,0,P|271:242|192:280,1,174.869991728257,8|0,0:0|0:0,0:0:0:0:
184,281,134861,1,8,0:0:0:0:
298,357,135008,1,0,3:2:0:0:
228,384,135155,101,8,3:0:0:0:
300,274,135302,1,8,3:0:0:0:
109,138,135449,6,0,P|61:160|50:289,1,187.920004587891,4|2,3:2|0:0,0:0:0:0:
498,185,136626,102,0,P|502:87|361:34,1,255.779992194214,4|0,3:2|0:0,0:0:0:0:
363,35,137214,1,2,0:0:0:0:
285,269,137361,6,0,L|299:364,1,88.740000541626,8|4,3:3|3:2,0:0:0:0:
111,67,147214,69,4,3:2:0:0:
111,67,147508,6,0,L|130:196,2,111.36,2|8|0,0:0|0:3|0:0,0:0:0:0:
137,183,148390,101,2,3:2:0:0:
37,134,148536,1,2,3:2:0:0:
133,179,148682,5,2,3:2:0:0:
217,112,148829,1,2,3:2:0:0:
152,280,148975,1,0,3:2:0:0:
137,183,149121,101,2,0:0:0:0:
152,280,149268,1,2,3:2:0:0:
345,332,149560,6,0,P|396:313|462:301,2,111.36,0|2|8,3:2|0:0|0:3,0:0:0:0:
462,307,150442,1,2,0:0:0:0:
307,264,150736,101,2,3:2:0:0:
268,369,150883,1,2,3:2:0:0:
345,332,151030,5,2,3:2:0:0:
239,219,151177,1,2,3:2:0:0:
386,165,151324,1,0,3:2:0:0:
307,264,151471,101,2,0:0:0:0:
345,332,151618,1,2,3:2:0:0:
239,219,151912,6,0,P|191:219|150:276,2,111.36,2|2|8,3:2|0:0|0:3,0:0:0:0:
247,227,152812,1,2,0:0:0:0:
77,282,153112,101,2,3:2:0:0:
209,323,153259,1,2,3:2:0:0:
150,372,153406,5,0,3:2:0:0:
17,334,153553,1,2,3:2:0:0:
209,323,153700,101,0,3:2:0:0:
77,282,153847,1,2,3:2:0:0:
150,372,153994,1,0,3:2:0:0:
442,145,154283,6,0,P|427:93|426:15,1,111.36,2|0,3:2|0:0,0:0:0:0:
357,0,154724,1,2,0:0:0:0:
222,80,154871,1,0,3:2:0:0:
153,45,155165,1,2,0:0:0:0:
218,76,155459,101,2,3:2:0:0:
84,149,155606,1,0,3:2:0:0:
222,80,155753,1,0,3:2:0:0:
93,1,155900,1,0,3:2:0:0:
128,72,156047,1,0,3:2:0:0:
238,182,156194,5,0,3:2:0:0:
219,255,156341,1,0,3:2:0:0:
198,337,156488,1,0,3:2:0:0:
269,313,156635,54,0,P|204:301|120:367,1,163.559997504273,4|2,3:2|0:2,0:2:0:0:
126,352,157224,54,0,P|189:303|269:313,1,163.559997504273,8|8,0:2|0:3,0:2:0:0:
323,367,157665,1,8,0:3:0:0:
454,204,157812,53,0,3:2:0:0:
377,192,157959,1,0,3:2:0:0:
324,249,158106,1,0,3:2:0:0:
512,347,158253,53,2,0:0:0:0:
437,367,158400,1,8,0:0:0:0:
385,312,158547,1,0,3:2:0:0:
295,170,158694,54,0,P|258:149|206:145,1,81.7799987521363,2|0,3:2|3:2,0:0:0:0:
168,90,158915,1,0,3:2:0:0:
168,90,158988,54,0,P|101:153|123:212,1,163.559997504273,2|2,3:2|0:0,0:0:0:0:
181,262,159424,1,2,0:0:0:0:
121,210,159570,54,0,P|105:135|168:90,1,163.559997504273,8|2,0:2|0:0,0:0:0:0:
224,34,160007,1,8,0:3:0:0:
69,131,160153,53,0,3:2:0:0:
181,262,160300,1,0,3:2:0:0:
23,384,160447,53,0,3:2:0:0:
0,316,160594,1,0,3:2:0:0:
56,266,160741,1,8,0:0:0:0:
242,220,160888,53,2,0:0:0:0:
295,170,161035,2,0,P|310:125|288:83,1,81.7799987521363,2|0,0:0|3:2,0:0:0:0:
246,42,161255,1,0,3:2:0:0:
246,42,161329,54,0,L|433:87,1,163.559997504273,2|2,3:2|0:0,0:0:0:0:
469,39,161768,1,2,0:0:0:0:
405,80,161914,54,0,L|246:42,1,163.559997504273,10|2,0:2|0:0,0:0:0:0:
176,74,162353,1,8,0:3:0:0:
296,171,162499,53,2,3:2:0:0:
246,42,162646,1,2,3:2:0:0:
374,159,162792,53,2,3:2:0:0:
250,272,162938,1,2,3:2:0:0:
414,384,163085,53,8,0:0:0:0:
391,317,163231,1,2,0:0:0:0:
365,242,163377,1,2,0:0:0:0:
195,151,163536,53,2,0:0:0:0:
195,151,163609,1,2,0:0:0:0:
195,151,163684,2,0,P|137:160|101:255,1,163.559997504273,2|2,3:2|0:0,0:0:0:0:
259,54,164125,1,0,3:2:0:0:
259,54,164198,1,0,3:2:0:0:
259,54,164272,38,0,P|321:51|390:137,1,163.559997504273,14|0,0:0|3:2,0:0:0:0:
452,154,164713,1,2,0:0:0:0:
322,344,164860,6,0,P|270:286|317:196,1,163.559997504273,12|0,0:0|3:2,0:0:0:0:
296,133,165301,1,2,0:0:0:0:
399,260,165448,101,12,0:0:0:0:
207,372,165595,1,2,0:0:0:0:
244,302,165742,1,2,0:0:0:0:
401,357,165889,1,0,3:2:0:0:
419,365,165963,1,0,3:2:0:0:
460,383,166036,1,12,0:0:0:0:
79,69,166331,5,0,3:2:0:0:
54,137,166478,1,0,3:2:0:0:
79,69,166625,2,0,P|115:53|174:44,1,81.7799987521363,8|0,3:2|3:2,3:2:0:0:
230,13,166845,1,0,3:2:0:0:
230,13,166919,2,0,P|267:21|313:56,1,81.7799987521363,8|0,3:2|3:2,0:0:0:0:
364,79,167139,1,0,3:2:0:0:
368,83,167214,102,0,P|358:122|348:178,1,81.7799987521363,8|0,3:2|3:2,0:0:0:0:
278,197,167434,1,0,3:2:0:0:
282,201,167508,5,8,3:2:0:0:
269,249,167582,1,0,3:2:0:0:
299,297,167655,1,0,3:2:0:0:
352,304,167729,1,0,3:2:0:0:
389,269,167802,1,8,3:2:0:0:
435,246,167876,1,0,3:2:0:0:
481,262,167949,102,0,P|503:292|507:348,1,75.6900006352158,12|0,3:2|0:0,0:0:0:0:
269,108,168096,2,0,P|278:69|318:37,1,75.6900006352158,6|0,3:2|0:0,0:0:0:0:
212,288,168243,6,0,P|123:309|39:343,1,163.559997504273,4|0,3:2|0:2,0:2:0:0:
36,205,168684,70,0,P|62:216|103:226,1,55.68,2|0,0:0|0:0,0:0:0:0:
260,384,168979,2,0,P|233:372|193:363,1,55.68,2|0,0:0|0:0,0:0:0:0:
234,65,169567,5,8,0:0:0:0:
234,65,169640,1,0,3:2:0:0:
234,65,169714,2,0,P|247:101|251:146,1,75.6900006352158,0|0,3:2|3:2,0:0:0:0:
355,231,169861,101,8,0:0:0:0:
355,231,169934,1,0,3:2:0:0:
355,231,170008,2,0,P|368:195|372:150,1,75.6900006352158,0|0,3:2|3:2,0:0:0:0:
413,44,170155,6,0,P|373:60|320:72,1,88.740000541626,8|0,0:0|3:2,0:0:0:0:
178,195,170302,102,0,P|216:216|264:228,1,88.740000541626,0|0,3:2|3:2,0:0:0:0:
460,376,170449,6,0,P|444:331|434:263,1,101.790000388298,4|0,3:2|0:0,0:0:0:0:
225,110,170596,102,0,P|156:102|77:232,1,200.969996013474,4|0,3:2|0:0,0:0:0:0:
8,230,170890,2,0,P|29:257|78:267,1,66.9899986711579,2|0,0:0|0:0,0:0:0:0:
266,332,171037,6,0,P|252:226|218:89,1,227.070001905647,12|0,0:0|0:0,0:0:0:0:
411,47,171332,102,0,P|417:90|432:140,1,90.4799994477539,4|0,3:2|0:0,0:0:0:0:
495,185,171552,1,0,3:2:0:0:
495,185,171626,2,0,P|507:161|506:116,1,58.2899972427522,8|0,0:0|0:0,0:0:0:0:
350,0,171773,2,0,P|336:27|335:67,1,58.2899972427522,2|0,3:2|0:0,0:0:0:0:
271,209,171920,5,0,3:2:0:0:
430,135,172067,1,0,3:2:0:0:
271,209,172214,102,0,P|214:189|148:177,1,122.669998128204,8|0,0:0|0:0,0:0:0:0:
108,117,172508,5,0,3:2:0:0:
266,332,172655,1,0,3:2:0:0:
256,225,172802,101,8,0:0:0:0:
0,384,172949,2,0,P|23:302|137:293,1,200.969996013474,4|0,3:2|0:0,0:0:0:0:
179,339,173243,2,0,P|150:359|106:357,1,66.9899986711579,0|0,3:2|0:0,0:0:0:0:
256,225,173390,6,0,B|297:166|367:195|367:195|387:253|442:256,1,227.070001905647,12|0,0:0|0:0,0:0:0:0:
511,371,173684,102,0,B|483:326|429:334|429:334|408:383|352:381,1,180.959998895508,4|8,3:2|0:0,0:0:0:0:
356,306,174126,1,2,0:0:0:0:
445,182,174273,6,0,P|451:153|465:111,1,58.2899972427522,2|0,3:2|0:0,0:0:0:0:
369,0,174420,2,0,P|363:29|349:71,1,58.2899972427522,2|0,3:2|0:0,0:0:0:0:
179,339,174567,102,0,P|117:289|155:190,1,174.869991728257,8|0,0:0|0:0,0:0:0:0:
141,190,174861,1,0,3:2:0:0:
279,318,175008,1,0,3:2:0:0:
89,384,175155,5,8,0:0:0:0:
283,154,175302,2,0,P|265:244|246:387,1,233.159988971009,4|0,3:2|3:2,0:0:0:0:
141,190,175743,101,8,0:0:0:0:
279,318,175890,1,0,0:0:0:0:
179,339,176037,5,0,3:2:0:0:
304,234,176184,1,0,3:2:0:0:
212,120,176332,101,8,0:0:0:0:
283,154,176479,1,0,3:2:0:0:
139,272,176626,6,0,P|69:289|-9:319,1,146.159995539551,4|8,3:2|0:0,0:0:0:0:
207,55,177214,102,0,P|212:28|224:-2,1,58.2899972427522,4|0,3:2|0:0,0:0:0:0:
291,164,177361,1,0,3:2:0:0:
291,164,177434,1,0,3:2:0:0:
291,164,177508,2,0,P|263:178|229:186,1,58.2899972427522,8|0,0:0|0:0,0:0:0:0:
363,23,177655,6,0,P|438:24|506:143,1,200.969996013474,4|0,3:2|0:0,0:0:0:0:
484,191,177949,2,0,P|452:198|410:220,1,66.9899986711579,2|0,3:2|3:2,0:0:0:0:
230,332,178096,102,0,B|284:336|327:276|327:276|305:341|345:389,1,227.070001905647,12|0,0:0|0:0,0:0:0:0:
171,247,178390,2,0,B|129:250|95:199|95:199|113:253|94:289,1,180.959998895508,4|8,3:2|0:0,0:0:0:0:
291,164,178832,1,2,0:0:0:0:
242,50,178979,6,0,P|234:80|223:110,1,58.2899972427522,2|0,3:2|0:0,0:0:0:0:
327,278,179126,2,0,P|334:247|346:218,1,58.2899972427522,2|0,3:2|0:0,0:0:0:0:
503,74,179273,102,0,P|425:62|386:154,1,174.869991728257,8|0,0:0|0:0,0:0:0:0:
374,148,179567,1,0,3:2:0:0:
486,263,179714,1,0,3:2:0:0:
512,235,179787,1,0,3:2:0:0:
492,188,179861,1,8,0:0:0:0:
223,322,180008,6,0,B|260:324|327:292|327:292|376:336|343:383,1,200.969996013474,4|0,3:2|0:0,0:0:0:0:
339,384,180302,1,0,3:2:0:0:
171,247,180449,102,0,B|218:115|218:115|202:162|228:208,1,227.070001905647,12|0,0:0|0:0,0:0:0:0:
381,136,180743,2,0,B|342:28|342:28|354:64|341:96,1,180.959998895508,4|8,3:2|0:0,0:0:0:0:
273,62,181184,1,2,0:0:0:0:
437,193,181332,6,0,P|409:208|358:216,1,58.2899972427522,0|0,3:2|0:0,0:0:0:0:
335,274,181479,2,0,P|306:266|281:252,1,58.2899972427522,0|0,3:2|0:0,0:0:0:0:
139,104,181626,102,0,P|57:95|20:226,1,227.070001905647,10|0,0:0|0:0,0:0:0:0:
8,228,181920,1,0,3:2:0:0:
198,42,182067,1,0,3:2:0:0:
48,142,182214,5,8,0:0:0:0:
291,353,182361,2,0,P|256:264|145:268,1,200.969996013474,4|0,3:2|0:0,0:0:0:0:
101,303,182655,2,0,P|94:337|84:372,1,66.9899986711579,0|0,3:2|0:0,0:0:0:0:
278,248,182802,102,0,B|342:162|457:203|439:290|372:234,1,227.070001905647,12|0,0:0|0:0,0:0:0:0:
217,112,183096,2,0,B|165:43|73:75|87:145|141:100,1,180.959998895508,4|8,3:2|0:0,0:0:0:0:
291,0,183537,1,2,0:0:0:0:
350,54,183684,6,0,P|339:82|333:125,1,58.2899972427522,2|0,3:2|0:0,0:0:0:0:
191,224,183832,1,0,3:2:0:0:
191,224,183905,1,0,3:2:0:0:
191,224,183979,2,0,P|205:172|219:94,1,116.579994485504,10|0,0:0|0:0,0:0:0:0:
374,236,184273,101,0,3:2:0:0:
229,345,184420,1,0,3:2:0:0:
410,384,184567,5,8,0:0:0:0:
191,224,184714,2,0,P|255:237|316:387,1,233.159988971009,4|0,3:2|3:2,0:0:0:0:
486,255,185155,2,0,P|494:200|514:139,1,116.579994485504,8|0,0:0|0:0,0:0:0:0:
367,0,185449,101,2,3:2:0:0:
483,70,185596,1,0,3:2:0:0:
325,165,185743,5,8,0:0:0:0:
399,137,185890,1,2,0:0:0:0:
233,51,186037,102,0,P|177:50|137:158,1,163.559997504273,4|8,3:2|0:0,0:0:0:0:
0,288,186479,5,0,3:2:0:0:
0,288,186552,1,0,3:2:0:0:
0,288,186626,1,8,0:0:0:0:
102,248,186773,1,0,3:2:0:0:
170,291,186920,101,8,0:0:0:0:
298,359,187067,1,0,3:2:0:0:
485,186,187214,53,12,0:0:0:0:
411,213,187361,1,0,3:2:0:0:
298,359,187508,5,8,0:0:0:0:
321,282,187655,1,0,3:2:0:0:
255,87,187802,101,8,0:0:0:0:
302,152,187949,1,0,3:2:0:0:
350,88,188096,5,8,0:0:0:0:
226,220,188243,1,0,3:2:0:0:
473,363,188390,101,12,0:0:0:0:
321,282,188537,1,0,3:2:0:0:
226,220,188684,5,8,0:0:0:0:
99,260,188832,1,0,3:2:0:0:
34,107,188979,101,8,0:0:0:0:
226,220,189126,1,4,3:3:0:0:
0,191,189273,5,8,0:0:0:0:
223,113,189420,1,0,3:2:0:0:
261,362,189567,101,12,0:0:0:0:
245,294,189714,1,0,3:2:0:0:
396,215,189861,5,8,0:0:0:0:
412,143,190008,1,0,3:2:0:0:
215,84,190155,101,8,0:0:0:0:
198,12,190302,1,0,3:2:0:0:
324,85,190449,5,8,0:0:0:0:
167,160,190596,1,0,3:2:0:0:
284,13,190743,101,8,0:0:0:0:
412,143,190890,1,4,3:3:0:0:
323,261,191037,5,8,0:0:0:0:
409,46,191184,1,0,3:2:0:0:
247,121,191332,101,8,0:0:0:0:
323,261,191479,1,0,3:2:0:0:
185,309,191626,5,8,0:0:0:0:
168,380,191773,1,0,3:2:0:0:
64,256,191920,101,12,0:0:0:0:
329,171,192067,1,0,3:2:0:0:
91,181,192214,5,8,0:0:0:0:
309,345,192361,1,0,3:2:0:0:
329,171,192508,101,8,0:0:0:0:
64,256,192655,1,0,3:2:0:0:
336,261,192802,5,8,0:0:0:0:
125,99,192949,1,0,3:2:0:0:
287,9,193096,101,12,0:0:0:0:
155,238,193243,1,0,3:2:0:0:
278,369,193390,5,8,0:0:0:0:
410,140,193537,1,0,3:2:0:0:
192,156,193684,101,8,0:0:0:0:
273,384,193829,1,0,3:2:0:0:
502,252,193975,5,8,0:0:0:0:
422,25,194119,1,0,3:2:0:0:
192,156,194263,101,12,0:0:0:0:
502,252,194409,1,0,3:2:0:0:
274,380,194555,5,8,0:0:0:0:
502,252,194702,1,0,3:2:0:0:
192,156,194848,101,8,0:0:0:0:
502,252,194994,1,0,3:2:0:0:
318,10,195141,5,8,0:0:0:0:
502,252,195287,1,0,3:2:0:0:
192,156,195433,101,12,0:0:0:0:
502,252,195580,1,0,3:2:0:0:
243,70,195726,5,8,0:0:0:0:
0,213,195872,1,0,3:2:0:0:
263,341,196019,101,4,3:2:0:0:
192,156,196165,1,0,3:2:0:0:
318,10,196311,5,8,3:0:0:0:
227,252,196458,1,4,0:3:0:0:
192,156,196604,54,0,P|279:157|349:303,1,245.339996256409,4|0,3:2|0:0,0:0:0:0:
353,282,197198,1,2,0:0:0:0:
469,310,197792,102,0,B|335:272|358:391|193:330,1,245.339996256409,4|0,3:2|0:0,0:0:0:0:
170,384,198380,2,0,P|156:346|171:298,1,81.7799987521363,2|0,0:0|0:0,0:0:0:0:
348,131,198674,1,2,0:0:0:0:
300,72,198822,38,0,P|231:167|257:239,1,203.580000776596,2|4,0:0|0:0,0:0:0:0:
258,240,199263,37,0,3:2:0:0:
311,300,199410,2,0,P|348:314|384:330,1,73.0799977697755,0|8,3:2|0:0,0:0:0:0:
258,164,199704,5,0,3:2:0:0:
189,129,199851,2,0,P|150:137|104:157,1,73.0799977697755,2|0,0:0|3:2,0:0:0:0:
256,64,200145,101,0,3:2:0:0:
194,213,200292,1,2,3:2:0:0:
256,64,200439,1,0,3:2:0:0:
194,213,200586,1,2,3:2:0:0:
119,149,200733,5,8,0:0:0:0:
304,225,200880,1,2,0:0:0:0:
176,367,201027,102,0,P|169:332|170:288,1,73.0799977697755,2|0,0:0|3:2,0:0:0:0:
363,138,201322,6,0,P|384:204|381:303,1,146.159995539551,4|0,3:2|3:2,0:0:0:0:
176,367,201763,2,0,P|169:332|170:288,1,73.0799977697755,2|8,0:0|0:2,0:0:0:0:
238,266,202057,1,0,3:2:0:0:
79,100,202204,2,0,P|63:134|57:175,1,73.0799977697755,2|0,0:0|3:2,0:0:0:0:
2,226,202498,101,2,3:2:0:0:
172,171,202645,1,0,3:2:0:0:
2,226,202792,1,2,3:2:0:0:
172,171,202939,1,0,3:2:0:0:
42,30,203086,5,8,0:0:0:0:
97,252,203233,1,0,3:2:0:0:
241,102,203380,102,0,P|207:81|154:67,1,73.0799977697755,2|0,3:2|0:0,0:0:0:0:
97,252,203674,2,0,P|163:241|190:168,1,146.159995539551,2|0,3:2|3:2,0:0:0:0:
374,61,204116,5,0,3:2:0:0:
442,102,204263,2,0,P|455:139|460:188,1,73.0799977697755,8|0,0:0|3:2,0:0:0:0:
343,254,204557,2,0,P|328:290|326:333,1,73.0799977697755,2|0,0:0|0:0,0:0:0:0:
430,375,204851,101,2,3:2:0:0:
376,176,204998,1,2,3:2:0:0:
430,375,205145,1,2,3:2:0:0:
376,176,205292,1,2,3:2:0:0:
492,287,205439,5,8,0:0:0:0:
267,384,205586,1,0,3:2:0:0:
206,231,205733,102,0,P|241:242|273:282,1,73.0799977697755,2|0,0:0|0:0,0:0:0:0:
324,323,206027,2,0,P|215:360|83:365,1,229.680007009278,2|2,3:2|0:0,0:0:0:0:
