osu file format v14

[General]
AudioFilename: audio.mp3
AudioLeadIn: 0
PreviewTime: 49538
Countdown: 0
SampleSet: Soft
StackLeniency: 0.7
Mode: 0
LetterboxInBreaks: 0
WidescreenStoryboard: 0

[Editor]
Bookmarks: 15018
DistanceSpacing: 1.3
BeatDivisor: 3
GridSize: 8
TimelineZoom: 6.699996

[Metadata]
Title:Black Catcher (TV Size)
TitleUnicode:Black Catcher (TV Size)
Artist:Vickeblanka
ArtistUnicode:ビッケブランカ
Creator:Nymphe
Version:Wizard Demon
Source:ブラッククローバー
Tags:black asta demon clover anime japanese opening 10 yami yuno licht lumiere Reform -Zeraora Akitoshi NeKroMan4ik kujinn -Laura- Corinn rock j-rock jrock
BeatmapID:2287845
BeatmapSetID:1094672

[Difficulty]
HPDrainRate:5.2
CircleSize:4
OverallDifficulty:8.5
ApproachRate:9.2
SliderMultiplier:1.92
SliderTickRate:1

[Events]
//Background and Video events
Video,0,"videoo.mp4"
0,0,"Background.jpg",0,0
//Break Periods
//Storyboard Layer 0 (Background)
//Storyboard Layer 1 (Fail)
//Storyboard Layer 2 (Pass)
//Storyboard Layer 3 (Foreground)
//Storyboard Layer 4 (Overlay)
//Storyboard Sound Samples

[TimingPoints]
78,316.622691292876,4,2,22,52,1,0
78,-138.888888888889,4,2,22,52,0,0
394,325.20325203252,4,2,22,52,1,0
394,-138.888888888889,4,2,22,52,0,0
719,340.909090909091,4,2,22,52,1,0
719,-161.290322580645,4,2,22,52,0,0
1059,320.855614973262,4,2,22,52,1,0
1381,333.333333333333,4,2,22,52,1,0
1381,-138.888888888889,4,2,22,52,0,0
4714,352.941176470588,4,2,22,52,1,0
4714,-108.695652173913,4,2,22,52,0,0
5066,401.33779264214,4,2,22,52,1,0
5066,-98.0392156862745,4,2,22,52,0,0
5467,375,4,2,22,52,1,0
5467,-121.951219512195,4,2,22,52,0,0
6123,353.460972017673,4,2,22,52,1,0
6123,-138.888888888889,4,2,22,52,0,0
6476,327.421555252387,4,2,22,52,1,0
6476,-138.888888888889,4,2,22,52,0,0
6803,356.083086053412,4,2,22,52,1,0
6803,-192.307692307692,4,2,22,52,0,0
7515,-149.253731343284,4,2,22,52,0,0
8167,-149.253731343284,4,2,22,5,0,0
8226,300,4,2,22,72,1,0
8226,-89.2857142857143,4,2,22,72,0,0
18126,-108.695652173913,4,2,22,62,0,0
21126,285.714285714286,4,2,22,62,1,0
21316,300,4,2,22,62,1,0
21411,312.5,4,2,22,62,1,0
21723,286.396181384249,4,2,22,62,1,0
22295,310.478654592497,4,2,22,62,1,0
22605,305.343511450382,4,2,22,62,1,0
23215,313.31592689295,4,2,22,62,1,0
23528,310.077519379845,4,2,22,62,1,0
23838,305.343511450382,4,2,22,62,1,0
24143,287.081339712919,4,2,22,62,1,0
24717,311.688311688312,4,2,22,62,1,0
24717,-121.951219512195,4,2,22,62,0,0
25028,300,4,2,22,62,1,0
25028,-192.307692307692,4,2,22,62,0,0
25328,-75.7575757575757,4,2,22,62,0,0
25628,-138.888888888889,4,2,22,62,0,0
25928,317.460317460317,4,2,22,62,1,0
26245,283.018867924528,4,2,22,62,1,0
26528,300,4,2,22,62,1,0
27428,300,4,2,22,62,1,0
32228,-100,4,2,22,62,0,0
37028,-81.9672131147541,4,2,22,82,0,0
38828,-81.9672131147541,4,2,22,72,0,0
39028,-81.9672131147541,4,2,22,62,0,0
39428,-121.951219512195,4,2,22,62,0,0
46290,319.148936170213,4,2,22,60,1,0
46290,-121.951219512195,4,2,22,60,0,0
46928,300,4,2,22,52,1,0
47828,300,4,2,22,52,1,0
49028,-238.095238095238,4,2,22,52,0,0
49528,-238.095238095238,4,2,22,5,0,0
49628,-454.545454545455,4,2,22,42,0,0
50178,-454.545454545455,4,2,22,5,0,0
50228,-75.7575757575758,4,2,22,92,0,1
53828,-161.290322580645,4,2,22,62,0,1
54128,-121.951219512195,4,2,22,72,0,1
54428,-98.0392156862744,4,2,22,82,0,1
54728,-81.9672131147541,4,2,22,92,0,1
55028,-75.7575757575758,4,2,22,92,0,1
58928,285.714285714286,4,2,22,92,1,1
58928,-75.7575757575758,4,2,22,92,0,1
59499,-192.307692307692,4,2,22,82,0,0
59678,300,4,2,22,82,1,0
59828,300,4,2,22,92,1,1
59828,-75.7575757575757,4,2,22,92,0,1
63428,-161.290322580645,4,2,22,62,0,1
63728,-121.951219512195,4,2,22,72,0,1
64028,-98.0392156862745,4,2,22,82,0,1
64328,-81.9672131147541,4,2,22,92,0,1
69428,306.513409961686,4,2,22,62,1,0
69428,-121.951219512195,4,2,22,62,0,0
70347,300,4,2,22,62,1,0
70647,285.714285714286,4,2,22,62,1,0
71218,-121.951219512195,4,2,22,62,0,0
71519,300,4,2,22,62,1,0
71519,-121.951219512195,4,2,22,62,0,0
72728,332.409972299169,4,2,22,62,1,0
73060,271.493212669683,4,2,22,62,1,0
73918,279.06976744186,4,2,22,62,1,0
73918,-121.951219512195,4,2,22,62,0,0
74197,310.077519379845,4,2,22,62,1,0
74197,-121.951219512195,4,2,22,62,0,0
75127,300,4,2,22,62,1,0
75727,315.789473684211,4,2,22,62,1,0
75727,-138.888888888889,4,2,22,62,0,0
76042,293.398533007335,4,2,22,62,1,0
76628,300,4,2,22,82,1,0
79028,-89.2857142857143,4,2,22,82,0,0
88328,-175.438596491228,4,2,22,92,0,0
89278,-175.438596491228,4,2,22,32,0,0

[Colours]
Combo1 : 142,197,109
Combo2 : 164,23,27
Combo3 : 120,85,58
Combo4 : 115,124,206

[HitObjects]
487,78,78,6,0,P|453:56|418:50,1,69.1200016875,2|0,0:2|0:2,0:0:0:0:
373,112,394,2,0,P|339:134|304:140,1,69.1200016875,2|0,0:2|0:2,0:0:0:0:
241,84,719,2,0,B|162:69|188:109|106:95,1,119.039995277344,2|0,3:2|0:2,0:0:0:0:
0,41,1381,6,0,P|14:82|18:125,1,69.1200016875,2|0,0:2|0:2,0:0:0:0:
81,163,1714,2,0,P|67:204|63:247,1,69.1200016875,2|0,0:2|0:2,0:0:0:0:
127,359,2047,1,2,3:2:0:0:
228,217,2380,1,2,0:2:0:0:
408,384,2714,6,0,L|336:351,1,69.1200016875,2|0,0:2|0:2,0:0:0:0:
274,295,3047,2,0,L|346:262,1,69.1200016875,2|0,0:2|0:2,0:0:0:0:
424,158,3380,2,0,B|453:212|453:212|431:289,1,138.240003375,2|0,3:2|0:2,0:0:0:0:
313,36,4047,6,0,P|279:10|235:4,1,69.1200016875,2|0,0:2|0:2,0:0:0:0:
180,133,4380,2,0,P|212:122|238:100,1,69.1200016875,2|0,0:2|0:2,0:0:0:0:
69,17,4714,2,0,P|118:19|170:59,1,88.3199970351563,2|0,3:2|0:0,0:0:0:0:
108,223,5066,2,0,P|85:163|96:106,1,97.9200005976563,2|0,0:2|0:0,0:0:0:0:
227,249,5467,6,0,P|156:241|82:314,1,157.440002402344,6|0,0:2|0:2,0:0:0:0:
242,346,6123,6,0,P|281:323|331:317,1,69.1200016875,2|0,0:2|0:0,0:0:0:0:
394,265,6476,2,0,P|358:234|305:230,1,69.1200016875,2|0,0:2|0:0,0:0:0:0:
252,166,6803,2,0,P|303:140|360:152,1,99.839999390625,2|0,3:2|0:2,0:0:0:0:
486,5,7515,6,0,B|436:152|436:152|436:114|396:86,1,235.839988844239,2|0,0:2|0:2,0:0:0:0:
395,85,8227,6,0,B|289:81|364:139|206:128,1,143.36000175,6|0,1:2|0:2,0:0:0:0:
64,32,8526,2,0,B|170:28|95:86|253:75,1,143.36000175,10|0,0:2|0:2,0:0:0:0:
270,0,8826,2,0,L|227:194,1,143.36000175,2|0,1:2|0:2,0:0:0:0:
169,182,9126,1,8,0:2:0:0:
383,333,9326,1,2,0:2:0:0:
463,309,9426,6,0,P|424:262|292:278,1,143.36000175,2|0,1:2|0:2,0:0:0:0:
287,300,9726,1,10,0:2:0:0:
368,99,9926,5,2,1:2:0:0:
406,174,10026,1,10,0:2:0:0:
108,46,10226,5,2,1:2:0:0:
147,117,10326,2,0,B|175:103|192:77|192:77|201:123|263:130,1,143.36000175,10|0,0:2|0:2,0:0:0:0:
300,57,10626,6,0,B|274:117|274:117|298:243,1,143.36000175,2|0,1:2|0:2,0:0:0:0:
383,308,10926,2,0,B|415:250|415:250|399:121,1,143.36000175,10|0,0:2|0:2,0:0:0:0:
280,298,11226,2,0,L|119:278,1,143.36000175,0|2,1:2|0:2,0:0:0:0:
86,222,11526,1,10,0:2:0:0:
223,16,11726,1,2,0:2:0:0:
138,49,11826,6,0,P|174:93|281:109,1,143.36000175,2|0,1:2|0:2,0:0:0:0:
314,62,12126,1,10,0:2:0:0:
375,288,12326,5,2,1:2:0:0:
407,215,12426,1,10,0:2:0:0:
261,384,12626,5,2,1:2:0:0:
210,323,12726,2,0,B|164:323|127:360|127:360|134:337|123:302,1,143.36000175,10|0,0:2|0:2,0:0:0:0:
47,302,13026,6,0,P|78:233|179:237,1,143.36000175,6|0,1:2|0:2,0:0:0:0:
237,197,13326,2,0,P|186:131|83:132,1,143.36000175,10|0,0:2|0:2,0:0:0:0:
12,95,13626,2,0,B|89:85|43:29|169:21,1,143.36000175,2|0,1:2|0:2,0:0:0:0:
202,54,13926,1,10,0:2:0:0:
365,248,14126,1,2,1:2:0:0:
275,243,14226,6,0,P|310:180|437:184,1,143.36000175,2|0,1:2|0:2,0:0:0:0:
437,206,14526,1,10,0:2:0:0:
252,328,14726,5,2,1:2:0:0:
321,358,14826,1,10,0:2:0:0:
117,205,15026,5,2,1:2:0:0:
181,158,15126,2,0,B|272:185|272:185|242:194|221:232,1,143.36000175,10|0,0:2|0:2,0:0:0:0:
233,213,15426,6,0,B|332:217|262:275|402:283,1,143.36000175,6|0,1:2|0:2,0:0:0:0:
511,228,15726,2,0,L|359:191,1,143.36000175,10|0,0:2|0:2,0:0:0:0:
339,130,16026,1,2,1:2:0:0:
188,61,16226,5,2,1:2:0:0:
257,17,16326,1,10,0:2:0:0:
88,216,16526,5,2,1:2:0:0:
159,182,16626,2,0,P|131:131|50:106,1,143.36000175,2|0,1:2|0:2,0:0:0:0:
153,267,16926,2,0,B|248:263|196:319|332:320,1,143.36000175,14|0,0:2|0:2,0:0:0:0:
346,275,17226,1,2,1:2:0:0:
500,115,17426,5,10,0:2:0:0:
475,210,17526,1,10,0:2:0:0:
319,18,17726,5,2,1:2:0:0:
386,59,17826,2,0,P|334:99|235:93,1,143.36000175,6|0,1:2|0:2,0:0:0:0:
162,42,18126,6,0,L|186:172,1,117.759996046875,10|0,0:2|0:2,0:0:0:0:
87,297,18426,2,0,L|102:178,1,117.759996046875,2|0,1:2|0:2,0:0:0:0:
48,120,18726,1,10,0:2:0:0:
201,277,18926,5,2,1:2:0:0:
255,189,19026,1,2,1:2:0:0:
370,384,19226,5,2,1:2:0:0:
318,311,19326,2,0,B|395:304|351:358|472:353,1,117.759996046875,10|0,0:2|1:2,0:0:0:0:
512,316,19626,2,0,P|487:280|417:258,1,117.759996046875,2|0,1:2|1:2,0:0:0:0:
334,222,19926,2,0,P|359:186|429:164,1,117.759996046875,10|0,0:2|0:2,0:0:0:0:
502,197,20226,5,0,1:2:0:0:
369,59,20526,2,0,L|196:32,1,117.759996046875,10|0,0:2|0:2,0:0:0:0:
183,157,20826,2,0,L|332:138,1,117.759996046875,2|0,1:2|0:2,0:0:0:0:
334,222,21126,1,10,0:2:0:0:
216,384,21316,1,0,1:2:0:0:
291,350,21411,6,0,P|250:304|156:306,1,128,2|2,1:2|0:2,0:0:0:0:
32,276,21723,2,0,B|123:266|68:229|190:219,1,128,10|0,0:2|1:2,0:0:0:0:
239,198,22009,2,0,B|228:160|233:129|233:129|208:153|164:161,1,128,2|0,1:2|1:2,0:0:0:0:
34,71,22295,2,0,L|161:80,1,128,10|0,0:2|0:2,0:0:0:0:
281,55,22605,6,0,B|251:11|251:11|160:3,1,128,6|0,1:2|0:2,0:0:0:0:
330,158,22910,2,0,B|385:148|385:148|409:126|409:126|494:107,1,128,10|0,0:2|0:2,0:0:0:0:
507,63,23215,1,0,1:2:0:0:
326,358,23528,6,0,L|354:229,1,128,10|0,0:2|0:2,0:0:0:0:
415,168,23838,2,0,B|445:216|445:216|420:322,1,128,2|0,1:2|0:2,0:0:0:0:
452,359,24143,1,10,0:2:0:0:
236,220,24334,5,2,1:2:0:0:
257,298,24430,1,2,1:2:0:0:
84,137,24621,5,2,1:2:0:0:
55,217,24717,2,0,P|110:210|171:142,1,104.960001601563,10|0,0:2|0:2,0:0:0:0:
168,93,25028,2,0,P|184:129|187:185,1,66.55999959375,6|0,1:2|0:2,0:0:0:0:
274,57,25328,2,0,P|244:146|241:235,1,168.959999484375,10|0,0:2|0:2,0:0:0:0:
333,325,25628,2,0,P|329:279|310:226,1,92.16000225,0|0,1:2|0:2,0:0:0:0:
352,166,25928,1,10,0:2:0:0:
165,362,26139,5,0,0:2:0:0:
182,284,26245,1,2,1:2:0:0:
28,119,26528,6,0,P|47:154|59:224,1,64,14|0,0:2|0:2,0:0:0:0:
22,270,26728,1,2,1:2:0:0:
123,84,26828,2,0,P|103:150|100:253,1,128,2|0,1:2|1:2,0:0:0:0:
182,284,27128,2,0,B|271:275|216:235|325:230,1,128,14|0,0:2|0:2,0:0:0:0:
397,192,27428,6,0,P|366:147|273:136,1,128,2|0,1:2|0:2,0:0:0:0:
213,95,27728,2,0,P|269:44|341:43,1,128,8|2,0:2|0:2,0:0:0:0:
438,0,28028,2,0,B|471:33|471:33|459:134,1,128,0|0,1:2|0:2,0:0:0:0:
490,192,28328,1,10,0:2:0:0:
318,37,28528,5,2,1:2:0:0:
348,109,28628,1,2,1:2:0:0:
167,274,28828,5,2,1:2:0:0:
243,235,28928,2,0,P|209:194|85:194,1,128,10|0,0:2|1:2,0:0:0:0:
248,337,29228,2,0,P|309:322|351:276,1,128,2|0,1:2|1:2,0:0:0:0:
334,202,29528,1,10,0:2:0:0:
158,18,29728,5,2,1:2:0:0:
116,87,29828,1,2,1:2:0:0:
407,144,30028,5,2,1:2:0:0:
338,102,30128,2,0,P|388:56|478:61,1,128,10|2,0:2|0:2,0:0:0:0:
334,202,30428,2,0,P|272:182|241:112,1,128,2|0,1:2|0:2,0:0:0:0:
260,55,30728,1,10,0:2:0:0:
393,351,30928,5,2,1:2:0:0:
320,323,31028,1,2,1:2:0:0:
500,136,31228,5,2,1:2:0:0:
440,187,31328,2,0,P|421:136|422:36,1,128,10|2,0:2|1:2,0:0:0:0:
472,4,31628,1,2,1:2:0:0:
245,119,31828,1,0,1:2:0:0:
365,246,31928,2,0,B|277:243|328:287|205:285,1,128,10|0,0:2|0:2,0:0:0:0:
109,228,32228,6,0,L|257:202,1,128,2|2,1:2|0:2,0:0:0:0:
372,142,32528,2,0,L|224:116,1,128,10|2,0:2|0:2,0:0:0:0:
159,16,32828,2,0,B|126:53|126:53|151:142,1,128,0|0,1:2|0:2,0:0:0:0:
194,193,33128,1,10,0:2:0:0:
407,60,33328,5,0,0:2:0:0:
472,207,33428,2,0,P|429:156|347:145,1,128,2|0,1:2|0:2,0:0:0:0:
280,94,33728,2,0,L|302:233,1,128,8|0,0:2|1:2,0:0:0:0:
360,283,34028,1,2,0:2:0:0:
83,153,34228,1,0,1:2:0:0:
128,94,34328,2,0,P|168:118|181:229,1,128,10|2,0:2|0:2,0:0:0:0:
115,259,34628,6,0,P|176:268|274:296,1,128,0|0,1:2|0:2,0:0:0:0:
298,234,34928,1,10,0:2:0:0:
435,109,35128,1,2,1:2:0:0:
483,179,35228,2,0,P|402:187|351:120,1,128,2|0,1:2|0:2,0:0:0:0:
344,88,35528,1,10,0:2:0:0:
174,191,35728,5,2,1:2:0:0:
237,47,35828,2,0,P|257:96|263:211,1,128,2|2,1:2|0:2,0:0:0:0:
257,256,36128,2,0,B|349:249|293:203|414:196,1,128,14|0,0:2|0:2,0:0:0:0:
429,150,36428,1,10,0:2:0:0:
496,215,36528,1,2,0:0:0:0:
435,283,36628,1,8,0:2:0:0:
512,358,36728,2,0,L|371:370,1,128,10|0,0:2|0:2,0:0:0:0:
290,333,37028,6,0,B|188:326|246:381|116:373,1,156.159993566407,6|0,1:2|0:2,0:0:0:0:
124,359,37328,2,0,B|227:367|169:312|271:319,1,156.159993566407,8|0,0:2|0:2,0:0:0:0:
445,222,37628,6,0,P|411:161|309:135,1,156.159993566407,6|0,1:2|0:2,0:0:0:0:
317,90,37928,2,0,P|403:106|451:169,1,156.159993566407,8|0,0:2|0:2,0:0:0:0:
370,384,38228,6,0,B|336:323|336:323|370:190,1,156.159993566407,6|0,1:2|0:2,0:0:0:0:
242,143,38528,2,0,B|276:204|276:204|254:287,1,156.159993566407,8|0,0:2|0:2,0:0:0:0:
163,321,38828,2,0,L|183:231,1,78.0799967832033,2|0,1:2|0:2,0:0:0:0:
46,124,39028,1,0,1:2:0:0:
14,192,39128,2,0,P|80:200|155:134,1,156.159993566407,0|0,1:2|0:2,0:0:0:0:
243,52,39428,6,0,B|196:23|196:23|89:57,2,157.440002402344,6|2|2,1:2|0:2|0:2,0:0:0:0:
455,187,40328,2,0,P|414:160|328:161,1,104.960001601563,2|0,1:2|0:0,0:0:0:0:
237,221,40628,6,0,L|411:204,2,157.440002402344,8|2|0,0:2|1:2|0:2,0:0:0:0:
82,342,41528,2,0,L|9:325,2,52.4800008007813,2|0|0,1:2|0:0|0:0,0:0:0:0:
166,352,41828,6,0,P|144:285|38:266,2,157.440002402344,4|2|0,1:2|1:2|0:2,0:0:0:0:
370,186,42728,2,0,P|345:222|338:301,1,104.960001601563,2|0,1:2|0:0,0:0:0:0:
400,384,43028,6,0,L|392:223,2,157.440002402344,8|2|0,0:2|1:2|0:2,0:0:0:0:
163,167,43928,2,0,P|203:134|267:127,1,104.960001601563,0|0,1:2|0:0,0:0:0:0:
302,192,44228,5,2,1:2:0:0:
48,55,44528,1,2,1:2:0:0:
143,319,44828,2,0,B|125:226|184:259|158:138,2,157.440002402344,2|2|10,0:2|1:2|0:2,0:0:0:0:
341,371,45728,5,2,1:2:0:0:
427,187,46028,1,0,0:2:0:0:
184,305,46290,2,0,P|237:267|310:268,1,104.960001601563,2|0,1:2|0:0,0:0:0:0:
399,307,46609,5,2,1:2:0:0:
137,56,46928,1,8,0:2:0:0:
167,383,47228,1,8,0:2:0:0:
380,73,47528,1,2,1:2:0:0:
57,214,47828,1,10,0:2:0:0:
442,313,48128,1,8,0:2:0:0:
292,18,48428,1,8,0:2:0:0:
92,334,48728,1,0,1:2:0:0:
266,176,49028,6,0,L|402:195,1,134.399995898438,2|0,0:2|0:0,0:0:0:0:
464,239,49628,6,0,P|427:266|391:269,1,77.4400023632813,2|0,0:2|0:2,0:0:0:0:
478,322,50228,6,0,B|410:294|373:323|396:339|346:365|256:343,1,168.959999484375,6|0,1:2|0:2,0:0:0:0:
46,249,50528,2,0,B|113:226|146:256|117:275|157:309|282:279,1,168.959999484375,10|0,0:2|0:2,0:0:0:0:
330,222,50828,2,0,P|296:141|165:171,1,168.959999484375,2|0,1:2|0:2,0:0:0:0:
172,188,51128,1,8,0:2:0:0:
491,88,51328,1,2,1:2:0:0:
444,11,51428,6,0,P|418:55|406:161,1,84.4799997421875,2|0,1:2|0:2,0:0:0:0:
459,219,51628,1,2,1:2:0:0:
326,35,51728,2,0,P|362:96|367:246,1,168.959999484375,10|0,0:2|0:2,0:0:0:0:
172,316,52028,2,0,P|188:218|291:149,1,168.959999484375,2|0,1:2|0:2,0:0:0:0:
459,334,52328,2,0,P|368:344|277:280,1,168.959999484375,10|0,0:2|0:2,0:0:0:0:
225,11,52628,6,0,B|258:73|258:73|224:209,1,168.959999484375,6|0,1:2|0:2,0:0:0:0:
92,294,52928,2,0,B|59:232|59:232|104:101,1,168.959999484375,10|0,0:2|0:2,0:0:0:0:
349,21,53228,2,0,L|314:204,1,168.959999484375,2|0,1:2|0:2,0:0:0:0:
459,334,53528,2,0,L|427:168,1,168.959999484375,8|0,0:2|0:2,0:0:0:0:
337,384,53828,6,0,P|308:352|257:342,1,79.3599968515626,6|0,1:2|0:2,0:0:0:0:
180,315,54128,2,0,P|220:266|281:261,1,104.960001601563,14|0,0:2|1:2,0:0:0:0:
351,240,54428,2,0,P|309:175|220:168,1,130.560000796875,6|0,1:2|1:2,0:0:0:0:
136,136,54728,2,0,P|176:74|310:72,1,156.159993566407,14|0,0:2|0:2,0:0:0:0:
511,98,55028,6,0,B|463:129|463:129|319:100,1,168.959999484375,6|0,1:2|0:2,0:0:0:0:
13,276,55328,2,0,B|54:227|54:227|174:208,1,168.959999484375,10|0,0:2|0:2,0:0:0:0:
282,11,55628,2,0,L|258:194,1,168.959999484375,2|0,1:2|0:2,0:0:0:0:
393,359,55928,2,0,L|371:191,1,168.959999484375,8|0,0:2|0:2,0:0:0:0:
196,20,56228,6,0,P|111:39|82:161,1,168.959999484375,2|0,1:2|0:2,0:0:0:0:
246,304,56528,2,0,P|250:213|203:132,1,168.959999484375,8|0,0:2|1:2,0:0:0:0:
40,231,56828,2,0,P|117:247|160:240,1,84.4799997421875,2|0,1:2|0:2,0:0:0:0:
319,86,57028,1,0,1:2:0:0:
370,147,57128,2,0,B|300:180|300:180|186:133,1,168.959999484375,8|0,0:2|0:2,0:0:0:0:
460,66,57428,6,0,B|492:125|492:125|479:333,2,253.439999226563,6|10|2,1:2|0:2|1:2,0:0:0:0:
263,24,58228,1,0,1:2:0:0:
330,236,58328,2,0,B|268:231|243:200|266:185|227:147|157:153,1,168.959999484375,10|0,0:2|0:2,0:0:0:0:
26,156,58628,6,0,P|79:84|181:76,1,168.959999484375,0|0,1:2|0:2,0:0:0:0:
251,341,58928,2,0,P|170:321|123:253,1,168.959999484375,10|0,0:2|0:2,0:0:0:0:
335,92,59213,2,0,P|362:116|385:193,1,84.4799997421875,2|0,1:2|0:2,0:0:0:0:
353,322,59404,1,8,0:2:0:0:
269,166,59499,6,0,P|259:199|257:233,1,62.3999996191406,8|0,0:2|1:2,0:0:0:0:
151,370,59828,6,0,B|167:283|167:283|131:163,1,168.959999484375,6|0,1:2|0:0,0:0:0:0:
387,42,60128,2,0,B|356:119|356:119|378:246,1,168.959999484375,10|0,0:2|0:2,0:0:0:0:
481,371,60428,2,0,B|378:358|451:301|285:281,1,168.959999484375,2|0,1:2|0:2,0:0:0:0:
270,335,60728,1,8,0:2:0:0:
109,60,60928,5,2,1:2:0:0:
161,210,61028,2,0,P|170:152|196:98,1,84.4799997421875,2|0,0:2|0:2,0:0:0:0:
233,44,61228,1,2,1:2:0:0:
125,267,61328,2,0,P|121:167|93:81,1,168.959999484375,10|0,0:2|0:2,0:0:0:0:
319,79,61628,6,0,B|385:57|385:57|472:104,1,168.959999484375,2|0,1:2|0:2,0:0:0:0:
185,336,61928,2,0,B|119:358|119:358|31:310,1,168.959999484375,10|0,0:2|0:2,0:0:0:0:
193,22,62228,6,0,B|237:126|160:91|202:249,1,168.959999484375,6|0,1:2|0:2,0:0:0:0:
329,380,62528,2,0,B|346:291|287:306|317:203,1,168.959999484375,10|0,0:2|0:2,0:0:0:0:
463,131,62828,2,0,P|398:66|293:71,1,168.959999484375,2|0,1:2|0:2,0:0:0:0:
103,267,63128,2,0,P|156:335|240:341,1,168.959999484375,8|0,0:2|0:2,0:0:0:0:
468,262,63428,6,0,L|383:248,1,79.3599968515626,6|0,1:2|0:2,0:0:0:0:
289,190,63728,2,0,L|409:167,1,104.960001601563,14|0,0:2|1:2,0:0:0:0:
434,349,64028,2,0,L|276:295,1,130.560000796875,6|0,1:2|1:2,0:0:0:0:
220,107,64328,2,0,L|406:151,1,156.159993566407,14|0,0:2|0:2,0:0:0:0:
91,377,64628,6,0,B|55:330|55:330|84:193,1,156.159993566407,6|0,1:2|0:2,0:0:0:0:
150,156,64928,2,0,B|186:203|186:203|165:297,1,156.159993566407,8|0,0:2|0:2,0:0:0:0:
108,22,65228,6,0,B|225:9|147:82|309:68,1,156.159993566407,6|0,1:2|0:2,0:0:0:0:
416,97,65528,2,0,B|299:84|377:157|215:143,1,156.159993566407,8|0,0:2|0:2,0:0:0:0:
512,66,65828,6,0,L|496:221,1,156.159993566407,6|0,1:2|0:2,0:0:0:0:
426,367,66128,2,0,L|410:211,1,156.159993566407,8|0,0:2|0:2,0:0:0:0:
305,15,66428,6,0,P|248:38|221:151,1,156.159993566407,6|0,1:2|1:2,0:0:0:0:
231,285,66728,2,0,P|288:262|315:149,1,156.159993566407,8|0,0:2|0:2,0:0:0:0:
43,199,67028,6,0,L|216:213,1,156.159993566407,6|0,1:2|0:2,0:0:0:0:
325,361,67328,2,0,L|152:375,1,156.159993566407,8|0,0:2|0:2,0:0:0:0:
111,325,67628,1,0,1:2:0:0:
330,198,67828,5,2,1:2:0:0:
253,159,67928,1,8,0:2:0:0:
480,68,68128,5,0,1:2:0:0:
416,126,68228,2,0,L|441:324,1,156.159993566407,2|2,1:2|0:2,0:0:0:0:
491,344,68528,1,8,0:2:0:0:
263,233,68728,5,2,1:2:0:0:
225,307,68828,1,0,1:2:0:0:
91,105,69028,5,2,1:2:0:0:
136,166,69128,2,0,P|197:132|216:36,1,156.159993566407,10|2,0:2|0:2,0:0:0:0:
299,11,69428,6,0,B|222:38|222:38|144:15,2,157.440002402344,6|2|2,1:2|0:2|0:2,0:0:0:0:
470,108,70347,5,2,1:2:0:0:
338,217,70647,1,8,0:2:0:0:
382,29,70932,1,2,1:2:0:0:
500,194,71218,2,0,P|439:196|388:172,1,104.960001601563,0|0,0:2|0:0,0:0:0:0:
296,122,71519,6,0,L|494:149,2,157.440002402344,2|0|2,1:2|1:2|0:2,0:0:0:0:
47,276,72419,2,0,P|91:245|157:244,1,104.960001601563,0|0,0:2|0:0,0:0:0:0:
204,303,72728,5,2,1:2:0:0:
145,131,73060,1,8,0:2:0:0:
82,362,73331,1,2,1:2:0:0:
226,198,73624,1,0,0:2:0:0:
285,362,73918,2,0,L|402:334,1,104.960001601563,0|0,1:2|0:0,0:0:0:0:
512,312,74197,6,0,B|459:281|459:281|326:309,2,157.440002402344,6|2|2,1:2|0:2|0:2,0:0:0:0:
326,53,75127,1,2,1:2:0:0:
226,198,75327,1,0,1:2:0:0:
155,146,75427,2,0,P|196:112|291:124,1,128,8|0,0:2|0:2,0:0:0:0:
317,161,75727,6,0,P|356:183|416:187,1,92.16000225,2|0,1:2|0:2,0:0:0:0:
479,146,76042,1,8,0:2:0:0:
296,43,76335,1,2,0:2:0:0:
304,274,76628,5,2,1:2:0:0:
451,57,76928,1,10,0:2:0:0:
157,175,77228,1,2,1:2:0:0:
363,359,77528,1,10,0:2:0:0:
376,8,77828,5,14,1:2:0:0:
377,9,79028,6,0,B|336:63|336:63|359:182,1,143.36000175,6|0,1:2|0:2,0:0:0:0:
418,241,79328,2,0,B|459:187|459:187|436:68,1,143.36000175,10|0,0:2|0:2,0:0:0:0:
340,271,79628,2,0,B|242:249|317:206|180:184,1,143.36000175,2|0,1:2|0:2,0:0:0:0:
163,240,79928,1,8,0:2:0:0:
86,43,80128,5,2,1:2:0:0:
181,8,80228,2,0,L|150:175,1,143.36000175,2|0,1:2|1:2,0:0:0:0:
93,189,80528,1,10,0:2:0:0:
268,80,80728,5,2,1:2:0:0:
237,163,80828,1,10,0:2:0:0:
460,35,81028,5,2,1:2:0:0:
502,164,81128,2,0,B|448:163|424:118|424:118|404:141|375:142,1,143.36000175,10|0,0:2|0:2,0:0:0:0:
362,60,81428,6,0,L|385:233,1,143.36000175,2|0,1:2|0:2,0:0:0:0:
268,373,81728,2,0,L|291:199,1,143.36000175,10|0,0:2|0:2,0:0:0:0:
237,163,82028,1,0,1:2:0:0:
374,316,82228,5,2,0:2:0:0:
410,240,82328,1,10,0:2:0:0:
176,368,82528,5,2,1:2:0:0:
110,326,82628,2,0,P|112:257|99:166,1,143.36000175,2|0,0:2|1:0,0:0:0:0:
48,128,82928,1,14,0:2:0:0:
260,295,83128,5,2,1:2:0:0:
228,214,83228,1,10,0:2:0:0:
389,384,83428,5,2,1:2:0:0:
445,317,83528,2,0,P|445:239|468:164,1,143.36000175,10|0,0:2|0:2,0:0:0:0:
493,97,83828,6,0,B|391:62|449:148|307:119,1,143.36000175,6|0,1:2|0:2,0:0:0:0:
117,33,84128,2,0,B|215:3|171:77|303:55,1,143.36000175,10|0,0:2|0:2,0:0:0:0:
342,5,84428,2,0,L|300:211,1,143.36000175,0|2,1:2|0:2,0:0:0:0:
241,194,84728,1,10,0:2:0:0:
468,232,84928,5,2,1:2:0:0:
407,179,85028,2,0,B|371:226|371:226|388:321,1,143.36000175,2|0,1:2|1:2,0:0:0:0:
453,352,85328,1,10,0:2:0:0:
257,275,85528,5,2,1:2:0:0:
289,359,85628,1,10,0:2:0:0:
80,192,85828,5,2,1:2:0:0:
108,264,85928,2,0,P|166:211|159:118,1,143.36000175,10|0,0:2|0:2,0:0:0:0:
90,87,86228,6,0,B|192:71|133:147|282:127,1,143.36000175,2|0,1:2|0:2,0:0:0:0:
316,60,86528,2,0,L|288:216,1,143.36000175,10|0,0:2|0:2,0:0:0:0:
321,340,86828,5,0,1:2:0:0:
371,352,86928,1,0,1:2:0:0:
418,343,87028,1,10,0:2:0:0:
458,314,87128,2,0,P|473:280|474:214,1,71.680000875,10|0,0:2|1:2,0:0:0:0:
375,41,87328,5,10,0:2:0:0:
307,0,87428,1,8,0:2:0:0:
231,22,87528,1,8,0:2:0:0:
191,89,87628,1,8,0:2:0:0:
204,166,87728,2,0,P|237:211|371:197,1,143.36000175,2|0,1:2|1:2,0:0:0:0:
427,211,88028,2,0,P|394:166|260:180,1,143.36000175,2|0,1:2|0:2,0:0:0:0:
61,378,88328,6,0,B|84:327|83:266|83:266|109:322|136:361|136:361|139:296|171:237,1,346.559995769531,6|0,1:2|0:0,0:0:0:0:
