osu file format v14

[General]
AudioFilename: audio.mp3
AudioLeadIn: 0
PreviewTime: 49538
Countdown: 0
SampleSet: Soft
StackLeniency: 0.7
Mode: 0
LetterboxInBreaks: 0
WidescreenStoryboard: 1

[Editor]
Bookmarks: 15018
DistanceSpacing: 1.3
BeatDivisor: 3
GridSize: 32
TimelineZoom: 5.699997

[Metadata]
Title:Black Catcher (TV Size)
TitleUnicode:Black Catcher (TV Size)
Artist:Vickeblanka
ArtistUnicode:ビッケブランカ
Creator:Nymphe
Version:Reform's Insane
Source:ブラッククローバー
Tags:black asta demon clover anime japanese opening 10 yami yuno licht lumiere Reform -Zeraora Akitoshi NeKroMan4ik kujinn -Laura- Corinn rock j-rock jrock
BeatmapID:2295687
BeatmapSetID:1094672

[Difficulty]
HPDrainRate:5
CircleSize:4.3
OverallDifficulty:8.2
ApproachRate:9
SliderMultiplier:1.72
SliderTickRate:1

[Events]
//Background and Video events
Video,0,"videoo.mp4"
0,0,"Background.jpg",0,0
//Break Periods
//Storyboard Layer 0 (Background)
//Storyboard Layer 1 (Fail)
//Storyboard Layer 2 (Pass)
//Storyboard Layer 3 (Foreground)
//Storyboard Layer 4 (Overlay)
//Storyboard Sound Samples

[TimingPoints]
78,316.622691292876,4,2,22,52,1,0
78,-138.888888888889,4,2,22,52,0,0
394,325.20325203252,4,2,22,52,1,0
394,-138.888888888889,4,2,22,52,0,0
719,340.909090909091,4,2,22,52,1,0
719,-161.290322580645,4,2,22,52,0,0
1059,320.855614973262,4,2,22,52,1,0
1381,333.333333333333,4,2,22,52,1,0
1381,-138.888888888889,4,2,22,52,0,0
4714,352.941176470588,4,2,22,52,1,0
4714,-108.695652173913,4,2,22,52,0,0
5066,401.33779264214,4,2,22,52,1,0
5066,-98.0392156862745,4,2,22,52,0,0
5467,375,4,2,22,52,1,0
5467,-121.951219512195,4,2,22,52,0,0
6123,353.460972017673,4,2,22,52,1,0
6123,-138.888888888889,4,2,22,52,0,0
6476,327.421555252387,4,2,22,52,1,0
6476,-138.888888888889,4,2,22,52,0,0
6803,356.083086053412,4,2,22,52,1,0
6803,-192.307692307692,4,2,22,52,0,0
7515,-138.888888888889,4,2,22,52,0,0
8167,-138.888888888889,4,2,22,5,0,0
8226,300,4,2,22,72,1,0
8226,-89.2857142857143,4,2,22,72,0,0
18126,-108.695652173913,4,2,22,62,0,0
21126,285.714285714286,4,2,22,62,1,0
21133,-108.695652173913,4,2,22,62,0,0
21316,300,4,2,22,62,1,0
21316,-108.695652173913,4,2,22,62,0,0
21411,312.5,4,2,22,62,1,0
21411,-108.695652173913,4,2,22,62,0,0
21723,286.396181384249,4,2,22,62,1,0
21723,-108.695652173913,4,2,22,62,0,0
22295,310.478654592497,4,2,22,62,1,0
22295,-108.695652173913,4,2,22,62,0,0
22605,305.343511450382,4,2,22,62,1,0
22605,-108.695652173913,4,2,22,62,0,0
23215,313.31592689295,4,2,22,62,1,0
23215,-108.695652173913,4,2,22,62,0,0
23528,310.077519379845,4,2,22,62,1,0
23528,-108.695652173913,4,2,22,62,0,0
23838,305.343511450382,4,2,22,62,1,0
23838,-108.695652173913,4,2,22,62,0,0
24143,287.081339712919,4,2,22,62,1,0
24143,-108.695652173913,4,2,22,62,0,0
24717,311.688311688312,4,2,22,62,1,0
24717,-108.695652173913,4,2,22,62,0,0
25028,300,4,2,22,62,1,0
25028,-108.695652173913,4,2,22,62,0,0
25328,-108.695652173913,4,2,22,62,0,0
25628,-108.695652173913,4,2,22,62,0,0
25928,317.460317460317,4,2,22,62,1,0
25928,-108.695652173913,4,2,22,62,0,0
26245,283.018867924528,4,2,22,62,1,0
26245,-108.695652173913,4,2,22,62,0,0
26528,300,4,2,22,62,1,0
26528,-108.695652173913,4,2,22,62,0,0
27428,300,4,2,22,62,1,0
27428,-108.695652173913,4,2,22,62,0,0
32228,-100,4,2,22,62,0,0
37028,-81.9672131147541,4,2,22,82,0,0
38828,-81.9672131147541,4,2,22,72,0,0
39028,-81.9672131147541,4,2,22,62,0,0
39428,-161.290322580645,4,2,22,62,0,0
46290,319.148936170213,4,2,22,60,1,0
46300,-161.290322580645,4,2,22,60,0,0
46928,300,4,2,22,52,1,0
46928,-161.290322580645,4,2,22,52,0,0
47828,300,4,2,22,52,1,0
47828,-161.290322580645,4,2,22,52,0,0
49028,-238.095238095238,4,2,22,52,0,0
49528,-238.095238095238,4,2,22,5,0,0
49628,-454.545454545455,4,2,22,42,0,0
50128,-454.545454545455,4,2,22,42,0,0
50178,-454.545454545455,4,2,22,5,0,0
50228,-75.7575757575758,4,2,22,92,0,1
53828,-75.7575757575758,4,2,22,62,0,1
54128,-75.7575757575758,4,2,22,72,0,1
54428,-75.7575757575758,4,2,22,82,0,1
54728,-75.7575757575758,4,2,22,92,0,1
58928,285.714285714286,4,2,22,92,1,1
58928,-75.7575757575758,4,2,22,92,0,1
59499,-108.695652173913,4,2,22,82,0,0
59678,300,4,2,22,82,1,0
59828,300,4,2,22,92,1,1
59828,-75.7575757575758,4,2,22,92,0,1
63428,-75.7575757575758,4,2,22,62,0,1
63728,-75.7575757575758,4,2,22,72,0,1
64028,-75.7575757575758,4,2,22,82,0,1
64328,-75.7575757575758,4,2,22,92,0,1
69428,306.513409961686,4,2,22,62,1,0
69428,-161.290322580645,4,2,22,62,0,0
70347,300,4,2,22,62,1,0
70347,-161.290322580645,4,2,22,62,0,0
70647,285.714285714286,4,2,22,62,1,0
70647,-161.290322580645,4,2,22,62,0,0
70932,-161.290322580645,4,2,22,62,0,0
71218,-161.290322580645,4,2,22,62,0,0
71225,-161.290322580645,4,2,22,62,0,0
71519,300,4,2,22,62,1,0
71519,-161.290322580645,4,2,22,62,0,0
72728,332.409972299169,4,2,22,62,1,0
72728,-161.290322580645,4,2,22,62,0,0
73060,271.493212669683,4,2,22,62,1,0
73060,-161.290322580645,4,2,22,62,0,0
73331,-161.290322580645,4,2,22,62,0,0
73918,279.06976744186,4,2,22,62,1,0
73918,-161.290322580645,4,2,22,62,0,0
74197,310.077519379845,4,2,22,62,1,0
74197,-161.290322580645,4,2,22,62,0,0
75127,300,4,2,22,62,1,0
75127,-161.290322580645,4,2,22,62,0,0
75727,315.789473684211,4,2,22,62,1,0
75727,-161.290322580645,4,2,22,62,0,0
76042,293.398533007335,4,2,22,62,1,0
76042,-161.290322580645,4,2,22,62,0,0
76628,300,4,2,22,82,1,0
76628,-81.967213114754,4,2,22,82,0,0
79028,-89.2857142857143,4,2,22,82,0,0
88328,-370.37037037037,4,2,22,92,0,0
89278,-175.438596491228,4,2,22,32,0,0

[Colours]
Combo1 : 142,197,109
Combo2 : 164,23,27
Combo3 : 120,85,58
Combo4 : 115,124,206

[HitObjects]
38,76,78,6,0,B|66:93|66:93|102:83,1,61.9200015117188,2|0,0:2|0:2,0:0:0:0:
240,14,394,2,0,B|211:6|211:6|183:23,1,61.9200015117188,2|0,0:2|0:2,0:0:0:0:
172,112,719,2,0,P|189:152|173:231,1,106.639995769287,2|0,3:2|0:2,0:0:0:0:
241,304,1381,6,0,B|216:287|216:287|180:297,1,61.9200015117188,2|0,0:2|0:2,0:0:0:0:
40,355,1714,2,0,B|72:364|72:364|100:347,1,61.9200015117188,2|0,0:2|0:2,0:0:0:0:
125,212,2047,1,2,3:2:0:0:
205,376,2380,1,2,0:2:0:0:
423,212,2714,6,0,P|430:241|438:272,1,61.9200015117188,2|0,0:2|0:2,0:0:0:0:
481,157,3047,2,0,P|492:112|501:79,1,61.9200015117188,2|0,0:2|0:2,0:0:0:0:
317,60,3380,2,0,B|376:80|376:80|428:46,1,123.840003023438,2|0,3:2|0:2,0:0:0:0:
239,111,4047,6,0,L|174:88,1,61.9200015117188,2|0,0:2|0:2,0:0:0:0:
73,170,4380,2,0,L|131:149,1,61.9200015117188,2|0,0:2|0:2,0:0:0:0:
155,17,4714,2,0,P|120:47|133:151,1,158.239994687988,2|2,3:2|0:2,0:0:0:0:
416,365,5467,6,0,P|419:314|432:219,1,141.0400021521,6|0,0:2|0:2,0:0:0:0:
352,38,6123,6,0,B|403:74|403:74|479:52,1,123.840003023438,2|2,0:2|0:2,0:0:0:0:
324,179,6803,6,0,P|272:185|217:192,1,89.4399994541016,2|0,3:2|0:2,0:0:0:0:
53,260,7515,6,0,B|101:232|152:264|117:292|156:328|219:326|245:294,1,206.400005039063,2|0,0:2|0:0,0:0:0:0:
326,334,8227,6,0,B|410:317|353:267|467:259,1,128.426668234375,6|0,1:2|0:2,0:0:0:0:
512,175,8526,2,0,B|428:158|485:108|371:100,1,128.426668234375,10|0,0:2|0:2,0:0:0:0:
309,20,8826,2,0,P|321:93|336:187,1,128.426668234375,2|0,1:2|0:2,0:0:0:0:
295,222,9126,1,8,0:2:0:0:
24,110,9326,5,2,0:2:0:0:
75,58,9426,2,0,P|127:53|178:133,1,128.426668234375,2|0,1:2|0:2,0:0:0:0:
113,300,9726,6,0,B|109:328|64:335|64:335|52:293|90:279,1,128.426668234375,10|2,0:2|1:2,0:0:0:0:
184,245,10026,2,0,B|210:234|238:269|238:269|208:301|177:275,1,128.426668234375,10|2,0:2|1:2,0:0:0:0:
98,205,10326,2,0,B|75:187|92:145|92:145|134:155|127:195,1,128.426668234375,10|0,0:2|0:2,0:0:0:0:
113,300,10626,1,2,1:2:0:0:
296,144,10926,6,0,B|298:179|262:201|262:201|283:258|283:258|253:283|264:326,1,192.640002351562,10|0,0:2|1:2,0:0:0:0:
448,182,11426,1,2,0:2:0:0:
455,171,11526,1,10,0:2:0:0:
368,40,11726,5,2,0:2:0:0:
364,27,11826,2,0,P|302:75|234:48,1,128.426668234375,2|0,1:2|0:2,0:0:0:0:
173,51,12126,2,0,B|154:88|119:89|119:89|150:108|158:175,1,128.426668234375,10|2,0:2|1:2,0:0:0:0:
213,199,12426,2,0,B|190:164|207:133|207:133|175:150|113:124,1,128.426668234375,10|2,0:2|1:2,0:0:0:0:
64,160,12726,2,0,B|105:157|123:187|123:187|124:151|178:110,1,128.426668234375,10|0,0:2|0:2,0:0:0:0:
173,51,13026,1,6,1:2:0:0:
311,152,13326,6,0,B|394:143|339:98|444:89,1,128.426668234375,10|0,0:2|0:2,0:0:0:0:
419,211,13626,2,0,B|336:202|391:157|286:148,1,128.426668234375,2|0,1:2|0:2,0:0:0:0:
239,199,13926,1,10,0:2:0:0:
328,335,14126,5,2,1:2:0:0:
406,362,14226,2,0,P|481:361|492:274,1,128.426668234375,2|0,1:2|0:2,0:0:0:0:
393,96,14526,6,0,B|351:45|351:45|354:124,1,128.426668234375,10|2,0:2|1:2,0:0:0:0:
441,195,14826,2,0,B|505:184|505:184|435:147,1,128.426668234375,10|2,0:2|1:2,0:0:0:0:
333,181,15126,2,0,B|310:242|310:242|377:199,1,128.426668234375,10|0,0:2|0:2,0:0:0:0:
393,96,15426,1,6,1:2:0:0:
210,187,15726,6,0,B|158:208|124:159|124:159|51:137|19:184,1,192.640002351562,10|2,0:2|1:2,0:0:0:0:
24,289,16226,1,2,1:2:0:0:
28,307,16326,1,10,0:2:0:0:
35,167,16526,5,2,1:2:0:0:
29,181,16626,2,0,P|19:114|4:37,1,128.426668234375,2|0,1:2|0:2,0:0:0:0:
95,15,16926,2,0,B|135:24|148:53|148:53|169:29|224:25,1,128.426668234375,14|0,0:2|0:2,0:0:0:0:
275,65,17226,1,2,1:2:0:0:
186,217,17426,5,10,0:2:0:0:
174,225,17526,1,10,0:2:0:0:
316,319,17726,5,2,1:2:0:0:
328,327,17826,1,6,1:2:0:0:
328,327,18126,6,0,P|318:263|301:189,1,105.493329791992,10|0,0:2|0:2,0:0:0:0:
377,188,18426,2,0,P|387:124|404:50,1,105.493329791992,2|0,1:2|0:2,0:0:0:0:
339,25,18726,1,10,0:2:0:0:
214,171,18926,5,2,1:2:0:0:
162,120,19026,2,0,P|105:141|112:222,1,105.493329791992,2|2,1:2|1:2,0:0:0:0:
35,249,19326,2,0,P|113:261|174:283,1,105.493329791992,10|0,0:2|1:2,0:0:0:0:
263,327,19626,2,0,P|185:339|124:361,1,105.493329791992,2|0,1:2|1:2,0:0:0:0:
82,363,19926,1,10,0:2:0:0:
293,236,20226,6,0,B|317:186|317:186|288:130,1,105.493329791992,0|0,1:2|0:0,0:0:0:0:
114,141,20526,2,0,B|145:186|145:186|208:189,1,105.493329791992,10|0,0:2|0:2,0:0:0:0:
216,8,20826,2,0,L|173:137,1,105.493329791992,2|0,1:2|0:2,0:0:0:0:
195,189,21126,1,10,0:2:0:0:
295,91,21316,6,0,B|352:106|395:84|363:63|421:33|487:69,1,160.239994687988,0|2,1:2|0:2,0:0:0:0:
431,149,21723,2,0,B|406:180|406:180|438:272,1,105.493329791992,10|0,0:2|1:2,0:0:0:0:
503,286,22009,2,0,B|528:317|528:317|496:409,1,105.493329791992,2|0,1:2|1:2,0:0:0:0:
409,378,22295,2,0,P|351:363|286:344,1,105.493329791992,10|0,0:2|0:2,0:0:0:0:
147,366,22605,6,0,P|171:319|135:262,1,105.493329791992,6|0,1:2|0:2,0:0:0:0:
99,118,22910,2,0,P|75:165|111:222,1,105.493329791992,10|0,0:2|0:2,0:0:0:0:
151,273,23215,1,0,1:2:0:0:
391,66,23528,6,0,P|342:36|300:56,1,105.493329791992,10|0,0:2|0:2,0:0:0:0:
214,42,23838,2,0,P|263:72|305:52,1,105.493329791992,2|0,1:2|0:2,0:0:0:0:
359,9,24143,1,10,0:2:0:0:
461,193,24334,5,2,1:2:0:0:
446,212,24430,2,0,P|377:193|314:176,1,105.493329791992,2|2,1:2|1:2,0:0:0:0:
224,224,24717,2,0,P|293:205|356:188,1,105.493329791992,10|0,0:2|0:2,0:0:0:0:
328,79,25028,6,0,P|338:143|350:222,1,105.493329791992,6|0,1:2|0:2,0:0:0:0:
364,362,25328,2,0,P|371:309|380:257,1,105.493329791992,10|0,0:2|0:2,0:0:0:0:
446,212,25628,1,0,1:2:0:0:
90,361,25928,6,0,B|123:330|123:330|91:240,1,105.493329791992,10|0,0:2|0:2,0:0:0:0:
20,153,26245,2,0,B|-13:184|-13:184|19:274,1,105.493329791992,2|0,1:2|0:0,0:0:0:0:
32,309,26528,1,14,0:2:0:0:
218,157,26728,5,2,1:2:0:0:
233,172,26828,2,0,P|223:227|212:302,1,105.493329791992,2|0,1:2|1:2,0:0:0:0:
217,378,27128,2,0,P|208:325|199:273,1,105.493329791992,14|0,0:2|0:2,0:0:0:0:
173,124,27428,6,0,P|228:94|297:130,1,105.493329791992,2|0,1:2|0:2,0:0:0:0:
322,178,27728,2,0,P|373:184|416:156,1,105.493329791992,8|2,0:2|0:2,0:0:0:0:
373,1,28028,2,0,P|364:52|355:104,1,105.493329791992,0|0,1:2|0:2,0:0:0:0:
322,178,28328,1,10,0:2:0:0:
143,87,28528,5,2,1:2:0:0:
126,109,28628,2,0,P|134:160|143:212,1,105.493329791992,2|2,1:2|1:2,0:0:0:0:
83,266,28928,2,0,B|129:298|129:298|205:276,1,105.493329791992,10|0,0:2|1:2,0:0:0:0:
327,230,29228,2,0,B|281:198|281:198|233:211,1,105.493329791992,2|0,1:2|1:2,0:0:0:0:
267,279,29528,1,10,0:2:0:0:
416,199,29728,5,2,1:2:0:0:
397,184,29828,2,0,P|379:133|400:87,1,105.493329791992,2|2,1:2|1:2,0:0:0:0:
422,0,30128,2,0,P|440:51|419:97,1,105.493329791992,10|2,0:2|0:2,0:0:0:0:
350,49,30428,2,0,P|293:61|222:77,1,105.493329791992,2|0,1:2|0:2,0:0:0:0:
174,93,30728,1,10,0:2:0:0:
315,263,30928,5,2,1:2:0:0:
344,270,31028,2,0,P|401:282|472:298,1,105.493329791992,2|2,1:2|1:2,0:0:0:0:
512,227,31328,2,0,P|483:206|407:214,1,105.493329791992,10|2,0:2|1:2,0:0:0:0:
344,270,31628,2,0,P|292:277|247:251,1,105.493329791992,2|0,1:2|1:2,0:0:0:0:
192,189,31928,1,10,0:2:0:0:
36,351,32128,5,0,0:2:0:0:
47,362,32228,2,0,P|34:291|-11:246,1,114.666666666667,2|2,1:2|0:2,0:0:0:0:
0,147,32528,2,0,P|13:76|58:31,1,114.666666666667,10|2,0:2|0:2,0:0:0:0:
95,131,32828,1,0,1:2:0:0:
257,15,33128,1,10,0:2:0:0:
470,146,33328,5,0,0:2:0:0:
481,159,33428,2,0,P|441:200|364:183,1,114.666666666667,2|0,1:2|0:2,0:0:0:0:
277,145,33728,2,0,P|339:148|378:189,1,114.666666666667,8|0,0:2|1:2,0:0:0:0:
398,312,34028,2,0,P|391:241|383:175,1,114.666666666667,2|0,0:2|1:2,0:0:0:0:
397,83,34328,2,0,P|390:139|384:197,1,114.666666666667,10|2,0:2|0:2,0:0:0:0:
380,277,34628,1,0,1:2:0:0:
107,163,34928,6,0,L|129:312,1,114.666666666667,10|2,0:2|1:2,0:0:0:0:
135,354,35228,2,0,P|199:301|191:244,1,114.666666666667,2|0,1:2|0:2,0:0:0:0:
201,197,35528,2,0,P|217:143|267:118,1,114.666666666667,10|2,0:2|1:2,0:0:0:0:
338,163,35828,6,0,L|354:49,1,114.666666666667,2|2,1:2|0:2,0:0:0:0:
286,16,36128,1,14,0:2:0:0:
124,125,36428,2,0,B|66:140|66:140|19:105,1,114.666666666667,10|8,0:2|0:2,0:0:0:0:
40,36,36728,2,0,B|98:21|98:21|145:56,1,114.666666666667,10|0,0:2|0:2,0:0:0:0:
212,116,37028,6,0,B|175:197|255:176|194:284,1,139.893327569906,6|0,1:2|0:2,0:0:0:0:
147,313,37328,2,0,B|122:294|141:259|245:267|242:360,1,139.893327569906,8|0,0:2|0:2,0:0:0:0:
286,377,37628,6,0,P|360:351|448:344,1,139.893327569906,6|0,1:2|0:2,0:0:0:0:
488,294,37928,2,0,B|454:246|454:246|500:126,1,139.893327569906,8|0,0:2|0:2,0:0:0:0:
484,87,38228,6,0,B|398:99|449:139|359:151,1,139.893327569906,6|0,1:2|0:2,0:0:0:0:
284,227,38528,2,0,P|274:136|263:61,1,139.893327569906,8|0,0:2|0:2,0:0:0:0:
250,12,38828,5,2,1:2:0:0:
124,169,39028,1,0,1:2:0:0:
112,189,39128,2,0,P|41:168|80:110,1,139.893327569906,0|0,1:2|0:2,0:0:0:0:
117,72,39428,6,0,P|165:88|235:94,2,106.639995769287,6|2|2,1:2|0:2|0:2,0:0:0:0:
6,214,40328,1,2,1:2:0:0:
60,353,40628,2,0,P|110:331|192:323,1,106.639995769287,8|2,0:2|1:2,0:0:0:0:
308,287,41228,2,0,P|351:308|430:320,1,106.639995769287,0|2,0:2|1:2,0:0:0:0:
492,213,41828,6,0,P|500:158|465:94,2,106.639995769287,4|2|0,1:2|1:2|0:2,0:0:0:0:
334,338,42728,1,2,1:2:0:0:
220,120,43028,1,8,0:2:0:0:
433,220,43328,1,2,1:2:0:0:
209,318,43628,2,0,P|161:302|87:287,1,106.639995769287,0|0,0:2|1:2,0:0:0:0:
358,83,44228,5,2,1:2:0:0:
227,258,44528,1,2,1:2:0:0:
129,44,44828,1,2,0:2:0:0:
357,176,45128,1,2,1:2:0:0:
66,306,45428,2,0,P|60:245|44:183,2,106.639995769287,10|2|0,0:2|1:2|0:2,0:0:0:0:
196,75,46290,5,2,1:2:0:0:
440,206,46609,1,2,1:2:0:0:
148,296,46928,1,8,0:2:0:0:
349,155,47228,1,8,0:2:0:0:
292,384,47528,1,2,1:2:0:0:
88,250,47828,2,0,P|78:186|95:132,1,106.639995769287,10|8,0:2|0:2,0:0:0:0:
378,29,48428,2,0,P|388:93|371:147,1,106.639995769287,8|0,0:2|1:2,0:0:0:0:
222,360,49028,5,2,0:2:0:0:
222,360,49628,2,0,P|187:349|156:342,1,63.0666685913086,2|0,0:2|0:0,0:0:0:0:
134,268,50228,6,0,B|107:181|194:211|157:98,1,151.359999538086,6|0,1:2|0:2,0:0:0:0:
0,117,50528,2,0,B|88:137|19:197|135:221,1,151.359999538086,10|0,0:2|0:2,0:0:0:0:
210,74,50828,2,0,B|148:140|130:50|51:139,1,151.359999538086,2|0,1:2|0:2,0:0:0:0:
126,179,51128,1,8,0:2:0:0:
374,43,51328,5,2,1:2:0:0:
447,65,51428,2,0,B|407:129|407:129|456:215,1,151.359999538086,2|2,1:2|1:2,0:0:0:0:
512,242,51728,2,0,B|455:230|455:230|423:245|423:245|335:226,1,151.359999538086,10|0,0:2|0:2,0:0:0:0:
289,308,52028,2,0,P|278:227|263:111,1,151.359999538086,2|0,1:2|0:2,0:0:0:0:
195,96,52328,2,0,P|232:52|317:83,1,151.359999538086,10|0,0:2|0:2,0:0:0:0:
175,199,52628,6,0,B|203:231|203:231|38:195,1,151.359999538086,6|0,1:2|0:2,0:0:0:0:
9,114,52928,2,0,B|-19:146|-19:146|146:110,1,151.359999538086,10|0,0:2|0:2,0:0:0:0:
243,32,53228,2,0,B|271:64|271:64|106:28,1,151.359999538086,2|0,1:2|0:2,0:0:0:0:
0,13,53528,1,8,0:2:0:0:
210,186,53828,6,0,B|265:199|265:199|288:232|288:232|364:252,1,151.359999538086,6|0,1:2|0:2,0:0:0:0:
483,276,54128,2,0,B|428:289|428:289|405:322|405:322|329:342,1,151.359999538086,14|0,0:2|1:2,0:0:0:0:
276,381,54428,2,0,P|261:296|240:182,1,151.359999538086,6|0,1:2|1:2,0:0:0:0:
138,98,54728,2,0,P|124:172|111:246,1,151.359999538086,14|0,0:2|0:2,0:0:0:0:
27,324,55028,6,0,B|88:375|88:375|166:348,1,151.359999538086,6|0,1:2|0:2,0:0:0:0:
199,149,55328,2,0,B|124:176|124:176|108:257,1,151.359999538086,10|0,0:2|0:2,0:0:0:0:
276,381,55628,2,0,B|289:302|289:302|227:248,1,151.359999538086,2|0,1:2|0:2,0:0:0:0:
155,351,55928,1,8,0:2:0:0:
431,259,56128,5,0,0:2:0:0:
362,211,56228,2,0,P|334:149|378:73,1,151.359999538086,2|0,1:2|0:2,0:0:0:0:
481,40,56528,2,0,P|441:95|353:95,1,151.359999538086,8|0,0:2|1:2,0:0:0:0:
277,22,56828,2,0,P|344:28|388:104,1,151.359999538086,2|0,1:2|1:2,0:0:0:0:
312,187,57128,2,0,P|229:202|133:221,1,151.359999538086,8|0,0:2|0:2,0:0:0:0:
31,46,57428,6,0,P|-5:116|51:164,1,151.359999538086,6|0,1:2|0:0,0:0:0:0:
107,205,57728,2,0,P|143:275|87:323,1,151.359999538086,10|0,0:2|0:0,0:0:0:0:
22,342,58028,2,0,P|110:353|199:363,1,151.359999538086,2|0,1:2|1:2,0:0:0:0:
238,313,58328,2,0,P|326:302|415:292,1,151.359999538086,10|0,0:2|0:2,0:0:0:0:
467,322,58628,1,0,1:2:0:0:
458,35,58928,6,0,B|404:43|404:43|398:47|398:47|371:32|371:32|367:35|367:35|313:42,1,151.359999538086,10|0,0:2|0:2,0:0:0:0:
90,117,59213,2,0,B|144:124|144:124|148:127|148:127|175:112|175:112|181:116|181:116|235:124,1,151.359999538086,2|8,1:2|0:2,0:0:0:0:
445,168,59499,6,0,P|394:176|340:200,1,98.8999966799928,8|0,0:2|1:0,0:0:0:0:
232,324,59828,6,0,B|231:283|265:266|265:266|251:207|185:202,1,151.359999538086,6|0,1:2|0:2,0:0:0:0:
42,221,60128,2,0,B|77:240|74:278|74:278|133:295|169:241,1,151.359999538086,10|0,0:2|0:2,0:0:0:0:
217,117,60428,2,0,B|181:137|150:116|150:116|106:158|135:217,1,151.359999538086,2|0,1:2|0:2,0:0:0:0:
150,264,60728,1,8,0:2:0:0:
398,134,60928,5,2,1:2:0:0:
436,206,61028,2,0,P|447:127|484:65,1,151.359999538086,2|2,0:2|1:2,0:0:0:0:
300,23,61328,2,0,P|362:72|398:135,1,151.359999538086,10|0,0:2|0:2,0:0:0:0:
512,17,61628,2,0,P|438:46|365:45,1,151.359999538086,2|0,1:2|0:2,0:0:0:0:
244,93,61928,2,0,P|170:63|97:64,1,151.359999538086,10|0,0:2|0:2,0:0:0:0:
0,155,62228,6,0,B|5:222|5:222|25:244|25:244|32:329,1,151.359999538086,6|0,1:2|0:2,0:0:0:0:
129,382,62528,2,0,B|124:327|124:327|104:305|104:305|99:238,1,151.359999538086,10|0,0:2|0:2,0:0:0:0:
159,138,62828,2,0,B|164:205|164:205|184:227|184:227|188:281,1,151.359999538086,2|0,1:2|0:2,0:0:0:0:
249,336,63128,1,8,0:2:0:0:
497,225,63428,6,0,P|447:219|437:117,1,151.359999538086,6|0,1:2|0:2,0:0:0:0:
510,63,63728,2,0,B|465:82|420:59|451:43|399:20|345:47,1,151.359999538086,14|0,0:2|1:2,0:0:0:0:
268,8,64028,2,0,P|288:95|297:212,1,151.359999538086,6|0,1:2|1:2,0:0:0:0:
411,199,64328,2,0,P|391:286|382:403,1,151.359999538086,14|0,0:2|0:2,0:0:0:0:
263,286,64628,6,0,P|190:270|123:390,2,227.039999307129,6|8|6,1:2|0:2|1:2,0:0:0:0:
40,219,65428,1,0,0:2:0:0:
102,165,65528,2,0,P|98:95|26:42,1,151.359999538086,8|0,0:2|0:2,0:0:0:0:
3,144,65828,6,0,P|65:175|147:139,1,151.359999538086,6|0,1:2|0:2,0:0:0:0:
124,36,66128,2,0,P|65:74|55:163,1,151.359999538086,8|0,0:2|0:2,0:0:0:0:
162,230,66428,2,0,P|220:191|230:102,1,151.359999538086,6|0,1:2|1:2,0:0:0:0:
226,19,66728,2,0,P|230:88|302:141,1,151.359999538086,8|0,0:2|0:2,0:0:0:0:
413,253,67028,6,0,P|418:168|426:6,2,227.039999307129,6|8|0,1:2|0:2|1:2,0:0:0:0:
243,344,67828,1,2,1:2:0:0:
172,303,67928,2,0,P|167:218|161:91,1,151.359999538086,8|0,0:2|1:2,0:0:0:0:
149,40,68228,6,0,P|119:24|54:32,1,75.679999769043,2|0,1:2|0:0,0:0:0:0:
236,100,68428,2,0,P|266:116|331:108,1,75.679999769043,2|8,0:2|0:2,0:0:0:0:
100,106,68628,1,0,0:0:0:0:
77,119,68728,2,0,P|58:178|100:276,1,151.359999538086,2|0,1:2|0:0,0:0:0:0:
186,351,69028,1,2,1:2:0:0:
202,327,69128,2,0,P|267:304|363:342,1,151.359999538086,10|2,0:2|0:2,0:0:0:0:
437,371,69428,6,0,P|441:321|463:239,2,106.639995769287,6|2|2,1:2|0:2|0:2,0:0:0:0:
241,163,70347,1,2,1:2:0:0:
415,113,70647,1,8,0:2:0:0:
274,278,70932,1,2,1:2:0:0:
134,65,71218,1,0,0:2:0:0:
367,189,71519,1,2,1:2:0:0:
118,321,71819,6,0,P|69:302|-2:289,2,106.639995769287,0|2|0,1:2|0:2|0:2,0:0:0:0:
317,110,72728,1,2,1:2:0:0:
113,183,73060,1,8,0:2:0:0:
316,265,73331,1,2,1:2:0:0:
205,75,73624,1,0,0:2:0:0:
71,263,73918,1,0,1:2:0:0:
431,136,74197,6,0,P|422:75|378:34,2,106.639995769287,6|2|2,1:2|0:2|0:2,0:0:0:0:
238,242,75127,2,0,P|259:269|290:287,1,71.0933305128582,2|0,1:2|1:2,0:0:0:0:
344,292,75427,2,0,P|380:270|405:221,1,71.0933305128582,8|0,0:2|0:2,0:0:0:0:
313,213,75727,1,2,1:2:0:0:
497,303,76042,1,8,0:2:0:0:
342,99,76335,1,2,0:2:0:0:
218,313,76628,6,0,P|224:242|193:167,1,139.893327569906,2|0,1:2|0:0,0:0:0:0:
115,139,76928,2,0,P|152:85|234:105,1,139.893327569906,10|0,0:2|0:0,0:0:0:0:
298,164,77228,2,0,P|331:184|377:176,2,69.9466637849529,2|0|0,1:2|0:0|0:0,0:0:0:0:
200,178,77528,2,0,P|176:243|182:312,1,139.893327569906,10|0,0:2|0:0,0:0:0:0:
288,377,77828,5,14,1:2:0:0:
186,50,79028,6,0,B|102:67|159:117|45:125,1,128.426668234375,6|0,1:2|0:2,0:0:0:0:
0,209,79328,2,0,B|84:226|27:276|141:284,1,128.426668234375,10|0,0:2|0:2,0:0:0:0:
203,364,79628,2,0,P|191:291|176:197,1,128.426668234375,2|0,1:2|0:2,0:0:0:0:
217,162,79928,1,8,0:2:0:0:
488,274,80128,5,2,1:2:0:0:
437,326,80228,2,0,P|385:331|334:251,1,128.426668234375,2|0,1:2|1:2,0:0:0:0:
399,84,80528,6,0,B|403:56|448:49|448:49|460:91|422:105,1,128.426668234375,10|2,0:2|1:2,0:0:0:0:
328,139,80828,2,0,B|302:150|274:115|274:115|304:83|335:109,1,128.426668234375,10|2,0:2|1:2,0:0:0:0:
414,179,81128,2,0,B|437:197|420:239|420:239|378:229|385:189,1,128.426668234375,10|0,0:2|0:2,0:0:0:0:
399,84,81428,1,2,1:2:0:0:
216,240,81728,6,0,B|214:205|250:183|250:183|229:126|229:126|259:101|248:58,1,192.640002351562,10|0,0:2|1:2,0:0:0:0:
64,202,82228,1,2,0:2:0:0:
57,213,82328,1,10,0:2:0:0:
144,344,82528,5,2,1:2:0:0:
148,357,82628,2,0,P|210:309|278:336,1,128.426668234375,2|0,0:2|1:0,0:0:0:0:
339,333,82928,2,0,B|358:296|393:295|393:295|362:276|354:209,1,128.426668234375,14|2,0:2|1:2,0:0:0:0:
299,185,83228,2,0,B|322:220|305:251|305:251|337:234|399:260,1,128.426668234375,10|2,0:2|1:2,0:0:0:0:
448,224,83528,2,0,B|407:227|389:197|389:197|388:233|334:274,1,128.426668234375,10|0,0:2|0:2,0:0:0:0:
339,333,83828,1,6,1:2:0:0:
201,232,84128,6,0,B|118:241|173:286|68:295,1,128.426668234375,10|0,0:2|0:2,0:0:0:0:
93,173,84428,2,0,B|176:182|121:227|226:236,1,128.426668234375,0|2,1:2|0:2,0:0:0:0:
273,185,84728,1,10,0:2:0:0:
184,49,84928,5,2,1:2:0:0:
106,22,85028,2,0,P|31:23|20:110,1,128.426668234375,2|0,1:2|1:2,0:0:0:0:
110,293,85328,6,0,B|152:344|152:344|149:265,1,128.426668234375,10|2,0:2|1:2,0:0:0:0:
62,194,85628,2,0,B|-2:205|-2:205|68:242,1,128.426668234375,10|2,0:2|1:2,0:0:0:0:
170,208,85928,2,0,B|193:147|193:147|126:190,1,128.426668234375,10|0,0:2|0:2,0:0:0:0:
110,293,86228,1,2,1:2:0:0:
307,167,86528,6,0,P|361:156|443:224,1,128.426668234375,10|0,0:2|0:2,0:0:0:0:
418,275,86828,2,0,L|429:341,2,64.2133341171875,0|0|10,1:2|1:2|0:2,0:0:0:0:
424,189,87128,2,0,L|434:125,2,64.2133341171875,10|0|10,0:2|1:2|0:2,0:0:0:0:
340,277,87428,5,8,0:2:0:0:
269,310,87528,1,8,0:2:0:0:
205,277,87628,1,8,0:2:0:0:
161,211,87728,2,0,L|151:147,2,64.2133341171875,2|0|0,1:2|1:2|1:2,0:0:0:0:
174,352,88028,5,2,1:2:0:0:
177,358,88328,6,0,P|184:306|125:337,1,147.060003590332,6|0,1:2|0:0,0:0:0:0:
