osu file format v14

[General]
AudioFilename: audio.mp3
AudioLeadIn: 0
PreviewTime: 49538
Countdown: 0
SampleSet: Soft
StackLeniency: 0.7
Mode: 0
LetterboxInBreaks: 0
WidescreenStoryboard: 1

[Editor]
DistanceSpacing: 1
BeatDivisor: 3
GridSize: 4
TimelineZoom: 4.599998

[Metadata]
Title:Black Catcher (TV Size)
TitleUnicode:Black Catcher (TV Size)
Artist:Vickeblanka
ArtistUnicode:ビッケブランカ
Creator:Nymphe
Version:NeKro's Hard
Source:ブラッククローバー
Tags:black asta demon clover anime japanese opening 10 yami yuno licht lumiere Reform -Zeraora Akitoshi NeKroMan4ik kujinn -Laura- Corinn rock j-rock jrock
BeatmapID:2296876
BeatmapSetID:1094672

[Difficulty]
HPDrainRate:4.6
CircleSize:3.8
OverallDifficulty:6
ApproachRate:7.5
SliderMultiplier:1.4
SliderTickRate:1

[Events]
//Background and Video events
0,0,"Background.jpg",0,0
Video,0,"videoo.mp4"
//Break Periods
//Storyboard Layer 0 (Background)
//Storyboard Layer 1 (Fail)
//Storyboard Layer 2 (Pass)
//Storyboard Layer 3 (Foreground)
//Storyboard Layer 4 (Overlay)
//Storyboard Sound Samples

[TimingPoints]
78,316.622691292876,4,2,22,52,1,0
78,-138.888888888889,4,2,22,52,0,0
394,325.20325203252,4,2,22,52,1,0
394,-138.888888888889,4,2,22,52,0,0
719,340.909090909091,4,2,22,52,1,0
719,-161.290322580645,4,2,22,52,0,0
1059,320.855614973262,4,2,22,52,1,0
1381,333.333333333333,4,2,22,52,1,0
1381,-138.888888888889,4,2,22,52,0,0
4714,352.941176470588,4,2,22,52,1,0
4714,-108.695652173913,4,2,22,52,0,0
5066,401.33779264214,4,2,22,52,1,0
5066,-98.0392156862745,4,2,22,52,0,0
5467,375,4,2,22,52,1,0
5467,-121.951219512195,4,2,22,52,0,0
6123,353.460972017673,4,2,22,52,1,0
6123,-138.888888888889,4,2,22,52,0,0
6476,327.421555252387,4,2,22,52,1,0
6476,-138.888888888889,4,2,22,52,0,0
6803,356.083086053412,4,2,22,52,1,0
6803,-192.307692307692,4,2,22,52,0,0
7508,-161.290322580645,4,2,22,52,0,0
8167,-161.290322580645,4,2,22,5,0,0
8226,300,4,2,22,72,1,0
8226,-100,4,2,22,72,0,0
17826,-125,4,2,22,72,0,0
18126,-125,4,2,22,62,0,0
18133,-125,4,2,22,62,0,0
21126,285.714285714286,4,2,22,62,1,0
21133,-125,4,2,22,62,0,0
21316,300,4,2,22,62,1,0
21333,-125,4,2,22,62,0,0
21411,312.5,4,2,22,62,1,0
21411,-125,4,2,22,62,0,0
21723,286.396181384249,4,2,22,62,1,0
21723,-125,4,2,22,62,0,0
22295,310.478654592497,4,2,22,62,1,0
22295,-125,4,2,22,62,0,0
22605,305.343511450382,4,2,22,62,1,0
22605,-125,4,2,22,62,0,0
23215,313.31592689295,4,2,22,62,1,0
23528,310.077519379845,4,2,22,62,1,0
23528,-125,4,2,22,62,0,0
23838,305.343511450382,4,2,22,62,1,0
23838,-125,4,2,22,62,0,0
24143,287.081339712919,4,2,22,62,1,0
24143,-125,4,2,22,62,0,0
24717,311.688311688312,4,2,22,62,1,0
24717,-125,4,2,22,62,0,0
25028,300,4,2,22,62,1,0
25028,-125,4,2,22,62,0,0
25928,317.460317460317,4,2,22,62,1,0
25928,-125,4,2,22,62,0,0
26245,283.018867924528,4,2,22,62,1,0
26245,-125,4,2,22,62,0,0
26528,300,4,2,22,62,1,0
26528,-125,4,2,22,62,0,0
27428,300,4,2,22,62,1,0
27428,-125,4,2,22,62,0,0
37028,-100,4,2,22,82,0,0
38828,-100,4,2,22,72,0,0
39028,-100,4,2,22,62,0,0
39428,-125,4,2,22,62,0,0
46290,319.148936170213,4,2,22,60,1,0
46300,-125,4,2,22,60,0,0
46614,-111.111111111111,4,2,22,60,0,0
46928,300,4,2,22,52,1,0
46928,-111.111111111111,4,2,22,52,0,0
47828,300,4,2,22,52,1,0
47828,-111.111111111111,4,2,22,52,0,0
49028,-100,4,2,22,52,0,0
49528,-100,4,2,22,5,0,0
49628,-100,4,2,22,42,0,0
50128,-100,4,2,22,42,0,0
50178,-100,4,2,22,5,0,0
50228,-90.9090909090909,4,2,22,92,0,1
53828,-90.9090909090909,4,2,22,62,0,1
54128,-90.9090909090909,4,2,22,72,0,1
54428,-90.9090909090909,4,2,22,82,0,1
54728,-90.9090909090909,4,2,22,92,0,1
58928,285.714285714286,4,2,22,92,1,1
58928,-90.9090909090909,4,2,22,92,0,1
59499,-111.111111111111,4,2,22,82,0,0
59678,300,4,2,22,82,1,0
59828,300,4,2,22,92,1,1
59828,-90.9090909090909,4,2,22,92,0,1
63428,-90.9090909090909,4,2,22,62,0,1
63728,-90.9090909090909,4,2,22,72,0,1
64028,-90.9090909090909,4,2,22,82,0,1
69428,306.513409961686,4,2,22,62,1,0
69428,-125,4,2,22,62,0,0
70347,300,4,2,22,62,1,0
70347,-125,4,2,22,62,0,0
70647,285.714285714286,4,2,22,62,1,0
70932,-125,4,2,22,62,0,0
71218,-125,4,2,22,62,0,0
71519,300,4,2,22,62,1,0
71519,-125,4,2,22,62,0,0
72728,332.409972299169,4,2,22,62,1,0
72728,-125,4,2,22,62,0,0
73060,271.493212669683,4,2,22,62,1,0
73331,-125,4,2,22,62,0,0
73918,279.06976744186,4,2,22,62,1,0
73918,-121.951219512195,4,2,22,62,0,0
74197,310.077519379845,4,2,22,62,1,0
74197,-125,4,2,22,62,0,0
75127,300,4,2,22,62,1,0
75127,-125,4,2,22,62,0,0
75727,315.789473684211,4,2,22,62,1,0
75727,-125,4,2,22,62,0,0
76042,293.398533007335,4,2,22,62,1,0
76042,-125,4,2,22,62,0,0
76628,300,4,2,22,82,1,0
76628,-111.111111111111,4,2,22,82,0,0
79028,-100,4,2,22,82,0,0
88328,-200,4,2,22,92,0,0
89278,-175.438596491228,4,2,22,32,0,0

[Colours]
Combo1 : 142,197,109
Combo2 : 164,23,27
Combo3 : 120,85,58
Combo4 : 115,124,206

[HitObjects]
52,294,8226,6,0,P|72:223|80:141,1,140,6|10,1:2|0:2,0:0:0:0:
198,38,8826,2,0,P|206:108|225:175,1,140,2|8,1:2|0:2,0:0:0:0:
320,236,9326,1,2,0:2:0:0:
320,236,9426,6,0,B|431:210,1,93.3333333333333,2|0,1:2|0:2,0:0:0:0:
448,174,9726,2,0,B|464:126|464:126|448:68,1,93.3333333333333,10|2,0:2|1:2,0:0:0:0:
415,43,10026,2,0,P|362:60|303:53,1,93.3333333333333,10|2,0:2|1:2,0:0:0:0:
285,18,10326,2,0,P|232:1|173:8,1,93.3333333333333,10|0,0:2|0:2,0:0:0:0:
150,39,10626,6,0,B|134:112|134:112|102:140|55:101,2,140,2|10|0,1:2|0:2|1:2,0:0:0:0:
249,95,11426,1,2,0:2:0:0:
249,95,11526,1,10,0:2:0:0:
227,201,11726,1,2,0:2:0:0:
227,201,11826,6,0,P|177:217|120:222,1,93.3333333333333,2|0,1:2|0:2,0:0:0:0:
93,259,12126,2,0,P|81:301|128:340,1,93.3333333333333,10|2,0:2|1:2,0:0:0:0:
159,365,12426,2,0,L|266:344,1,93.3333333333333,10|2,0:2|1:2,0:0:0:0:
285,308,12726,2,0,B|329:322|329:322|380:304,1,93.3333333333333,10|0,0:2|0:2,0:0:0:0:
405,261,13026,6,0,B|453:231|453:231|513:289,2,140,6|10|2,1:2|0:2|1:2,0:0:0:0:
267,358,13926,1,10,0:2:0:0:
197,270,14126,1,2,1:2:0:0:
197,270,14226,6,0,P|211:197|216:155,1,93.3333333333333,2|0,1:2|0:2,0:0:0:0:
178,135,14526,2,0,P|164:62|159:20,1,93.3333333333333,10|2,0:2|1:2,0:0:0:0:
196,0,14826,2,0,P|244:26|298:24,1,93.3333333333333,10|2,0:2|1:2,0:0:0:0:
325,64,15126,2,0,P|373:38|427:40,1,93.3333333333333,10|0,0:2|0:2,0:0:0:0:
456,70,15426,6,0,L|480:223,2,140,6|10|2,1:2|0:2|1:2,0:0:0:0:
374,139,16226,1,2,1:2:0:0:
374,139,16326,1,10,0:2:0:0:
314,228,16526,1,2,1:2:0:0:
314,228,16626,6,0,L|191:246,1,93.3333333333333,2|0,1:2|0:2,0:0:0:0:
186,285,16926,2,0,P|132:275|63:267,1,93.3333333333333,14|0,0:2|0:2,0:0:0:0:
60,225,17226,1,2,1:2:0:0:
113,121,17426,1,10,0:2:0:0:
113,121,17526,1,10,0:2:0:0:
234,46,17826,6,0,P|245:106|252:129,1,74.6666666666667,6|0,1:2|0:2,0:0:0:0:
248,167,18126,2,0,B|230:235|230:235|195:237|169:255,2,112,10|2|10,0:2|1:2|0:2,0:0:0:0:
332,117,18926,1,2,1:2:0:0:
332,117,19026,2,0,P|374:128|412:132,1,74.6666666666667,2|2,1:2|1:2,0:0:0:0:
441,163,19326,2,0,P|452:205|456:242,1,74.6666666666667,10|0,0:2|1:2,0:0:0:0:
426,274,19626,2,0,P|415:316|411:355,1,74.6666666666667,2|0,1:2|1:2,0:0:0:0:
375,379,19926,1,10,0:2:0:0:
246,311,20226,5,0,1:2:0:0:
138,212,20526,2,0,B|70:175|70:175|32:220,2,112,10|2|10,0:2|1:2|0:2,0:0:0:0:
245,267,21316,1,0,1:2:0:0:
245,267,21411,2,0,P|287:259|342:251,1,74.6666666666667,2|2,1:2|0:2,0:0:0:0:
353,214,21723,2,0,L|448:229,1,74.6666666666667,10|0,0:2|1:2,0:0:0:0:
470,204,22009,2,0,P|488:165|472:116,1,74.6666666666667,2|0,1:2|1:2,0:0:0:0:
469,92,22295,2,0,L|384:79,1,74.6666666666667,10|0,0:2|0:2,0:0:0:0:
355,50,22605,6,0,P|300:81|242:102,2,112,6|10|0,1:2|0:2|1:2,0:0:0:0:
375,195,23528,2,0,P|348:241|342:296,1,74.6666666666667,10|0,0:2|0:2,0:0:0:0:
300,286,23838,2,0,P|254:259|213:254,1,74.6666666666667,2|0,1:2|0:2,0:0:0:0:
199,215,24143,1,10,0:2:0:0:
144,141,24334,1,2,1:2:0:0:
144,141,24430,2,0,L|129:39,1,74.6666666666667,2|2,1:2|1:2,0:0:0:0:
91,49,24717,2,0,L|79:127,1,74.6666666666667,10|0,0:2|0:2,0:0:0:0:
56,167,25028,6,0,P|6:203|3:264,2,112,6|10|0,1:2|0:2|1:2,0:0:0:0:
153,265,25928,2,0,L|256:284,1,74.6666666666667,10|0,0:2|0:2,0:0:0:0:
263,318,26245,2,0,P|305:306|365:299,1,74.6666666666667,2|0,1:2|0:0,0:0:0:0:
372,271,26528,2,0,P|384:229|391:166,1,74.6666666666667,14|2,0:2|1:2,0:0:0:0:
423,164,26828,2,0,P|429:205|441:243,1,74.6666666666667,2|0,1:2|1:2,0:0:0:0:
473,270,27128,1,14,0:2:0:0:
376,367,27428,6,0,P|325:322|263:341,1,112,2|8,1:2|0:2,0:0:0:0:
198,293,27928,1,2,0:2:0:0:
198,293,28028,2,0,P|138:314|77:321,1,112,0|10,1:2|0:2,0:0:0:0:
33,247,28528,1,2,1:2:0:0:
33,247,28628,2,0,P|61:207|66:157,1,74.6666666666667,2|2,1:2|1:2,0:0:0:0:
84,137,28928,2,0,P|135:110|187:106,1,74.6666666666667,10|0,0:2|1:2,0:0:0:0:
186,72,29228,2,0,P|237:99|283:102,1,74.6666666666667,2|0,1:2|1:2,0:0:0:0:
298,83,29528,1,10,0:2:0:0:
386,134,29728,1,2,1:2:0:0:
386,134,29828,6,0,P|368:193|366:225,1,74.6666666666667,2|2,1:2|1:2,0:0:0:0:
393,246,30128,2,0,P|411:305|412:334,1,74.6666666666667,10|2,0:2|0:2,0:0:0:0:
389,361,30428,2,0,P|328:347|301:331,1,74.6666666666667,2|0,1:2|0:2,0:0:0:0:
277,314,30728,1,10,0:2:0:0:
211,249,30928,1,2,1:2:0:0:
211,249,31028,2,0,P|150:263|123:280,1,74.6666666666667,2|2,1:2|1:2,0:0:0:0:
90,266,31328,2,0,B|62:234|62:234|63:197,1,74.6666666666667,10|2,0:2|1:2,0:0:0:0:
91,158,31628,2,0,P|114:117|120:72,1,74.6666666666667,2|0,1:2|1:2,0:0:0:0:
144,44,31928,2,0,P|195:19|231:19,1,74.6666666666667,10|0,0:2|0:2,0:0:0:0:
265,45,32228,6,0,B|293:58|324:42|324:42|349:70|378:67,2,112,2|10|0,1:2|0:2|1:2,0:0:0:0:
257,188,33128,2,0,P|287:240|291:273,1,74.6666666666667,10|0,0:2|0:2,0:0:0:0:
324,291,33428,2,0,P|372:254|440:279,1,112,2|8,1:2|0:2,0:0:0:0:
505,212,33928,1,0,1:2:0:0:
505,212,34028,2,0,P|493:151|476:77,1,112,2|10,0:2|0:2,0:0:0:0:
413,35,34528,1,2,0:2:0:0:
413,35,34628,5,0,1:2:0:0:
305,129,34928,2,0,P|251:135|197:148,1,74.6666666666667,10|2,0:2|1:2,0:0:0:0:
193,174,35228,2,0,P|139:168|92:157,1,74.6666666666667,2|0,1:2|0:2,0:0:0:0:
78,131,35528,1,10,0:2:0:0:
29,214,35728,5,2,1:2:0:0:
29,214,35828,2,0,P|57:271|58:309,1,74.6666666666667,2|2,1:2|0:2,0:0:0:0:
94,317,36128,2,0,P|151:289|185:288,1,74.6666666666667,14|0,0:2|0:2,0:0:0:0:
199,253,36428,2,0,P|256:281|292:282,1,74.6666666666667,10|8,0:2|0:2,0:0:0:0:
312,259,36728,2,0,L|411:243,1,74.6666666666667,10|0,0:2|0:2,0:0:0:0:
440,234,37028,6,0,B|435:191|413:161|413:161|432:127|481:130,1,140,6|8,1:2|0:2,0:0:0:0:
332,0,37628,2,0,P|277:40|188:80,1,140,6|8,1:2|0:2,0:0:0:0:
94,210,38228,2,0,P|157:215|172:282,1,140,6|8,1:2|0:2,0:0:0:0:
329,374,38828,2,0,L|343:281,1,93.3333333333333,2|0,1:2|1:2,0:0:0:0:
367,249,39128,1,0,1:2:0:0:
284,123,39428,6,0,B|173:135|177:41|55:46,1,224,6|2,1:2|0:2,0:0:0:0:
15,177,40328,1,2,1:2:0:0:
88,302,40628,2,0,P|33:318|40:388,2,112,8|2|0,0:2|1:2|0:2,0:0:0:0:
220,239,41528,1,2,1:2:0:0:
340,322,41828,6,0,B|394:323|391:368|445:370,2,112,4|2|0,1:2|1:2|0:2,0:0:0:0:
220,239,42728,1,2,1:2:0:0:
232,94,43028,2,0,B|246:16|246:16|295:52,2,112,8|2|0,0:2|1:2|0:2,0:0:0:0:
220,239,43928,1,0,1:2:0:0:
352,177,44228,6,0,P|404:157|467:197,2,112,2|2|2,1:2|1:2|0:2,0:0:0:0:
220,239,45128,1,2,1:2:0:0:
103,151,45428,2,0,L|79:41,2,112,10|2|0,0:2|1:2|0:2,0:0:0:0:
202,227,46290,1,2,1:2:0:0:
330,147,46609,5,2,1:2:0:0:
472,216,46928,1,8,0:2:0:0:
503,363,47228,1,8,0:2:0:0:
357,322,47528,1,2,1:2:0:0:
263,203,47828,6,0,P|255:162|245:115,1,83.9999974365235,10|0,0:2|0:0,0:0:0:0:
214,80,48128,1,8,0:2:0:0:
125,42,48328,5,0,0:0:0:0:
125,42,48428,2,0,L|107:129,1,83.9999974365235,8|0,0:2|0:0,0:0:0:0:
70,158,48728,2,0,P|77:198|87:245,1,83.9999974365235,0|0,1:2|0:0,0:0:0:0:
352,55,50228,6,0,B|401:44|401:44|450:64,1,102.666669799805,6|0,1:2|0:2,0:0:0:0:
481,104,50528,2,0,P|462:164|457:207,1,102.666669799805,10|0,0:2|0:2,0:0:0:0:
430,247,50828,2,0,P|370:266|325:270,1,102.666669799805,2|0,1:2|0:2,0:0:0:0:
289,238,51128,1,8,0:2:0:0:
237,148,51328,6,0,B|262:62|262:62|239:33|186:40,1,154.000004699707,2|2,1:2|1:2,0:0:0:0:
158,15,51728,2,0,P|96:39|54:38,1,102.666669799805,10|0,0:2|0:2,0:0:0:0:
22,73,52028,2,0,P|59:128|66:163,1,102.666669799805,2|0,1:2|0:2,0:0:0:0:
86,209,52328,2,0,L|58:313,1,102.666669799805,10|0,0:2|0:2,0:0:0:0:
80,355,52628,6,0,B|150:339|150:397|231:384,2,154.000004699707,6|10|2,1:2|0:2|1:2,0:0:0:0:
3,293,53428,1,0,0:2:0:0:
3,293,53528,1,8,0:2:0:0:
67,153,53828,6,0,P|113:123|161:139,1,102.666669799805,6|0,1:2|0:2,0:0:0:0:
194,170,54128,2,0,P|241:202|287:185,1,102.666669799805,14|0,0:2|1:2,0:0:0:0:
315,151,54428,2,0,P|337:101|343:50,1,102.666669799805,6|0,1:2|1:2,0:0:0:0:
384,23,54728,2,0,P|392:68|416:119,1,102.666669799805,14|0,0:2|0:2,0:0:0:0:
461,144,55028,6,0,P|452:189|425:246,1,102.666669799805,6|0,1:2|0:2,0:0:0:0:
394,278,55328,2,0,L|287:261,1,102.666669799805,10|0,0:2|0:2,0:0:0:0:
250,291,55628,2,0,L|139:313,1,102.666669799805,2|0,1:2|0:2,0:0:0:0:
101,291,55928,1,8,0:2:0:0:
71,197,56128,1,0,0:2:0:0:
71,197,56228,6,0,B|103:175|108:138|108:138|146:106|206:134,1,154.000004699707,2|8,1:2|0:2,0:0:0:0:
272,69,56728,1,0,1:2:0:0:
272,69,56828,2,0,P|328:93|429:100,1,154.000004699707,2|8,1:2|0:2,0:0:0:0:
501,231,57428,6,0,P|442:237|395:285,1,102.666669799805,6|0,1:2|0:0,0:0:0:0:
372,297,57728,2,0,P|313:291|266:243,1,102.666669799805,10|0,0:2|0:0,0:0:0:0:
257,221,58028,2,0,B|211:200|211:200|160:212,1,102.666669799805,2|0,1:2|1:2,0:0:0:0:
119,243,58328,1,10,0:2:0:0:
58,326,58528,1,0,0:2:0:0:
58,326,58628,1,0,1:2:0:0:
192,381,58928,2,0,L|310:363,1,102.666669799805,10|0,0:2|0:2,0:0:0:0:
325,322,59213,2,0,P|369:333|454:340,1,102.666669799805,2|8,1:2|0:2,0:0:0:0:
475,326,59499,6,0,P|480:274|478:239,1,78.7499975967408,8|0,0:2|1:0,0:0:0:0:
421,193,59828,6,0,P|397:142|396:79,1,102.666669799805,6|0,1:2|0:2,0:0:0:0:
355,61,60128,2,0,B|312:36|312:36|260:48,1,102.666669799805,10|0,0:2|0:2,0:0:0:0:
222,82,60428,2,0,P|164:105|106:92,1,102.666669799805,2|0,1:2|0:2,0:0:0:0:
88,93,60728,1,8,0:2:0:0:
43,187,60928,1,2,1:2:0:0:
43,187,61028,6,0,P|75:241|81:300,1,102.666669799805,2|2,0:2|1:2,0:0:0:0:
128,307,61328,2,0,P|166:281|234:264,1,102.666669799805,10|0,0:2|0:2,0:0:0:0:
258,229,61628,2,0,P|280:188|289:129,1,102.666669799805,2|0,1:2|0:2,0:0:0:0:
324,96,61928,2,0,B|368:71|368:71|418:86,1,102.666669799805,10|0,0:2|0:2,0:0:0:0:
454,127,62228,6,0,L|485:294,2,154.000004699707,6|10|2,1:2|0:2|1:2,0:0:0:0:
392,45,63028,1,0,0:2:0:0:
392,45,63128,1,8,0:2:0:0:
285,166,63428,6,0,P|238:198|188:178,1,102.666669799805,6|0,1:2|0:2,0:0:0:0:
166,145,63728,2,0,P|119:110|67:129,1,102.666669799805,14|0,0:2|1:2,0:0:0:0:
37,148,64028,2,0,P|15:198|6:247,1,102.666669799805,6|0,1:2|1:2,0:0:0:0:
46,277,64328,2,0,P|68:327|73:376,1,102.666669799805,14|0,0:2|0:2,0:0:0:0:
124,383,64628,6,0,B|192:383|195:325|272:324,1,154.000004699707,6|8,1:2|0:2,0:0:0:0:
384,219,65228,2,0,P|311:199|240:135,1,154.000004699707,6|8,1:2|0:2,0:0:0:0:
202,67,65728,1,0,0:2:0:0:
202,67,65828,2,0,P|167:11|75:40,1,154.000004699707,6|8,1:2|0:2,0:0:0:0:
24,162,66428,2,0,P|79:177|137:218,1,102.666669799805,6|0,1:2|1:2,0:0:0:0:
138,247,66728,1,8,0:2:0:0:
272,341,67028,2,0,P|276:271|258:211,1,102.666669799805,6|0,1:2|0:2,0:0:0:0:
240,196,67328,1,8,0:2:0:0:
360,90,67628,1,0,1:2:0:0:
444,165,67828,1,2,1:2:0:0:
444,165,67928,1,8,0:2:0:0:
364,313,68228,6,0,L|340:207,1,102.666669799805,2|2,1:2|0:2,0:0:0:0:
320,168,68528,1,8,0:2:0:0:
232,113,68728,1,2,1:2:0:0:
232,113,68828,2,0,L|205:226,1,102.666669799805,0|2,1:2|1:2,0:0:0:0:
190,261,69128,1,10,0:2:0:0:
57,295,69428,6,0,B|41:233|8:165|8:165|58:161|105:122,1,224,6|2,1:2|0:2,0:0:0:0:
210,52,70347,2,0,P|264:81|326:86,1,112,2|8,1:2|0:2,0:0:0:0:
392,204,70932,2,0,P|336:211|288:239,1,112,2|0,1:2|0:2,0:0:0:0:
199,350,71519,1,2,1:2:0:0:
93,249,71819,6,0,L|114:139,2,112,0|2|0,1:2|0:2|0:2,0:0:0:0:
199,332,72728,2,0,L|313:310,1,112,2|8,1:2|0:2,0:0:0:0:
437,261,73331,1,2,1:2:0:0:
403,119,73625,2,0,P|401:60|350:61,1,121.333333333333,0|0,0:2|1:2,0:0:0:0:
217,21,74197,6,0,P|160:41|101:50,2,112,6|2|2,1:2|0:2|0:2,0:0:0:0:
148,155,75127,2,0,P|128:207|124:244,1,74.6666666666667,2|0,1:2|1:2,0:0:0:0:
136,268,75427,1,8,0:2:0:0:
253,195,75727,1,2,1:2:0:0:
374,293,76042,1,8,0:2:0:0:
495,213,76335,1,2,0:2:0:0:
399,100,76628,6,0,L|383:207,1,83.9999974365235,2|0,1:2|0:0,0:0:0:0:
377,232,76928,1,10,0:2:0:0:
243,303,77228,6,0,L|227:196,1,83.9999974365235,2|0,1:2|0:0,0:0:0:0:
221,171,77528,1,10,0:2:0:0:
92,91,77828,5,14,1:2:0:0:
92,91,79028,6,0,P|131:155|86:208,1,140,6|10,1:2|0:2,0:0:0:0:
196,340,79628,2,0,P|216:263|251:204,1,140,2|8,1:2|0:2,0:0:0:0:
321,129,80128,1,2,1:2:0:0:
321,129,80228,6,0,B|432:155,1,93.3333333333333,2|0,1:2|1:2,0:0:0:0:
449,191,80528,2,0,B|465:239|465:239|449:297,1,93.3333333333333,10|2,0:2|1:2,0:0:0:0:
415,322,80828,2,0,P|362:305|303:312,1,93.3333333333333,10|2,0:2|1:2,0:0:0:0:
286,347,81128,2,0,P|233:364|174:357,1,93.3333333333333,10|0,0:2|0:2,0:0:0:0:
151,326,81428,6,0,B|87:314|96:266|14:260,2,140,2|10|0,1:2|0:2|1:2,0:0:0:0:
250,270,82228,1,2,0:2:0:0:
250,270,82328,1,10,0:2:0:0:
228,164,82528,1,2,1:2:0:0:
228,164,82628,6,0,P|178:148|121:143,1,93.3333333333333,2|0,0:2|1:0,0:0:0:0:
94,106,82928,2,0,P|82:64|129:25,1,93.3333333333333,14|2,0:2|1:2,0:0:0:0:
160,0,83228,2,0,L|267:21,1,93.3333333333333,10|2,0:2|1:2,0:0:0:0:
286,57,83528,2,0,B|330:43|330:43|381:61,1,93.3333333333333,10|0,0:2|0:2,0:0:0:0:
406,104,83828,6,0,B|421:131|454:134|454:134|514:76,2,140,6|10|0,1:2|0:2|1:2,0:0:0:0:
268,7,84728,1,10,0:2:0:0:
198,95,84928,1,2,1:2:0:0:
198,95,85028,6,0,P|210:144|217:210,1,93.3333333333333,2|0,1:2|1:2,0:0:0:0:
177,229,85328,2,0,L|158:344,1,93.3333333333333,10|2,0:2|1:2,0:0:0:0:
197,365,85628,2,0,P|245:339|299:341,1,93.3333333333333,10|2,0:2|1:2,0:0:0:0:
326,301,85928,2,0,P|374:327|428:325,1,93.3333333333333,10|0,0:2|0:2,0:0:0:0:
457,295,86228,6,0,L|433:142,2,140,2|10|0,1:2|0:2|1:2,0:0:0:0:
418,337,86928,2,0,L|411:384,2,46.6666666666667,0|10|10,1:2|0:2|0:2,0:0:0:0:
321,266,87328,5,10,0:2:0:0:
321,266,87428,2,0,L|314:219,2,46.6666666666667,8|8|8,0:2|0:2|0:2,0:0:0:0:
278,303,87728,2,0,L|271:350,2,46.6666666666667,2|0|0,1:2|1:2|1:2,0:0:0:0:
238,264,88028,2,0,P|165:232|124:239,1,93.3333333333333,2|0,1:2|0:2,0:0:0:0:
120,222,88328,6,0,B|98:157|45:182|45:182|80:240|85:303,1,221.666666666667,6|0,1:2|0:0,0:0:0:0:
