osu file format v14

[General]
AudioFilename: audio.mp3
AudioLeadIn: 0
PreviewTime: 49538
Countdown: 0
SampleSet: Soft
StackLeniency: 0.7
Mode: 0
LetterboxInBreaks: 0
WidescreenStoryboard: 1

[Editor]
Bookmarks: 15018
DistanceSpacing: 1
BeatDivisor: 6
GridSize: 32
TimelineZoom: 2.3

[Metadata]
Title:Black Catcher (TV Size)
TitleUnicode:Black Catcher (TV Size)
Artist:Vickeblanka
ArtistUnicode:ビッケブランカ
Creator:Nymphe
Version:Akitoshi's Normal
Source:ブラッククローバー
Tags:black asta demon clover anime japanese opening 10 yami yuno licht lumiere Reform -Zeraora Akitoshi NeKroMan4ik kujinn -Laura- Corinn rock j-rock jrock
BeatmapID:2296789
BeatmapSetID:1094672

[Difficulty]
HPDrainRate:4
CircleSize:3.2
OverallDifficulty:4
ApproachRate:5
SliderMultiplier:1
SliderTickRate:1

[Events]
//Background and Video events
0,0,"Background.jpg",0,0
Video,0,"videoo.mp4"
//Break Periods
2,39628,45409
2,69628,77828
//Storyboard Layer 0 (Background)
//Storyboard Layer 1 (Fail)
//Storyboard Layer 2 (Pass)
//Storyboard Layer 3 (Foreground)
//Storyboard Layer 4 (Overlay)
//Storyboard Sound Samples

[TimingPoints]
78,316.622691292876,4,2,22,52,1,0
78,-100,4,2,22,52,0,0
394,325.20325203252,4,2,22,52,1,0
394,-100,4,2,22,52,0,0
719,340.909090909091,4,2,22,52,1,0
719,-100,4,2,22,52,0,0
1059,320.855614973262,4,2,22,52,1,0
1381,333.333333333333,4,2,22,52,1,0
1381,-100,4,2,22,52,0,0
4714,352.941176470588,4,2,22,52,1,0
4714,-100,4,2,22,52,0,0
5066,401.33779264214,4,2,22,52,1,0
5066,-100,4,2,22,52,0,0
5467,375,4,2,22,52,1,0
5467,-100,4,2,22,52,0,0
6123,353.460972017673,4,2,22,52,1,0
6123,-100,4,2,22,52,0,0
6476,327.421555252387,4,2,22,52,1,0
6476,-100,4,2,22,52,0,0
6803,356.083086053412,4,2,22,52,1,0
6803,-100,4,2,22,52,0,0
7508,-100,4,2,22,52,0,0
8167,-100,4,2,22,5,0,0
8226,300,4,2,22,72,1,0
8226,-100,4,2,22,72,0,0
18126,-100,4,2,22,62,0,0
18133,-100,4,2,22,62,0,0
21126,285.714285714286,4,2,22,62,1,0
21316,300,4,2,22,62,1,0
21411,312.5,4,2,22,62,1,0
21723,286.396181384249,4,2,22,62,1,0
22295,310.478654592497,4,2,22,62,1,0
22605,305.343511450382,4,2,22,62,1,0
23215,313.31592689295,4,2,22,62,1,0
23528,310.077519379845,4,2,22,62,1,0
23838,305.343511450382,4,2,22,62,1,0
24143,287.081339712919,4,2,22,62,1,0
24717,311.688311688312,4,2,22,62,1,0
24717,-100,4,2,22,62,0,0
25028,300,4,2,22,62,1,0
25028,-100,4,2,22,62,0,0
25328,-100,4,2,22,62,0,0
25628,-100,4,2,22,62,0,0
25928,317.460317460317,4,2,22,62,1,0
26245,283.018867924528,4,2,22,62,1,0
26528,300,4,2,22,62,1,0
27428,300,4,2,22,62,1,0
37028,-100,4,2,22,82,0,0
38828,-100,4,2,22,72,0,0
39028,-100,4,2,22,62,0,0
39428,-100,4,2,22,62,0,0
46290,319.148936170213,4,2,22,60,1,0
46300,-100,4,2,22,60,0,0
46928,300,4,2,22,52,1,0
47828,300,4,2,22,52,1,0
49028,-100,4,2,22,52,0,0
49528,-100,4,2,22,5,0,0
49628,-100,4,2,22,42,0,0
50128,-100,4,2,22,42,0,0
50178,-100,4,2,22,5,0,0
50228,-95.2380952380952,4,2,22,92,0,1
53828,-95.2380952380952,4,2,22,62,0,1
54128,-95.2380952380952,4,2,22,72,0,1
54428,-95.2380952380952,4,2,22,82,0,1
54728,-95.2380952380952,4,2,22,92,0,1
58928,285.714285714286,4,2,22,92,1,1
59213,-95.2380952380952,4,2,22,92,0,1
59499,-95.2380952380952,4,2,22,82,0,0
59678,300,4,2,22,82,1,0
59828,300,4,2,22,92,1,1
59828,-95.2380952380952,4,2,22,92,0,1
63428,-95.2380952380952,4,2,22,62,0,1
63728,-95.2380952380952,4,2,22,72,0,1
64028,-95.2380952380952,4,2,22,82,0,1
64328,-95.2380952380952,4,2,22,92,0,1
69428,306.513409961686,4,2,22,62,1,0
69428,-100,4,2,22,62,0,0
70347,300,4,2,22,62,1,0
70647,285.714285714286,4,2,22,62,1,0
71225,-100,4,2,22,62,0,0
71519,300,4,2,22,62,1,0
71519,-100,4,2,22,62,0,0
72728,332.409972299169,4,2,22,62,1,0
73060,271.493212669683,4,2,22,62,1,0
73918,279.06976744186,4,2,22,62,1,0
73918,-100,4,2,22,62,0,0
74197,310.077519379845,4,2,22,62,1,0
74197,-100,4,2,22,62,0,0
75127,300,4,2,22,62,1,0
75727,315.789473684211,4,2,22,62,1,0
75727,-100,4,2,22,62,0,0
76042,293.398533007335,4,2,22,62,1,0
76628,300,4,2,22,82,1,0
79028,-100,4,2,22,82,0,0
88328,-100,4,2,22,92,0,0
89278,-175.438596491228,4,2,22,32,0,0

[Colours]
Combo1 : 142,197,109
Combo2 : 164,23,27
Combo3 : 120,85,58
Combo4 : 115,124,206

[HitObjects]
25,161,8227,6,0,P|82:151|146:142,1,100,6|10,1:2|0:2,0:0:0:0:
196,76,8826,2,0,P|253:86|317:95,1,100,2|8,1:2|0:2,0:0:0:0:
340,99,9326,2,0,P|303:164|328:229,1,133.333333333333,2|10,0:2|0:2,0:0:0:0:
360,307,10026,2,0,P|306:315|251:327,1,100,10|10,0:2|0:2,0:0:0:0:
161,335,10626,5,2,1:2:0:0:
95,259,10926,2,0,P|52:273|-4:261,2,100,10|0|10,0:2|1:2|0:2,0:0:0:0:
127,226,11726,2,0,P|135:162|147:84,1,133.333333333333,2|10,0:2|0:2,0:0:0:0:
216,23,12426,1,10,0:2:0:0:
316,23,12726,1,10,0:2:0:0:
386,93,13026,6,0,P|401:138|394:189,1,100,6|10,1:2|0:2,0:0:0:0:
304,233,13626,2,0,P|289:278|296:329,1,100,2|10,1:2|0:2,0:0:0:0:
312,372,14126,2,0,P|367:353|462:340,1,133.333333333333,2|10,1:2|0:2,0:0:0:0:
497,258,14826,2,0,P|504:208|489:161,1,100,10|10,0:2|0:2,0:0:0:0:
423,85,15426,5,6,1:2:0:0:
338,137,15726,2,0,P|288:129|241:144,2,100,10|2|10,0:2|1:2|0:2,0:0:0:0:
373,166,16526,2,0,B|357:212|384:254|384:254|368:270|362:298,1,133.333333333333,2|14,1:2|0:2,0:0:0:0:
303,369,17226,1,2,1:2:0:0:
203,370,17526,1,10,0:2:0:0:
128,303,17826,1,6,1:2:0:0:
114,203,18126,6,0,P|61:211|1:221,2,100,10|2|10,0:2|1:2|0:2,0:0:0:0:
150,174,18926,2,0,P|207:188|276:156,1,133.333333333333,2|10,1:2|0:2,0:0:0:0:
331,77,19626,1,2,1:2:0:0:
428,97,19926,1,10,0:2:0:0:
456,192,20226,1,0,1:2:0:0:
397,273,20526,6,0,P|404:317|413:381,2,100,10|2|10,0:2|1:2|0:2,0:0:0:0:
356,254,21316,2,0,P|371:206|342:127,1,135.5,2|10,1:2|0:2,0:0:0:0:
268,61,22009,2,0,P|220:45|172:54,1,100,2|10,1:2|0:2,0:0:0:0:
78,92,22605,5,6,1:2:0:0:
116,184,22910,2,0,P|104:245|97:292,1,100,10|0,0:2|1:2,0:0:0:0:
173,350,23528,1,10,0:2:0:0:
248,282,23838,2,0,P|240:232|230:183,1,100,2|10,1:2|0:2,0:0:0:0:
242,138,24334,2,0,P|285:150|370:119,1,133.333333333333,2|10,1:2|0:2,0:0:0:0:
416,30,25028,5,6,1:2:0:0:
500,84,25328,2,0,P|489:160|486:190,1,100,10|0,0:2|1:2,0:0:0:0:
472,278,25928,1,10,0:2:0:0:
377,309,26245,2,0,P|335:288|279:296,1,100,2|14,1:2|0:2,0:0:0:0:
239,309,26728,2,0,P|233:256|223:164,1,133.333333333333,2|14,1:2|0:2,0:0:0:0:
167,94,27428,6,0,P|112:88|56:112,1,100,2|8,1:2|0:2,0:0:0:0:
11,182,28028,2,0,P|5:237|29:293,1,100,0|10,1:2|0:2,0:0:0:0:
51,312,28528,2,0,B|125:295|110:346|195:320,1,133.333333333333,2|10,1:2|0:2,0:0:0:0:
270,279,29228,1,2,1:2:0:0:
309,187,29528,1,10,0:2:0:0:
293,88,29828,6,0,P|360:94|403:105,1,100,2|10,1:2|0:2,0:0:0:0:
458,176,30428,2,0,P|435:224|458:291,1,100,2|10,1:2|0:2,0:0:0:0:
460,311,30928,2,0,P|397:295|330:333,1,133.333333333333,2|10,1:2|0:2,0:0:0:0:
250,372,31628,1,2,1:2:0:0:
156,337,31928,1,10,0:2:0:0:
108,248,32228,6,0,P|100:199|126:137,2,100,2|10|0,1:2|0:2|1:2,0:0:0:0:
156,337,33128,1,10,0:2:0:0:
229,269,33428,2,0,P|281:261|341:256,1,100,2|8,1:2|0:2,0:0:0:0:
345,158,34028,2,0,P|295:153|245:145,1,100,2|10,0:2|0:2,0:0:0:0:
148,124,34628,5,0,1:2:0:0:
51,149,34928,1,10,0:2:0:0:
12,241,35228,2,0,P|7:298|32:340,1,100,2|10,1:2|0:2,0:0:0:0:
64,362,35728,2,0,B|139:336|128:380|215:355,1,133.333333333333,2|14,1:2|0:2,0:0:0:0:
286,319,36428,1,10,0:2:0:0:
331,229,36728,1,10,0:2:0:0:
275,145,37028,6,0,P|226:138|153:124,1,100,6|8,1:2|0:2,0:0:0:0:
134,37,37628,2,0,P|183:27|232:21,1,100,6|8,1:2|0:2,0:0:0:0:
332,13,38228,1,6,1:2:0:0:
411,73,38528,1,8,0:2:0:0:
437,169,38828,2,0,P|401:219|401:271,1,100,2|0,1:2|1:2,0:0:0:0:
426,352,39428,5,6,1:2:0:0:
256,192,46609,12,2,49028,0:2:0:0:
136,90,50228,6,0,P|146:141|157:204,1,104.999996795654,6|10,1:2|0:2,0:0:0:0:
234,261,50828,2,0,P|295:236|345:247,1,104.999996795654,2|8,1:2|0:2,0:0:0:0:
387,283,51328,2,0,P|396:220|415:183,1,104.999996795654,2|2,1:2|1:2,0:0:0:0:
435,155,51728,1,10,0:2:0:0:
409,54,52028,1,2,1:2:0:0:
314,7,52328,1,10,0:2:0:0:
213,38,52628,6,0,P|222:95|234:143,1,104.999996795654,6|10,1:2|0:2,0:0:0:0:
263,241,53228,2,0,P|253:298|242:346,1,104.999996795654,2|8,1:2|0:2,0:0:0:0:
134,366,53828,2,0,P|84:364|45:346,1,69.9999978637696,6|0,1:2|0:2,0:0:0:0:
32,345,54128,2,0,P|41:311|40:276,1,69.9999978637696,14|0,0:2|1:2,0:0:0:0:
35,241,54428,1,6,1:2:0:0:
87,150,54728,1,14,0:2:0:0:
189,119,55028,6,0,P|254:121|302:99,2,104.999996795654,6|10|2,1:2|0:2|1:2,0:0:0:0:
123,36,55928,1,8,0:2:0:0:
33,90,56228,2,0,P|41:143|56:207,1,104.999996795654,2|8,1:2|0:2,0:0:0:0:
73,295,56828,1,2,1:2:0:0:
170,334,57128,1,8,0:2:0:0:
251,267,57428,6,0,P|305:282|359:264,1,104.999996795654,6|10,1:2|0:2,0:0:0:0:
350,163,58028,2,0,P|296:148|242:166,2,104.999996795654,2|10|0,1:2|0:2|1:2,0:0:0:0:
434,224,58928,1,10,0:2:0:0:
434,329,59213,2,0,L|349:335,1,69.9999978637696,2|8,1:2|0:2,0:0:0:0:
342,363,59499,1,8,0:2:0:0:
244,327,59828,6,0,P|177:326|136:348,1,104.999996795654,6|10,1:2|0:2,0:0:0:0:
57,282,60428,2,0,P|58:215|31:174,1,104.999996795654,2|8,1:2|0:2,0:0:0:0:
10,119,60928,2,0,P|72:124|129:82,1,104.999996795654,2|2,1:2|1:2,0:0:0:0:
130,77,61328,1,10,0:2:0:0:
208,6,61628,1,2,1:2:0:0:
299,58,61928,1,10,0:2:0:0:
394,100,62228,6,0,P|383:169|377:207,1,104.999996795654,6|10,1:2|0:2,0:0:0:0:
284,253,62828,2,0,P|273:201|265:149,1,104.999996795654,2|8,1:2|0:2,0:0:0:0:
212,58,63428,2,0,P|168:48|140:51,1,69.9999978637696,6|0,1:2|0:2,0:0:0:0:
110,61,63728,2,0,P|93:91|69:116,1,69.9999978637696,14|0,0:2|1:2,0:0:0:0:
35,126,64028,1,6,1:2:0:0:
2,225,64328,1,14,0:2:0:0:
92,278,64628,6,0,P|147:286|197:270,1,104.999996795654,6|8,1:2|0:2,0:0:0:0:
240,176,65228,2,0,P|295:168|345:184,1,104.999996795654,6|8,1:2|0:2,0:0:0:0:
430,237,65828,2,0,P|411:298|408:351,1,104.999996795654,6|8,1:2|0:2,0:0:0:0:
308,373,66428,2,0,P|302:320|285:271,1,104.999996795654,6|8,1:2|0:2,0:0:0:0:
240,176,67028,5,6,1:2:0:0:
150,121,67328,2,0,P|83:149|46:149,2,104.999996795654,8|0|8,0:2|1:2|0:2,0:0:0:0:
222,44,68228,2,0,L|341:65,1,104.999996795654,2|8,1:2|0:2,0:0:0:0:
393,78,68728,2,0,P|365:139|389:198,1,104.999996795654,2|2,1:2|1:2,0:0:0:0:
386,206,69128,1,10,0:2:0:0:
465,262,69428,5,6,1:2:0:0:
296,74,79028,6,0,P|244:80|181:89,1,100,6|10,1:2|0:2,0:0:0:0:
163,180,79628,2,0,P|212:186|262:192,1,100,2|8,1:2|0:2,0:0:0:0:
308,201,80128,2,0,P|283:255|321:328,1,133.333333333333,2|10,1:2|0:2,0:0:0:0:
407,340,80828,2,0,P|412:291|417:238,1,100,10|10,0:2|0:2,0:0:0:0:
424,140,81428,5,2,1:2:0:0:
348,74,81728,2,0,P|291:73|242:47,2,100,10|0|10,0:2|1:2|0:2,0:0:0:0:
384,44,82528,2,0,P|421:29|510:80,1,133.333333333333,2|14,1:2|0:2,0:0:0:0:
501,164,83228,1,10,0:2:0:0:
425,229,83528,1,10,0:2:0:0:
326,210,83828,6,0,P|278:218|209:228,1,100,6|10,1:2|0:2,0:0:0:0:
152,292,84428,2,0,P|104:284|35:274,1,100,0|10,1:2|0:2,0:0:0:0:
6,273,84928,2,0,P|32:220|10:145,1,133.333333333333,2|10,1:2|0:2,0:0:0:0:
65,63,85628,2,0,P|112:82|172:73,1,100,10|10,0:2|0:2,0:0:0:0:
251,36,86228,5,2,1:2:0:0:
319,109,86528,2,0,P|305:184|303:213,2,100,10|0|10,0:2|1:2|0:2,0:0:0:0:
348,72,87328,2,0,P|413:68|473:108,1,133.333333333333,10|2,0:2|1:2,0:0:0:0:
504,197,88028,1,2,1:2:0:0:
457,273,88328,6,0,B|255:256|345:379|148:348,1,316.666666666667,6|0,1:2|0:0,0:0:0:0:
