osu file format v14

[General]
AudioFilename: audio.mp3
AudioLeadIn: 0
PreviewTime: 49538
Countdown: 0
SampleSet: Soft
StackLeniency: 0.7
Mode: 0
LetterboxInBreaks: 0
WidescreenStoryboard: 1

[Editor]
DistanceSpacing: 1
BeatDivisor: 3
GridSize: 16
TimelineZoom: 1.8

[Metadata]
Title:Black Catcher (TV Size)
TitleUnicode:Black Catcher (TV Size)
Artist:Vickeblanka
ArtistUnicode:ビッケブランカ
Creator:Kuki1537
Version:Insane
Source:ブラッククローバー
Tags:clover opening op 10 hazu- anime japanese male vocal
BeatmapID:2283574
BeatmapSetID:1089673

[Difficulty]
HPDrainRate:4.6
CircleSize:4
OverallDifficulty:8
ApproachRate:9
SliderMultiplier:1.6
SliderTickRate:1

[Events]
//Background and Video events
0,0,"background.jpg",0,0
Video,-534,"blackcatcher.mp4"
//Break Periods
//Storyboard Layer 0 (Background)
//Storyboard Layer 1 (Fail)
//Storyboard Layer 2 (Pass)
//Storyboard Layer 3 (Foreground)
//Storyboard Layer 4 (Overlay)
//Storyboard Sound Samples

[TimingPoints]
63,316.622691292876,4,2,45,45,1,0
379,325.20325203252,4,2,45,45,1,0
704,340.909090909091,4,2,45,45,1,0
1044,320.855614973262,4,2,45,45,1,0
1366,333.333333333333,4,2,45,45,1,0
4699,352.941176470588,4,2,45,45,1,0
5051,401.33779264214,4,2,45,45,1,0
5452,375,4,2,45,45,1,0
6108,353.460972017673,4,2,45,45,1,0
6461,327.421555252387,4,2,45,45,1,0
6788,356.083086053412,4,2,45,45,1,0
7856,-100,4,2,45,5,0,0
8211,300,4,2,45,80,1,0
17811,-125,4,2,45,70,0,0
21111,285.714285714286,4,2,45,70,1,0
21111,-125,4,2,45,70,0,0
21301,300,4,2,45,70,1,0
21301,-125,4,2,45,70,0,0
21396,312.5,4,2,45,70,1,0
21396,-125,4,2,45,70,0,0
21708,286.396181384249,4,2,45,70,1,0
21708,-125,4,2,45,70,0,0
22280,310.478654592497,4,2,45,70,1,0
22280,-125,4,2,45,70,0,0
22590,305.343511450382,4,2,45,70,1,0
22590,-125,4,2,45,70,0,0
23200,313.31592689295,4,2,45,70,1,0
23200,-125,4,2,45,70,0,0
23513,310.077519379845,4,2,45,70,1,0
23513,-125,4,2,45,70,0,0
23823,305.343511450382,4,2,45,70,1,0
23823,-125,4,2,45,70,0,0
24128,287.081339712919,4,2,45,70,1,0
24128,-125,4,2,45,70,0,0
24702,311.688311688312,4,2,45,70,1,0
24702,-125,4,2,45,70,0,0
25013,300,4,2,45,70,1,0
25013,-125,4,2,45,70,0,0
25913,317.460317460317,4,2,45,70,1,0
25913,-125,4,2,45,70,0,0
26230,283.018867924528,4,2,45,70,1,0
26230,-125,4,2,45,70,0,0
26513,300,4,2,45,70,1,0
26513,-125,4,2,45,70,0,0
27413,300,4,2,45,70,1,0
27413,-125,4,2,45,70,0,0
37013,-125,4,2,45,80,0,0
39413,-166.666666666667,4,2,45,60,0,0
46275,319.148936170213,4,2,45,60,1,0
46275,-166.666666666667,4,2,45,60,0,0
46594,-125,4,2,45,70,0,0
46913,300,4,2,45,70,1,0
46913,-125,4,2,45,70,0,0
47813,300,4,2,45,70,1,0
47813,-125,4,2,45,70,0,0
49013,-200,4,2,45,30,0,0
49613,-200,4,2,45,50,0,0
50213,-90.9090909090909,4,2,45,85,0,1
69413,306.513409961686,4,2,45,60,1,0
69413,-166.666666666667,4,2,45,60,0,0
70332,300,4,2,45,60,1,0
70332,-166.666666666667,4,2,45,60,0,0
70632,285.714285714286,4,2,45,60,1,0
70632,-166.666666666667,4,2,45,60,0,0
71504,300,4,2,45,60,1,0
71504,-166.666666666667,4,2,45,60,0,0
72713,332.409972299169,4,2,45,60,1,0
72713,-166.666666666667,4,2,45,60,0,0
73045,271.493212669683,4,2,45,60,1,0
73045,-166.666666666667,4,2,45,60,0,0
73903,279.06976744186,4,2,45,60,1,0
73903,-166.666666666667,4,2,45,60,0,0
74182,310.077519379845,4,2,45,60,1,0
74182,-166.666666666667,4,2,45,60,0,0
75112,300,4,2,45,60,1,0
75112,-166.666666666667,4,2,45,60,0,0
75712,315.789473684211,4,2,45,60,1,0
75712,-166.666666666667,4,2,45,60,0,0
76027,293.398533007335,4,2,45,60,1,0
76027,-166.666666666667,4,2,45,60,0,0
76613,300,4,2,45,60,1,0
76613,-125,4,2,45,60,0,0
79013,-100,4,2,45,80,0,0
88313,-200,4,2,45,80,0,0
89213,-100,4,2,45,5,0,0

[Colours]
Combo1 : 186,220,50
Combo2 : 233,233,233
Combo3 : 173,173,173
Combo4 : 131,131,131
Combo5 : 103,70,54

[HitObjects]
256,192,6788,12,0,7856,0:0:0:0:
57,159,8211,6,0,P|112:194|171:181,1,106.666666666667,4|0,0:0|0:0,0:0:0:0:
227,138,8511,2,0,P|279:113|335:126,1,106.666666666667,8|0,0:0|0:0,0:0:0:0:
396,184,8811,1,2,0:0:0:0:
353,310,9011,1,0,0:0:0:0:
327,298,9111,1,8,0:0:0:0:
204,348,9311,6,0,P|147:367|49:282,1,160,2|2,0:0|0:0,0:0:0:0:
53,237,9711,2,0,P|82:186|80:133,1,106.666666666667,8|2,0:0|1:2,0:0:0:0:
45,42,10011,2,0,P|104:56|160:32,1,106.666666666667,2|2,0:0|1:2,0:0:0:0:
238,8,10311,2,0,P|227:67|256:116,1,106.666666666667,10|0,0:0|0:0,0:0:0:0:
309,181,10611,6,0,L|193:194,1,106.666666666667,0|0,0:0|0:0,0:0:0:0:
142,268,10911,2,0,B|229:256|208:335|311:321,1,160,10|0,0:0|1:2,0:0:0:0:
411,246,11411,1,2,0:0:0:0:
416,216,11511,1,10,0:0:0:0:
490,113,11711,6,0,B|522:150|522:150|506:261,1,160,2|0,0:0|0:0,0:0:0:0:
464,346,12111,2,0,P|412:371|347:346,1,106.666666666667,10|0,0:0|1:2,0:0:0:0:
306,300,12411,2,0,P|358:275|423:300,1,106.666666666667,2|0,0:0|1:2,0:0:0:0:
366,360,12711,2,0,P|314:385|249:360,1,106.666666666667,10|0,0:0|0:0,0:0:0:0:
206,305,13011,6,0,L|196:194,1,106.666666666667,2|0,1:2|0:0,0:0:0:0:
136,134,13311,2,0,P|72:161|133:216,1,160,8|0,0:0|1:2,0:0:0:0:
225,120,13811,1,2,0:0:0:0:
255,111,13911,1,8,0:0:0:0:
339,188,14111,6,0,B|381:228|381:228|483:215,1,160,2|2,0:0|0:0,0:0:0:0:
511,127,14511,2,0,P|454:129|413:98,1,106.666666666667,10|2,0:0|1:2,0:0:0:0:
363,26,14811,2,0,P|309:3|257:17,1,106.666666666667,2|2,0:0|1:2,0:0:0:0:
205,75,15111,2,0,P|160:104|106:102,1,106.666666666667,10|0,0:0|0:0,0:0:0:0:
19,54,15411,6,0,L|35:195,1,106.666666666667,0|0,1:2|0:0,0:0:0:0:
41,244,15711,2,0,B|130:235|105:309|210:302,1,160,8|0,0:0|1:2,0:0:0:0:
264,208,16211,1,2,0:0:0:0:
298,198,16311,1,8,0:0:0:0:
402,263,16511,6,0,P|357:306|264:289,1,160,0|0,0:0|0:0,0:0:0:0:
326,232,16911,2,0,L|336:115,1,106.666666666667,10|0,0:0|0:0,0:0:0:0:
390,51,17211,1,2,1:2:0:0:
498,137,17411,5,8,0:0:0:0:
473,158,17511,2,0,P|484:198|488:267,1,106.666666666667,2|0,1:2|0:0,0:0:0:0:
440,371,17811,6,0,L|347:358,1,85.3333333333333,4|0,1:2|0:0,0:0:0:0:
314,352,18111,2,0,P|281:312|222:303,1,85.3333333333333,10|0,0:0|0:0,0:0:0:0:
213,303,18411,2,0,P|176:328|158:371,1,85.3333333333333,2|0,1:2|0:0,0:0:0:0:
239,379,18711,1,10,1:2:0:0:
230,224,18911,1,2,0:0:0:0:
204,213,19011,5,0,1:2:0:0:
66,174,19211,1,2,0:0:0:0:
92,163,19311,1,10,0:0:0:0:
204,83,19511,1,2,1:2:0:0:
226,57,19611,2,0,P|268:39|318:47,1,85.3333333333333,2|0,0:0|1:2,0:0:0:0:
330,78,19911,2,0,P|370:103|412:103,1,85.3333333333333,10|0,0:0|0:0,0:0:0:0:
444,83,20211,6,0,L|432:183,1,85.3333333333333,0|0,1:2|0:0,0:0:0:0:
448,200,20511,2,0,B|468:241|468:241|459:308,1,85.3333333333333,8|0,0:0|0:0,0:0:0:0:
455,319,20811,2,0,B|446:363|446:363|404:380,1,85.3333333333333,2|0,1:2|0:0,0:0:0:0:
379,306,21111,1,10,0:0:0:0:
283,220,21301,1,2,0:0:0:0:
252,231,21396,5,0,1:2:0:0:
166,352,21604,1,2,0:0:0:0:
172,319,21708,1,10,0:0:0:0:
132,204,21898,1,2,1:2:0:0:
106,185,21994,2,0,P|56:182|12:215,1,85.3333333333333,2|0,0:0|1:2,0:0:0:0:
1,230,22280,2,0,L|10:326,1,85.3333333333333,10|0,0:0|0:0,0:0:0:0:
12,354,22590,6,0,B|67:367|67:367|114:343,1,85.3333333333333,2|0,1:2|0:0,0:0:0:0:
135,351,22895,2,0,B|146:300|146:300|201:265,1,85.3333333333333,10|0,0:0|0:0,0:0:0:0:
205,265,23200,1,0,1:2:0:0:
252,351,23513,2,0,P|306:370|344:354,1,85.3333333333333,10|0,0:0|0:0,0:0:0:0:
364,339,23823,6,0,L|374:249,1,85.3333333333333,2|0,1:2|0:0,0:0:0:0:
377,212,24128,1,10,0:0:0:0:
294,120,24319,1,2,1:2:0:0:
263,136,24415,2,0,P|208:152|157:140,1,85.3333333333333,0|2,0:0|1:2,0:0:0:0:
149,126,24702,1,10,0:0:0:0:
16,54,25013,6,0,P|24:105|36:151,1,85.3333333333333,2|0,1:2|0:0,0:0:0:0:
63,160,25313,2,0,P|53:209|38:253,1,85.3333333333333,10|0,0:0|0:0,0:0:0:0:
15,272,25613,1,0,1:2:0:0:
34,365,25913,2,0,P|89:365|132:331,1,85.3333333333333,10|0,0:0|0:0,0:0:0:0:
143,322,26230,6,0,P|186:303|232:312,1,85.3333333333333,2|0,1:2|0:0,0:0:0:0:
261,331,26513,2,0,P|307:350|361:327,1,85.3333333333333,10|0,0:0|1:2,0:0:0:0:
374,313,26813,1,0,0:0:0:0:
304,203,27013,1,0,1:2:0:0:
276,223,27113,2,0,L|177:213,1,85.3333333333333,4|0,0:0|0:0,0:0:0:0:
155,208,27413,6,0,B|141:132|173:144|156:65,1,128,2|8,1:2|0:0,0:0:0:0:
75,4,27913,1,2,0:0:0:0:
51,27,28013,2,0,P|51:85|88:107,1,85.3333333333333,0|0,1:2|0:0,0:0:0:0:
109,106,28313,2,0,L|203:93,1,85.3333333333333,10|2,0:0|0:0,0:0:0:0:
235,89,28613,5,0,1:2:0:0:
336,5,28813,1,2,0:0:0:0:
371,17,28913,1,10,0:0:0:0:
492,101,29113,1,2,1:2:0:0:
457,113,29213,1,2,0:0:0:0:
327,191,29413,1,0,1:2:0:0:
362,203,29513,2,0,P|402:223|421:280,1,85.3333333333333,10|2,0:0|0:0,0:0:0:0:
425,299,29813,5,0,1:2:0:0:
319,376,30013,1,2,0:0:0:0:
287,366,30113,1,10,0:0:0:0:
199,249,30313,1,2,0:0:0:0:
167,259,30413,1,2,1:2:0:0:
80,374,30613,1,0,0:0:0:0:
48,364,30713,2,0,L|37:265,1,85.3333333333333,10|2,0:0|0:0,0:0:0:0:
35,237,31013,5,2,1:2:0:0:
90,116,31213,1,2,0:0:0:0:
120,108,31313,1,10,0:0:0:0:
273,170,31513,1,2,1:2:0:0:
251,148,31613,1,2,0:0:0:0:
231,1,31813,1,0,1:2:0:0:
222,30,31913,2,0,P|263:54|333:46,1,85.3333333333333,10|2,0:0|0:0,0:0:0:0:
341,45,32213,6,0,P|391:41|436:64,1,85.3333333333333,2|2,1:2|0:0,0:0:0:0:
453,86,32513,1,10,0:0:0:0:
504,208,32713,1,2,0:0:0:0:
472,217,32813,2,0,P|428:238|411:278,1,85.3333333333333,0|0,1:2|0:0,0:0:0:0:
410,311,33113,2,0,P|388:351|332:364,1,85.3333333333333,10|0,0:0|0:0,0:0:0:0:
311,363,33413,6,0,B|259:335|259:335|154:349,1,128,2|8,1:2|0:0,0:0:0:0:
37,365,33913,1,0,1:2:0:0:
55,336,34013,2,0,P|64:288|40:247,1,85.3333333333333,2|0,0:0|1:2,0:0:0:0:
31,214,34313,2,0,L|154:226,1,85.3333333333333,8|2,0:0|0:0,0:0:0:0:
152,203,34613,6,0,L|246:193,1,85.3333333333333,0|0,1:2|0:0,0:0:0:0:
276,188,34913,1,10,0:0:0:0:
389,242,35113,1,2,0:0:0:0:
406,204,35213,2,0,P|413:162|397:123,1,85.3333333333333,2|2,1:2|0:0,0:0:0:0:
370,97,35513,2,0,P|317:83|277:98,1,85.3333333333333,10|2,0:0|0:0,0:0:0:0:
255,114,35813,5,0,1:2:0:0:
182,29,36013,1,2,0:0:0:0:
146,16,36113,2,0,P|100:14|60:42,1,85.3333333333333,6|2,1:2|0:0,0:0:0:0:
48,70,36413,1,2,1:2:0:0:
51,107,36513,1,0,0:0:0:0:
71,139,36613,1,0,0:0:0:0:
102,162,36713,2,0,P|126:201|124:242,1,85.3333333333333,8|0,0:0|0:0,0:0:0:0:
107,278,37013,6,0,L|193:291,1,85.3333333333333,2|0,1:2|0:0,0:0:0:0:
261,343,37313,1,8,0:0:0:0:
457,151,37613,2,0,L|371:164,1,85.3333333333333,2|0,1:2|0:0,0:0:0:0:
306,209,37913,1,8,0:0:0:0:
107,32,38213,6,0,L|193:45,1,85.3333333333333,2|0,1:2|0:0,0:0:0:0:
256,96,38513,1,8,0:0:0:0:
454,239,38813,1,0,1:2:0:0:
409,79,39013,1,0,1:2:0:0:
373,83,39113,1,0,1:2:0:0:
357,85,39413,6,0,P|337:133|192:148,1,191.999994140625,6|2,1:2|0:0,0:0:0:0:
107,124,40313,2,0,L|116:185,1,47.9999985351563,2|0,1:2|0:0,0:0:0:0:
130,256,40613,2,0,B|236:253|202:330|303:327,1,191.999994140625,10|0,0:0|0:0,0:0:0:0:
298,190,41513,2,0,L|293:259,1,47.9999985351563,2|0,1:2|0:0,0:0:0:0:
386,322,41813,6,0,B|394:232|394:232|401:221|401:221|409:131,1,191.999994140625,4|0,1:2|0:0,0:0:0:0:
415,35,42713,2,0,P|384:51|359:53,1,47.9999985351563,2|0,1:2|0:0,0:0:0:0:
268,41,43013,2,0,B|218:13|218:13|81:27,1,191.999994140625,8|0,0:0|0:0,0:0:0:0:
13,135,43913,2,0,L|65:129,1,47.9999985351563,0|0,1:2|0:0,0:0:0:0:
181,184,44213,6,0,P|183:198|53:282,1,191.999994140625,6|2,1:2|0:0,0:0:0:0:
93,156,45113,2,0,L|98:218,1,47.9999985351563,2|0,1:2|0:0,0:0:0:0:
173,298,45413,2,0,B|260:308|260:308|277:300|277:300|374:312,1,191.999994140625,8|0,0:0|0:0,0:0:0:0:
463,328,46275,2,0,P|478:300|480:280,1,47.9999985351563,2|0,1:2|0:0,0:0:0:0:
429,146,46594,5,6,1:2:0:0:
273,118,46913,1,8,0:0:0:0:
327,268,47213,1,8,0:0:0:0:
346,180,47513,1,2,1:2:0:0:
208,238,47813,6,0,P|170:249|120:243,1,85.3333333333333,10|0,0:0|0:0,0:0:0:0:
96,229,48113,1,0,0:0:0:0:
41,131,48413,2,0,P|79:120|129:126,1,85.3333333333333,8|0,0:0|0:0,0:0:0:0:
153,140,48713,1,2,1:2:0:0:
258,98,49013,6,0,P|243:176|232:260,1,160,0|2,0:0|0:0,0:0:0:0:
87,234,50213,6,0,B|128:211|128:211|226:218,1,117.333336914063,6|0,0:0|0:0,0:0:0:0:
272,292,50513,2,0,P|332:330|398:311,1,117.333336914063,10|0,0:0|0:0,0:0:0:0:
361,144,50813,2,0,P|329:193|343:249,1,117.333336914063,2|0,1:2|0:0,0:0:0:0:
417,206,51113,1,8,0:0:0:0:
489,82,51313,1,2,1:2:0:0:
440,23,51413,5,0,0:0:0:0:
287,0,51613,1,2,1:2:0:0:
209,32,51713,2,0,P|229:92|182:155,1,117.333336914063,10|0,0:0|0:0,0:0:0:0:
137,192,52013,2,0,P|117:132|164:69,1,117.333336914063,2|0,1:2|0:0,0:0:0:0:
223,157,52313,2,0,B|241:290,1,117.333336914063,10|0,0:0|0:0,0:0:0:0:
251,378,52613,6,0,P|191:346|125:355,1,117.333336914063,2|0,1:2|0:0,0:0:0:0:
7,265,52913,2,0,P|65:284|131:261,1,117.333336914063,10|0,0:0|0:0,0:0:0:0:
66,196,53213,1,2,1:2:0:0:
238,273,53413,1,0,0:0:0:0:
304,213,53513,2,0,P|227:186|168:215,1,117.333336914063,8|0,0:0|0:0,0:0:0:0:
330,289,53813,6,0,L|459:274,1,117.333336914063,2|0,1:2|0:0,0:0:0:0:
512,197,54113,2,0,L|383:182,1,117.333336914063,8|0,0:0|1:2,0:0:0:0:
276,59,54413,2,0,P|329:24|417:46,1,117.333336914063,2|0,0:0|1:2,0:0:0:0:
349,109,54713,2,0,B|297:145|297:145|229:142,1,117.333336914063,10|0,0:0|0:0,0:0:0:0:
134,33,55013,6,0,L|150:163,1,117.333336914063,6|0,1:2|0:0,0:0:0:0:
45,284,55313,2,0,L|63:134,1,117.333336914063,10|0,0:0|0:0,0:0:0:0:
211,208,55613,2,0,P|161:236|88:217,1,117.333336914063,2|0,1:2|0:0,0:0:0:0:
148,149,55913,1,8,0:0:0:0:
317,302,56113,1,0,0:0:0:0:
297,376,56213,6,0,B|174:355,1,117.333336914063,2|0,1:2|0:0,0:0:0:0:
120,301,56513,1,8,0:0:0:0:
212,130,56713,1,0,1:2:0:0:
277,180,56813,2,0,L|401:197,1,117.333336914063,2|0,0:0|1:2,0:0:0:0:
449,131,57113,1,8,0:0:0:0:
334,6,57313,1,0,0:0:0:0:
314,84,57413,5,2,1:2:0:0:
124,108,57613,1,0,0:0:0:0:
144,185,57713,1,10,0:0:0:0:
336,203,57913,1,0,0:0:0:0:
315,280,58013,2,0,P|263:314|196:318,1,117.333336914063,2|0,1:2|0:0,0:0:0:0:
117,254,58313,2,0,P|173:229|250:239,1,117.333336914063,10|0,0:0|0:0,0:0:0:0:
55,312,58613,6,0,B|35:275|35:275|50:153,1,117.333336914063,0|0,1:2|0:0,0:0:0:0:
54,108,58913,2,0,P|107:73|162:69,1,117.333336914063,8|0,0:0|0:0,0:0:0:0:
234,129,59213,1,2,1:2:0:0:
418,78,59413,1,8,0:0:0:0:
401,3,59513,1,0,1:2:0:0:
250,51,59713,1,0,1:2:0:0:
234,129,59813,6,0,P|222:195|282:254,1,117.333336914063,6|0,0:0|0:0,0:0:0:0:
409,218,60113,2,0,P|357:174|276:197,1,117.333336914063,10|0,0:0|0:0,0:0:0:0:
245,324,60413,2,0,P|308:301|329:219,1,117.333336914063,2|0,1:2|0:0,0:0:0:0:
246,235,60713,1,8,0:0:0:0:
112,374,60913,1,2,1:2:0:0:
56,317,61013,5,0,0:0:0:0:
197,173,61213,1,2,0:0:0:0:
169,245,61313,1,8,0:0:0:0:
11,162,61513,1,0,0:0:0:0:
50,97,61613,2,0,B|94:69|94:69|191:81,1,117.333336914063,2|0,1:2|0:0,0:0:0:0:
228,161,61913,2,0,P|284:185|337:167,1,117.333336914063,8|0,0:0|0:0,0:0:0:0:
293,0,62213,6,0,P|269:56|287:109,1,117.333336914063,2|0,1:2|0:0,0:0:0:0:
456,63,62513,2,0,P|400:39|347:57,1,117.333336914063,8|0,0:0|0:0,0:0:0:0:
397,119,62813,1,0,1:2:0:0:
486,242,63013,1,0,0:0:0:0:
442,307,63113,2,0,P|386:334|327:325,1,117.333336914063,8|0,0:0|0:0,0:0:0:0:
264,268,63413,6,0,L|147:283,1,117.333336914063,2|0,1:2|0:0,0:0:0:0:
48,180,63713,2,0,L|165:195,1,117.333336914063,10|0,0:0|1:2,0:0:0:0:
255,48,64013,2,0,P|190:53|141:115,1,117.333336914063,2|0,0:0|1:2,0:0:0:0:
236,134,64313,2,0,P|300:129|350:67,1,117.333336914063,8|0,0:0|0:0,0:0:0:0:
413,9,64613,6,0,B|437:48|437:48|423:145,1,117.333336914063,6|0,1:2|0:0,0:0:0:0:
410,198,64913,1,8,0:0:0:0:
175,64,65213,2,0,B|151:103|151:103|165:200,1,117.333336914063,2|0,1:2|0:0,0:0:0:0:
178,253,65513,1,8,0:0:0:0:
445,321,65813,6,0,P|381:282|326:288,1,117.333336914063,2|0,1:2|0:0,0:0:0:0:
263,328,66113,1,8,0:0:0:0:
73,215,66413,2,0,P|119:249|177:252,1,117.333336914063,2|0,1:2|1:2,0:0:0:0:
254,208,66713,1,8,0:0:0:0:
74,22,67013,6,0,B|40:64|40:64|50:154,1,117.333336914063,2|0,1:2|0:0,0:0:0:0:
222,119,67313,2,0,P|170:83|106:92,1,117.333336914063,10|0,0:0|0:0,0:0:0:0:
152,165,67613,1,0,1:2:0:0:
347,129,67813,1,2,0:0:0:0:
294,66,67913,2,0,P|261:122|290:190,1,117.333336914063,8|0,0:0|0:0,0:0:0:0:
342,210,68213,5,2,1:2:0:0:
440,324,68413,1,2,0:0:0:0:
378,372,68513,2,0,B|327:355|327:355|251:364,1,117.333336914063,8|2,0:0|0:0,0:0:0:0:
185,380,68813,1,0,1:2:0:0:
47,294,69013,1,2,1:2:0:0:
115,250,69113,2,0,P|152:202|142:136,1,117.333336914063,8|2,0:0|0:0,0:0:0:0:
126,59,69413,6,0,B|232:47|193:132|306:123,1,191.999994140625,6|2,1:2|0:0,0:0:0:0:
405,102,70332,2,0,L|414:170,1,47.9999985351563,2|0,1:2|0:0,0:0:0:0:
423,258,70632,2,0,B|340:271|340:271|323:289|323:289|216:307,1,191.999994140625,10|0,0:0|0:0,0:0:0:0:
116,323,71504,2,0,L|109:271,1,47.9999985351563,2|0,1:2|0:0,0:0:0:0:
89,127,71804,6,0,P|139:162|263:102,1,191.999994140625,4|0,1:2|0:0,0:0:0:0:
288,18,72713,2,0,P|306:50|331:56,1,47.9999985351563,2|0,1:2|0:0,0:0:0:0:
439,65,73045,2,0,B|460:170|415:150|442:257,1,191.999994140625,8|0,0:0|0:0,0:0:0:0:
478,352,73903,2,0,P|445:342|413:349,1,47.9999985351563
335,351,74182,6,0,B|278:332|278:332|241:363|193:365|151:338,1,191.999994140625,6|2,1:2|0:0,0:0:0:0:
210,219,75112,2,0,L|214:287,1,47.9999985351563,2|0,1:2|0:0,0:0:0:0:
69,289,75412,6,0,P|44:249|40:223,1,63.9999980468751,8|0,0:0|0:0,0:0:0:0:
41,188,75712,1,2,1:2:0:0:
158,140,76027,2,0,P|183:100|187:74,1,63.9999980468751,8|0,0:0|0:0,0:0:0:0:
186,39,76320,1,2,1:2:0:0:
321,90,76613,5,6,1:2:0:0:
310,103,76913,2,0,L|297:179,1,64,8|0,0:0|0:0,0:0:0:0:
376,206,77213,1,0,1:2:0:0:
387,219,77513,2,0,L|400:295,1,63.9999980468751,8|0,0:0|0:0,0:0:0:0:
330,341,77813,5,10,0:0:0:0:
256,192,77913,12,0,78713,0:0:0:0:
455,159,79013,6,0,P|400:194|341:181,1,106.666666666667,4|0,0:0|0:0,0:0:0:0:
285,138,79313,2,0,P|233:113|177:126,1,106.666666666667,8|0,0:0|0:0,0:0:0:0:
116,184,79613,1,2,0:0:0:0:
159,310,79813,1,0,0:0:0:0:
185,298,79913,1,8,0:0:0:0:
308,348,80113,6,0,P|365:367|463:282,1,160,2|2,0:0|0:0,0:0:0:0:
459,237,80513,2,0,P|430:186|435:133,1,106.666666666667,10|2,0:0|1:2,0:0:0:0:
467,42,80813,2,0,P|408:56|349:32,1,106.666666666667,2|2,0:0|1:2,0:0:0:0:
274,8,81113,2,0,P|285:67|254:118,1,106.666666666667,10|0,0:0|0:0,0:0:0:0:
203,181,81413,6,0,L|319:194,1,106.666666666667,0|0,1:2|0:0,0:0:0:0:
370,268,81713,2,0,B|283:256|304:335|201:321,1,160,10|0,0:0|1:2,0:0:0:0:
101,246,82213,1,2,0:0:0:0:
96,216,82313,1,10,0:0:0:0:
22,113,82513,6,0,B|-10:150|-10:150|6:261,1,160,2|0,0:0|0:0,0:0:0:0:
48,346,82913,2,0,P|100:371|165:346,1,106.666666666667,10|0,0:0|1:2,0:0:0:0:
206,300,83213,2,0,P|154:275|89:300,1,106.666666666667,2|0,0:0|1:2,0:0:0:0:
146,360,83513,2,0,P|198:385|263:360,1,106.666666666667,10|0,0:0|0:0,0:0:0:0:
306,305,83813,6,0,L|316:194,1,106.666666666667,2|0,1:2|0:0,0:0:0:0:
376,134,84113,2,0,P|440:161|379:216,1,160,8|0,0:0|1:2,0:0:0:0:
287,120,84613,1,2,0:0:0:0:
257,111,84713,1,8,0:0:0:0:
173,188,84913,6,0,B|131:228|131:228|29:215,1,160,2|2,0:0|0:0,0:0:0:0:
1,127,85313,2,0,P|58:129|99:98,1,106.666666666667,10|2,0:0|1:2,0:0:0:0:
149,26,85613,2,0,P|203:3|255:17,1,106.666666666667,2|2,0:0|1:2,0:0:0:0:
307,75,85913,2,0,P|352:104|406:102,1,106.666666666667,10|0,0:0|0:0,0:0:0:0:
493,54,86213,6,0,L|477:195,1,106.666666666667,0|0,1:2|0:0,0:0:0:0:
471,244,86513,2,0,B|382:235|407:309|302:302,1,160,8|0,0:0|1:2,0:0:0:0:
292,297,86913,1,0,0:0:0:0:
262,277,87013,1,2,0:0:0:0:
245,245,87113,1,0,1:2:0:0:
109,285,87313,1,8,1:2:0:0:
78,297,87413,6,0,P|20:276|6:232,1,106.666666666667,8|0,0:0|1:2,0:0:0:0:
97,176,87713,1,2,1:2:0:0:
90,141,87813,1,0,1:2:0:0:
82,105,87913,1,0,1:2:0:0:
74,71,88013,2,0,B|115:55|115:55|200:62,1,106.666666666667,2|0,1:2|0:0,0:0:0:0:
216,66,88313,6,0,B|347:60|304:166|437:154,1,240,6|0,0:0|0:0,0:0:0:0:
