osu file format v14

[General]
AudioFilename: audio.mp3
AudioLeadIn: 0
PreviewTime: 49538
Countdown: 0
SampleSet: Soft
StackLeniency: 0.7
Mode: 0
LetterboxInBreaks: 0
WidescreenStoryboard: 0

[Editor]
DistanceSpacing: 1
BeatDivisor: 3
GridSize: 32
TimelineZoom: 1.8

[Metadata]
Title:Black Catcher (TV Size)
TitleUnicode:Black Catcher (TV Size)
Artist:Vickeblanka
ArtistUnicode:ビッケブランカ
Creator:Kuki1537
Version:Hazu's Hard
Source:ブラッククローバー
Tags:clover opening op 10 hazu- anime japanese male vocal
BeatmapID:2284484
BeatmapSetID:1089673

[Difficulty]
HPDrainRate:4
CircleSize:4
OverallDifficulty:6
ApproachRate:8
SliderMultiplier:1.4
SliderTickRate:1

[Events]
//Background and Video events
0,0,"background.jpg",0,0
Video,-534,"blackcatcher.mp4"
//Break Periods
//Storyboard Layer 0 (Background)
//Storyboard Layer 1 (Fail)
//Storyboard Layer 2 (Pass)
//Storyboard Layer 3 (Foreground)
//Storyboard Layer 4 (Overlay)
//Storyboard Sound Samples

[TimingPoints]
63,316.622691292876,4,2,45,45,1,0
379,325.20325203252,4,2,45,45,1,0
704,340.909090909091,4,2,45,45,1,0
1044,320.855614973262,4,2,45,45,1,0
1366,333.333333333333,4,2,45,45,1,0
4699,352.941176470588,4,2,45,45,1,0
5051,401.33779264214,4,2,45,45,1,0
5452,375,4,2,45,45,1,0
6108,353.460972017673,4,2,45,45,1,0
6461,327.421555252387,4,2,45,45,1,0
6788,356.083086053412,4,2,45,45,1,0
6788,-333.333333333333,4,2,45,10,0,0
8093,-333.333333333333,4,2,45,5,0,0
8211,300,4,2,45,80,1,0
17811,-111.111111111111,4,2,45,70,0,0
21111,285.714285714286,4,2,45,70,1,0
21111,-111.111111111111,4,2,45,70,0,0
21301,300,4,2,45,70,1,0
21301,-112.359550561798,4,2,45,70,0,0
21396,312.5,4,2,45,70,1,0
21396,-112.359550561798,4,2,45,70,0,0
21708,286.396181384249,4,2,45,70,1,0
21708,-111.111111111111,4,2,45,70,0,0
22280,310.478654592497,4,2,45,70,1,0
22280,-111.111111111111,4,2,45,70,0,0
22590,305.343511450382,4,2,45,70,1,0
22590,-111.111111111111,4,2,45,70,0,0
23200,313.31592689295,4,2,45,70,1,0
23200,-111.111111111111,4,2,45,70,0,0
23513,310.077519379845,4,2,45,70,1,0
23513,-111.111111111111,4,2,45,70,0,0
23823,305.343511450382,4,2,45,70,1,0
23823,-111.111111111111,4,2,45,70,0,0
24128,287.081339712919,4,2,45,70,1,0
24128,-111.111111111111,4,2,45,70,0,0
24702,311.688311688312,4,2,45,70,1,0
24702,-111.111111111111,4,2,45,70,0,0
25013,300,4,2,45,70,1,0
25013,-111.111111111111,4,2,45,70,0,0
25913,317.460317460317,4,2,45,70,1,0
25913,-111.111111111111,4,2,45,70,0,0
26230,283.018867924528,4,2,45,70,1,0
26230,-111.111111111111,4,2,45,70,0,0
26513,300,4,2,45,70,1,0
26513,-111.111111111111,4,2,45,70,0,0
27413,300,4,2,45,70,1,0
27413,-111.111111111111,4,2,45,70,0,0
39413,-125,4,2,45,60,0,0
46013,-109.89010989011,4,2,45,60,0,0
46275,319.148936170213,4,2,45,60,1,0
46594,-111.111111111111,4,2,45,70,0,0
46913,300,4,2,45,70,1,0
46913,-111.111111111111,4,2,45,70,0,0
47813,300,4,2,45,70,1,0
47813,-111.111111111111,4,2,45,70,0,0
49013,-111.111111111111,4,2,45,30,0,0
49613,-111.111111111111,4,2,45,50,0,0
50213,-100,4,2,45,85,0,1
69413,306.513409961686,4,2,45,60,1,0
69413,-125,4,2,45,60,0,0
70332,300,4,2,45,60,1,0
70332,-125,4,2,45,60,0,0
70632,285.714285714286,4,2,45,60,1,0
70632,-125,4,2,45,60,0,0
71504,300,4,2,45,60,1,0
71504,-125,4,2,45,60,0,0
72713,332.409972299169,4,2,45,60,1,0
72713,-125,4,2,45,60,0,0
73045,271.493212669683,4,2,45,60,1,0
73045,-125,4,2,45,60,0,0
73903,279.06976744186,4,2,45,60,1,0
73903,-125,4,2,45,60,0,0
74182,310.077519379845,4,2,45,60,1,0
74182,-125,4,2,45,60,0,0
75112,300,4,2,45,60,1,0
75112,-125,4,2,45,60,0,0
75712,315.789473684211,4,2,45,60,1,0
75712,-125,4,2,45,60,0,0
76027,293.398533007335,4,2,45,60,1,0
76027,-125,4,2,45,60,0,0
76613,300,4,2,45,60,1,0
76613,-111.111111111111,4,2,45,60,0,0
79013,-100,4,2,45,60,0,0
88313,-200,4,2,45,60,0,0
89213,-100,4,2,45,30,0,0

[Colours]
Combo1 : 186,220,50
Combo2 : 233,233,233
Combo3 : 173,173,173
Combo4 : 131,131,131
Combo5 : 103,70,54

[HitObjects]
103,223,6788,6,0,B|188:206|167:275|255:254,1,153.999995300293
257,240,8212,6,0,P|309:221|360:242,1,93.3333333333333,4|0,0:0|0:0,0:0:0:0:
365,272,8511,2,0,P|410:280|452:262,1,93.3333333333333,8|0,0:0|0:0,0:0:0:0:
477,222,8811,1,2,0:0:0:0:
508,136,9011,1,0,0:0:0:0:
508,136,9111,1,8,0:0:0:0:
428,87,9311,6,0,P|368:75|290:59,1,140,2|2,0:0|0:0,0:0:0:0:
254,79,9711,1,8,0:0:0:0:
161,63,9911,1,2,1:2:0:0:
161,63,10011,2,0,P|173:109|186:160,1,93.3333333333333,2|2,0:0|1:2,0:0:0:0:
146,181,10311,2,0,P|134:227|121:278,1,93.3333333333333,10|0,0:0|0:0,0:0:0:0:
82,295,10611,5,0,1:2:0:0:
214,354,10911,2,0,P|274:318|354:343,1,140,10|0,0:0|1:2,0:0:0:0:
425,379,11411,1,2,0:0:0:0:
425,379,11511,1,10,0:0:0:0:
467,295,11711,6,0,P|451:224|434:148,1,140,2|0,0:0|0:0,0:0:0:0:
398,131,12111,1,10,0:0:0:0:
321,182,12311,1,0,1:2:0:0:
321,182,12411,2,0,P|331:230|347:305,1,93.3333333333333,2|0,0:0|1:2,0:0:0:0:
312,311,12711,2,0,P|265:300|192:284,1,93.3333333333333,10|0,0:0|0:0,0:0:0:0:
180,313,13011,5,2,1:2:0:0:
72,223,13311,2,0,P|57:161|101:86,1,140,8|0,0:0|1:2,0:0:0:0:
175,54,13811,1,2,0:0:0:0:
175,54,13911,1,8,0:0:0:0:
249,110,14111,6,0,B|329:96|313:156|400:134,1,140,2|2,0:0|0:0,0:0:0:0:
407,98,14511,1,10,0:0:0:0:
476,168,14711,1,2,1:2:0:0:
476,168,14811,2,0,P|493:222|478:267,1,93.3333333333333,2|2,0:0|1:2,0:0:0:0:
444,280,15111,2,0,P|389:267|326:254,1,93.3333333333333,10|0,0:0|0:0,0:0:0:0:
312,281,15411,5,0,1:2:0:0:
232,165,15711,2,0,P|174:177|86:193,1,140,8|0,0:0|1:2,0:0:0:0:
39,268,16211,1,2,0:0:0:0:
39,268,16311,1,8,0:0:0:0:
108,330,16511,6,0,P|176:342|245:356,1,140,0|0,0:0|0:0,0:0:0:0:
282,328,16911,2,0,P|355:309|391:334,1,93.3333333333333,10|0,0:0|0:0,0:0:0:0:
402,345,17211,1,2,1:2:0:0:
463,274,17411,1,8,0:0:0:0:
463,274,17511,2,0,P|450:206|439:155,1,93.3333333333333,2|0,1:2|0:0,0:0:0:0:
411,150,17811,6,0,P|361:146|314:168,1,83.9999974365235,4|0,1:2|0:0,0:0:0:0:
307,197,18111,2,0,P|244:186|158:171,2,125.999996154785,10|2|10,0:0|1:2|1:2,0:0:0:0:
393,229,18911,6,0,P|410:282|437:367,1,125.999996154785,2|2,0:0|0:0,0:0:0:0:
394,377,19311,1,10,0:0:0:0:
324,324,19511,1,2,1:2:0:0:
324,324,19611,2,0,P|283:313|241:328,1,83.9999974365235,2|0,0:0|1:2,0:0:0:0:
218,364,19911,2,0,P|178:376|138:365,1,83.9999974365235,10|0,0:0|0:0,0:0:0:0:
113,326,20211,6,0,P|98:263|86:220,1,83.9999974365235,0|0,1:2|0:0,0:0:0:0:
52,221,20511,2,0,P|36:167|75:95,2,125.999996154785,8|2|10,0:0|1:2|0:0,0:0:0:0:
140,248,21301,6,0,B|212:238|194:293|274:275,1,125.999996154785,2|2,0:0|0:0,0:0:0:0:
296,254,21708,1,10,0:0:0:0:
350,179,21898,1,2,1:2:0:0:
350,179,21994,2,0,P|405:171|448:190,1,83.9999974365235,2|0,0:0|1:2,0:0:0:0:
460,215,22280,2,0,P|451:266|441:330,1,83.9999974365235,10|0,0:0|0:0,0:0:0:0:
466,339,22590,5,2,1:2:0:0:
329,361,22895,2,0,P|266:325|196:349,1,125.999996154785,10|0,0:0|1:2,0:0:0:0:
81,368,23513,2,0,P|94:313|105:267,1,83.9999974365235,10|0,0:0|0:0,0:0:0:0:
69,251,23823,6,0,P|56:196|33:107,1,125.999996154785,2|10,1:2|0:0,0:0:0:0:
115,74,24319,1,2,1:2:0:0:
115,74,24415,2,0,P|125:113|142:177,1,83.9999974365235,0|2,0:0|1:2,0:0:0:0:
178,173,24702,2,0,P|218:161|259:151,1,83.9999974365235,10|0,0:0|0:0,0:0:0:0:
300,172,25013,5,2,1:2:0:0:
423,109,25313,2,0,P|447:168|422:238,1,125.999996154785,10|0,0:0|1:2,0:0:0:0:
321,311,25913,2,0,P|272:298|220:286,1,83.9999974365235,10|0,0:0|0:0,0:0:0:0:
208,324,26230,6,0,P|140:341|56:363,1,125.999996154785,2|10,1:2|0:0,0:0:0:0:
12,306,26713,1,0,1:2:0:0:
12,306,26813,2,0,P|-1:258|23:209,1,83.9999974365235,0|0,0:0|1:2,0:0:0:0:
41,192,27113,2,0,P|28:135|14:83,1,83.9999974365235,4|0,0:0|0:0,0:0:0:0:
53,76,27413,6,0,P|108:64|154:78,1,83.9999974365235,2|0,1:2|0:0,0:0:0:0:
170,99,27713,2,0,B|210:93|210:93|259:108|259:108|320:98,2,125.999996154785,8|0|10,0:0|1:2|0:0,0:0:0:0:
98,157,28513,6,0,P|87:210|134:280,1,125.999996154785,2|2,0:0|0:0,0:0:0:0:
165,282,28913,1,10,0:0:0:0:
240,228,29113,1,2,1:2:0:0:
240,228,29213,2,0,P|293:216|361:256,1,125.999996154785,2|10,0:0|0:0,0:0:0:0:
421,310,29713,6,0,P|435:227|448:158,1,125.999996154785,2|2,0:0|0:0,0:0:0:0:
484,164,30113,1,10,0:0:0:0:
427,91,30313,1,2,0:0:0:0:
427,91,30413,2,0,P|383:101|318:120,1,83.9999974365235,2|0,1:2|0:0,0:0:0:0:
316,148,30713,1,10,0:0:0:0:
247,93,30913,5,2,0:0:0:0:
247,93,31013,2,0,P|203:83|143:109,1,83.9999974365235,2|2,1:2|0:0,0:0:0:0:
133,124,31313,1,10,0:0:0:0:
81,202,31513,1,2,1:2:0:0:
81,202,31613,2,0,P|95:250|120:345,1,125.999996154785,2|10,0:0|0:0,0:0:0:0:
211,326,32113,5,2,0:0:0:0:
211,326,32213,2,0,P|198:278|182:224,1,83.9999974365235,2|2,1:2|0:0,0:0:0:0:
204,201,32513,1,10,0:0:0:0:
280,252,32713,2,0,B|330:266|330:266|453:235,1,167.999994873047,2|10,0:0|0:0,0:0:0:0:
493,161,33313,5,0,0:0:0:0:
493,161,33413,2,0,P|504:106|460:37,1,125.999996154785,2|8,1:2|0:0,0:0:0:0:
335,68,34013,2,0,P|324:123|368:192,1,125.999996154785,2|8,0:0|0:0,0:0:0:0:
417,252,34513,6,0,B|345:242|363:297|285:282,1,125.999996154785,2|0,0:0|0:0,0:0:0:0:
260,258,34913,1,10,0:0:0:0:
196,324,35113,1,2,0:0:0:0:
196,324,35213,2,0,P|152:338|103:320,1,83.9999974365235,2|2,1:2|0:0,0:0:0:0:
85,295,35513,1,10,0:0:0:0:
47,210,35713,6,0,P|65:139|85:66,1,125.999996154785,2|2,0:0|0:0,0:0:0:0:
118,64,36113,1,6,1:2:0:0:
242,125,36413,2,0,P|231:168|219:229,1,83.9999974365235,2|0,1:2|0:0,0:0:0:0:
260,234,36713,2,0,P|271:277|283:338,1,83.9999974365235,8|0,0:0|0:0,0:0:0:0:
243,345,37013,5,2,1:2:0:0:
370,290,37313,1,8,0:0:0:0:
241,239,37613,1,2,1:2:0:0:
368,183,37913,1,8,0:0:0:0:
240,127,38213,1,2,1:2:0:0:
366,70,38513,1,8,0:0:0:0:
236,19,38813,2,0,P|190:30|130:42,1,83.9999974365235,0|0,1:2|1:2,0:0:0:0:
110,23,39113,1,0,1:2:0:0:
21,123,39413,6,0,P|-2:208|81:313,1,224,6|2,1:2|0:0,0:0:0:0:
207,332,40313,1,2,1:2:0:0:
303,238,40613,2,0,B|464:208|464:208|422:273,1,224,10|0,0:0|0:0,0:0:0:0:
355,369,41513,1,2,1:2:0:0:
228,325,41813,6,0,P|189:246|258:135,1,224,4|0,1:2|0:0,0:0:0:0:
378,90,42713,1,2,1:2:0:0:
475,182,43013,2,0,B|514:269|467:355|467:355|469:318|452:291,1,224,8|0,0:0|0:0,0:0:0:0:
369,213,43913,1,0,1:2:0:0:
268,302,44213,6,0,P|223:292|129:272,2,112,6|2|2,1:2|1:2|0:0,0:0:0:0:
379,377,45113,1,2,1:2:0:0:
482,291,45413,2,0,P|492:223|454:166,1,112,8|2,0:0|1:2,0:0:0:0:
340,198,46013,2,0,P|320:146|332:92,1,112,0|2,0:0|1:2,0:0:0:0:
468,26,46594,5,6,1:2:0:0:
505,172,46913,1,8,0:0:0:0:
412,291,47213,2,0,P|354:276|277:260,1,125.999996154785,8|2,0:0|1:2,0:0:0:0:
160,183,47813,6,0,P|177:256|187:295,1,83.9999974365235,10|0,0:0|0:0,0:0:0:0:
171,315,48113,1,0,0:0:0:0:
50,223,48413,2,0,P|33:150|23:111,1,83.9999974365235,8|0,0:0|0:0,0:0:0:0:
39,91,48713,1,2,1:2:0:0:
187,110,49013,6,0,P|240:154|127:164,1,251.999992309571,0|2,0:0|0:0,0:0:0:0:
129,183,50213,6,0,P|177:175|230:195,1,93.3333333333333,6|0,0:0|0:0,0:0:0:0:
234,232,50513,2,0,P|278:244|323:236,1,93.3333333333333,10|0,0:0|0:0,0:0:0:0:
359,206,50813,1,2,1:2:0:0:
416,133,51013,1,0,0:0:0:0:
416,133,51113,1,8,0:0:0:0:
486,193,51313,6,0,P|471:255|451:341,1,140,2|2,1:2|1:2,0:0:0:0:
415,356,51713,2,0,P|374:346|316:333,1,93.3333333333333,10|0,0:0|0:0,0:0:0:0:
293,299,52013,1,2,1:2:0:0:
212,346,52213,1,0,0:0:0:0:
212,346,52313,2,0,P|163:360|117:342,1,93.3333333333333,10|0,0:0|0:0,0:0:0:0:
96,308,52613,6,0,P|83:252|70:198,1,93.3333333333333,2|0,1:2|0:0,0:0:0:0:
112,189,52913,2,0,P|122:143|133:98,1,93.3333333333333,10|0,0:0|0:0,0:0:0:0:
101,64,53213,1,2,1:2:0:0:
185,20,53413,1,0,0:0:0:0:
185,20,53513,2,0,P|239:35|286:46,1,93.3333333333333,8|0,0:0|0:0,0:0:0:0:
303,81,53813,6,0,P|357:66|404:55,1,93.3333333333333,2|0,1:2|0:0,0:0:0:0:
434,79,54113,1,8,0:0:0:0:
402,169,54313,1,0,1:2:0:0:
402,169,54413,2,0,P|356:179|311:192,1,93.3333333333333,2|0,0:0|1:2,0:0:0:0:
288,232,54713,1,10,0:0:0:0:
213,185,54913,5,0,0:0:0:0:
213,185,55013,2,0,P|165:175|112:199,1,93.3333333333333,6|0,1:2|0:0,0:0:0:0:
99,228,55313,2,0,P|111:277|127:351,1,93.3333333333333,10|0,0:0|0:0,0:0:0:0:
99,360,55613,1,2,1:2:0:0:
22,316,55813,1,0,0:0:0:0:
22,316,55913,2,0,P|11:270|0:225,1,93.3333333333333,8|0,0:0|0:0,0:0:0:0:
31,189,56213,6,0,P|14:116|-3:43,2,140,2|8|2,1:2|0:0|0:0,0:0:0:0:
111,245,57013,1,0,1:2:0:0:
111,245,57113,2,0,P|157:257|213:231,1,93.3333333333333,8|0,0:0|0:0,0:0:0:0:
220,200,57413,6,0,P|266:188|322:214,1,93.3333333333333,2|0,1:2|0:0,0:0:0:0:
341,235,57713,2,0,P|326:297|312:353,1,93.3333333333333,10|0,0:0|0:0,0:0:0:0:
348,362,58013,1,2,1:2:0:0:
427,311,58213,1,0,0:0:0:0:
427,311,58313,2,0,P|438:265|449:220,1,93.3333333333333,10|0,0:0|0:0,0:0:0:0:
489,196,58613,6,0,P|498:151|471:100,1,93.3333333333333,0|0,1:2|0:0,0:0:0:0:
437,89,58913,2,0,P|384:102|325:117,1,93.3333333333333,8|0,0:0|0:0,0:0:0:0:
313,144,59213,1,2,1:2:0:0:
233,104,59413,1,8,0:0:0:0:
233,104,59513,2,0,P|180:117|121:132,1,93.3333333333333,0|0,1:2|1:2,0:0:0:0:
103,152,59813,6,0,P|98:206|145:267,1,93.3333333333333,6|0,0:0|0:0,0:0:0:0:
160,245,60113,2,0,P|145:290|121:361,1,93.3333333333333,10|0,0:0|0:0,0:0:0:0:
163,367,60413,1,2,1:2:0:0:
244,318,60613,1,0,0:0:0:0:
244,318,60713,1,8,0:0:0:0:
327,360,60913,6,0,B|372:372|372:372|474:348,1,140,2|2,1:2|0:0,0:0:0:0:
489,312,61313,2,0,P|476:262|459:204,1,93.3333333333333,8|0,0:0|0:0,0:0:0:0:
418,213,61613,1,2,1:2:0:0:
469,135,61813,1,0,0:0:0:0:
469,135,61913,2,0,P|479:80|450:32,1,93.3333333333333,8|0,0:0|0:0,0:0:0:0:
422,27,62213,6,0,P|368:39|315:51,1,93.3333333333333,2|0,1:2|0:0,0:0:0:0:
306,87,62513,2,0,P|252:75|199:63,1,93.3333333333333,8|0,0:0|0:0,0:0:0:0:
183,32,62813,1,0,1:2:0:0:
113,94,63013,1,0,0:0:0:0:
113,94,63113,2,0,P|128:143|144:199,1,93.3333333333333,8|0,0:0|0:0,0:0:0:0:
104,214,63413,6,0,P|89:263|73:319,1,93.3333333333333,2|0,1:2|0:0,0:0:0:0:
103,342,63713,1,10,0:0:0:0:
179,287,63913,1,0,1:2:0:0:
179,287,64013,2,0,P|235:271|284:294,1,93.3333333333333,2|0,0:0|1:2,0:0:0:0:
292,320,64313,1,8,0:0:0:0:
372,273,64513,5,0,0:0:0:0:
372,273,64613,2,0,B|448:260|435:327|523:295,2,140,6|8|2,1:2|0:0|1:2,0:0:0:0:
303,336,65413,1,0,0:0:0:0:
303,336,65513,2,0,P|250:350|199:328,1,93.3333333333333,8|0,0:0|0:0,0:0:0:0:
184,303,65813,6,0,P|196:241|215:150,2,140,2|8|2,1:2|0:0|1:2,0:0:0:0:
94,319,66613,1,0,1:2:0:0:
94,319,66713,2,0,P|104:268|117:205,1,93.3333333333333,8|0,0:0|0:0,0:0:0:0:
81,191,67013,5,2,1:2:0:0:
217,161,67313,2,0,P|287:177|366:195,1,140,10|0,0:0|1:2,0:0:0:0:
449,180,67813,1,2,0:0:0:0:
449,180,67913,2,0,P|467:135|448:80,1,93.3333333333333,8|0,0:0|0:0,0:0:0:0:
423,59,68213,5,2,1:2:0:0:
336,94,68413,1,2,0:0:0:0:
336,94,68513,2,0,P|287:84|226:71,1,93.3333333333333,8|2,0:0|0:0,0:0:0:0:
213,40,68813,1,0,1:2:0:0:
132,86,69013,1,2,1:2:0:0:
132,86,69113,2,0,P|115:133|129:180,1,93.3333333333333,8|2,0:0|0:0,0:0:0:0:
158,203,69413,6,0,B|222:175|279:209|249:246|333:269|377:231,1,224,6|2,1:2|0:0,0:0:0:0:
453,137,70332,1,2,1:2:0:0:
344,57,70632,2,0,P|277:27|147:100,1,224,10|0,0:0|0:0,0:0:0:0:
95,213,71504,1,2,1:2:0:0:
195,302,71804,6,0,B|366:325|366:325|321:260,1,224,4|0,1:2|0:0,0:0:0:0:
239,189,72713,1,2,1:2:0:0:
119,250,73045,1,8,0:0:0:0:
209,351,73316,1,2,1:2:0:0:
332,296,73587,1,0,0:0:0:0:
318,162,73903,1,0,1:2:0:0:
186,133,74182,6,0,P|128:149|61:168,2,112,6|2|2,1:2|1:2|0:0,0:0:0:0:
280,37,75112,1,2,1:2:0:0:
397,101,75412,2,0,P|383:149|360:234,1,112,8|2,0:0|1:2,0:0:0:0:
238,250,76027,2,0,P|252:202|275:117,1,112,8|2,0:0|1:2,0:0:0:0:
165,30,76613,6,0,P|155:66|139:122,1,83.9999974365235,6|0,1:2|0:0,0:0:0:0:
156,159,76913,1,8,0:0:0:0:
277,248,77213,2,0,P|287:212|303:156,1,83.9999974365235,0|0,1:2|0:0,0:0:0:0:
286,119,77513,1,8,0:0:0:0:
176,223,77813,5,10,0:0:0:0:
176,223,79013,6,0,P|242:209|306:195,1,93.3333333333333,4|0,0:0|0:0,0:0:0:0:
302,234,79313,2,0,P|368:220|432:206,1,93.3333333333333,8|0,0:0|0:0,0:0:0:0:
438,228,79613,1,2,0:0:0:0:
489,151,79813,1,0,0:0:0:0:
489,151,79913,1,8,0:0:0:0:
411,99,80113,6,0,B|314:71|314:71|246:95,1,140,2|2,0:0|0:0,0:0:0:0:
236,107,80513,1,10,0:0:0:0:
188,188,80713,1,2,1:2:0:0:
188,188,80813,2,0,P|138:196|93:179,1,93.3333333333333,2|2,0:0|1:2,0:0:0:0:
67,147,81113,2,0,P|85:208|101:267,1,93.3333333333333,10|0,0:0|0:0,0:0:0:0:
65,274,81413,5,0,1:2:0:0:
190,335,81713,2,0,B|270:321|254:381|341:359,1,140,10|0,0:0|1:2,0:0:0:0:
406,318,82213,1,2,0:0:0:0:
406,318,82313,1,10,0:0:0:0:
344,247,82513,6,0,P|360:188|382:105,1,140,2|0,0:0|0:0,0:0:0:0:
362,67,82913,1,10,0:0:0:0:
274,88,83113,1,0,1:2:0:0:
274,88,83213,2,0,P|263:133|244:202,1,93.3333333333333,2|0,0:0|1:2,0:0:0:0:
215,208,83513,2,0,P|159:217|115:195,1,93.3333333333333,10|0,0:0|0:0,0:0:0:0:
102,163,83813,5,2,1:2:0:0:
45,34,84113,2,0,P|116:50|205:69,1,140,8|0,0:0|1:2,0:0:0:0:
269,26,84613,1,2,0:0:0:0:
269,26,84713,1,8,0:0:0:0:
346,78,84913,6,0,P|379:147|351:220,1,140,2|2,0:0|0:0,0:0:0:0:
324,232,85313,1,10,0:0:0:0:
248,186,85513,1,2,1:2:0:0:
248,186,85613,2,0,P|196:170|143:193,1,93.3333333333333,2|2,0:0|1:2,0:0:0:0:
130,217,85913,2,0,P|145:268|163:335,1,93.3333333333333,10|0,0:0|0:0,0:0:0:0:
132,347,86213,5,0,1:2:0:0:
23,258,86513,2,0,P|2:186|36:126,1,140,8|0,0:0|1:2,0:0:0:0:
68,103,86913,2,0,P|60:73|51:36,2,46.6666666666667,0|2|0,0:0|0:0|1:2,0:0:0:0:
154,148,87313,5,8,1:2:0:0:
154,148,87413,2,0,P|161:177|171:215,2,46.6666666666667,8|0|0,0:0|1:2|1:2,0:0:0:0:
186,115,87713,2,0,P|248:127|306:138,1,93.3333333333333,2|0,1:2|1:2,0:0:0:0:
297,174,88013,2,0,P|359:162|417:151,1,93.3333333333333,2|0,1:2|0:0,0:0:0:0:
419,121,88313,6,0,P|397:227|377:336,1,210,6|0,0:0|0:0,0:0:0:0:
