osu file format v14

[General]
AudioFilename: audio.mp3
AudioLeadIn: 0
PreviewTime: 49538
Countdown: 0
SampleSet: Soft
StackLeniency: 0.7
Mode: 0
LetterboxInBreaks: 0
WidescreenStoryboard: 1

[Editor]
DistanceSpacing: 1
BeatDivisor: 3
GridSize: 4
TimelineZoom: 2.7

[Metadata]
Title:Black Catcher (TV Size)
TitleUnicode:Black Catcher (TV Size)
Artist:Vickeblanka
ArtistUnicode:ビッケブランカ
Creator:HakuYT
Version:Normal
Source:ブラッククローバー
Tags:black asta demon clover anime japanese opening 10 yami yuno licht lumiere fuju
BeatmapID:2279985
BeatmapSetID:1089606

[Difficulty]
HPDrainRate:3
CircleSize:3
OverallDifficulty:4
ApproachRate:5
SliderMultiplier:0.999999999999999
SliderTickRate:1

[Events]
//Background and Video events
Video,-500,"videoo.mp4"
0,0,"bg.jpg",0,0
//Break Periods
2,39613,45394
2,69613,75413
//Storyboard Layer 0 (Background)
//Storyboard Layer 1 (Fail)
//Storyboard Layer 2 (Pass)
//Storyboard Layer 3 (Foreground)
//Storyboard Layer 4 (Overlay)
//Storyboard Sound Samples

[TimingPoints]
63,316.622691292876,4,2,1,45,1,0
379,325.20325203252,4,2,1,45,1,0
704,340.909090909091,4,2,1,45,1,0
1044,320.855614973262,4,2,1,45,1,0
1366,333.333333333333,4,2,1,45,1,0
4699,352.941176470588,4,2,1,45,1,0
5051,401.33779264214,4,2,1,45,1,0
5452,375,4,2,1,45,1,0
6108,353.460972017673,4,2,1,45,1,0
6461,327.421555252387,4,2,1,45,1,0
6788,356.083086053412,4,2,1,45,1,0
7144,353.982300884956,4,2,1,45,1,0
7497,357.142857142857,4,2,1,45,1,0
8211,300,4,2,1,70,1,0
8211,-100,4,2,1,70,0,0
17811,-100,4,2,1,60,0,0
21111,285.714285714286,4,2,1,60,1,0
21301,300,4,2,1,60,1,0
21396,312.5,4,2,1,60,1,0
21708,286.396181384249,4,2,1,60,1,0
22280,310.478654592497,4,2,1,60,1,0
22590,305.343511450382,4,2,1,60,1,0
23200,313.31592689295,4,2,1,60,1,0
23513,310.077519379845,4,2,1,60,1,0
23823,305.343511450382,4,2,1,60,1,0
24128,287.081339712919,4,2,1,60,1,0
24702,311.688311688312,4,2,1,60,1,0
25013,300,4,2,1,60,1,0
25913,317.460317460317,4,2,1,60,1,0
26230,283.018867924528,4,2,1,60,1,0
26513,300,4,2,1,60,1,0
27413,300,4,2,1,60,1,0
37013,-100,4,2,1,60,0,0
46275,319.148936170213,4,2,1,60,1,0
46594,-100,4,2,1,60,0,0
46913,300,4,2,1,60,1,0
47813,300,4,2,1,60,1,0
50213,-100,4,2,1,80,0,1
69413,306.513409961686,4,2,1,65,1,0
69413,-100,4,2,1,65,0,0
70332,300,4,2,1,65,1,0
70632,285.714285714286,4,2,1,65,1,0
70917,293.7576499388,4,2,1,65,1,0
71504,300,4,2,1,65,1,0
72713,332.409972299169,4,2,1,65,1,0
73045,271.493212669683,4,2,1,65,1,0
73316,293.757649938801,4,2,1,65,1,0
73903,279.06976744186,4,2,1,65,1,0
74182,310.077519379845,4,2,1,65,1,0
75112,300,4,2,1,65,1,0
75712,315.789473684211,4,2,1,65,1,0
76027,293.398533007335,4,2,1,65,1,0
76613,300,4,2,1,65,1,0
79013,-100,4,2,1,70,0,0
88313,-100,4,2,1,60,0,0

[Colours]
Combo1 : 170,170,255
Combo2 : 255,213,170
Combo3 : 255,170,170
Combo4 : 170,255,170

[HitObjects]
66,75,8211,6,0,L|192:62,1,99.9999999999999,6|8,1:2|0:2,0:0:0:0:
233,138,8811,2,0,L|359:151,1,99.9999999999999,2|8,1:2|0:2,0:0:0:0:
391,179,9311,2,0,L|409:319,1,133.333333333333,2|10,0:2|0:2,0:0:0:0:
318,345,10011,1,2,0:2:0:0:
217,330,10311,1,10,0:2:0:0:
129,281,10611,6,0,P|128:234|102:165,1,99.9999999999999,0|10,1:2|0:2,0:0:0:0:
85,87,11211,2,0,P|132:102|182:103,1,99.9999999999999,0|10,1:2|0:2,0:0:0:0:
242,73,11711,2,0,L|266:206,1,133.333333333333,2|14,0:2|0:2,0:0:0:0:
329,281,12411,1,2,0:2:0:0:
245,326,12711,1,10,0:2:0:0:
147,347,13011,6,0,L|40:338,1,99.9999999999999,6|12,1:2|0:2,0:0:0:0:
87,247,13611,2,0,L|194:238,1,99.9999999999999,0|8,1:2|0:2,0:0:0:0:
252,226,14111,2,0,P|270:165|261:95,1,133.333333333333,2|10,0:2|0:2,0:0:0:0:
194,22,14811,1,2,0:2:0:0:
155,111,15111,1,10,0:2:0:0:
66,63,15411,6,0,B|56:124|56:124|62:177,1,99.9999999999999,0|14,1:2|0:2,0:0:0:0:
147,211,16011,2,0,B|157:272|157:272|151:325,1,99.9999999999999,0|10,1:2|0:2,0:0:0:0:
210,344,16511,2,0,L|349:328,1,133.333333333333,2|14,0:2|0:2,0:0:0:0:
359,229,17211,1,2,1:2:0:0:
301,146,17511,1,8,0:2:0:0:
354,61,17811,6,0,L|466:47,1,99.9999999999999,4|10,1:2|0:2,0:0:0:0:
509,131,18411,2,0,L|397:145,1,99.9999999999999,2|10,1:2|0:2,0:0:0:0:
375,200,18911,1,2,0:2:0:0:
315,319,19311,2,0,P|267:332|210:331,1,99.9999999999999,10|2,0:2|0:2,0:0:0:0:
148,265,19911,6,0,P|97:252|43:253,1,99.9999999999999,10|0,0:2|1:2,0:0:0:0:
32,159,20511,2,0,P|24:112|53:52,1,99.9999999999999,10|2,0:2|1:2,0:0:0:0:
119,0,21111,2,0,P|137:46|129:94,1,99.9999999999999,10|0,0:2|1:2,0:0:0:0:
172,185,21708,2,0,L|272:173,1,99.9999999999999,10|2,0:2|0:2,0:0:0:0:
352,114,22280,1,10,0:2:0:0:
367,212,22590,6,0,L|381:327,2,99.9999999999999,2|10|0,1:2|0:2|1:2,0:0:0:0:
283,266,23513,2,0,B|232:261|232:261|186:280,1,99.9999999999999,10|2,0:2|1:2,0:0:0:0:
118,353,24128,2,0,B|67:357|67:357|16:340,1,99.9999999999999,10|2,0:0|0:0,0:0:0:0:
56,247,24702,1,8,0:2:0:0:
90,153,25013,6,0,L|76:38,2,99.9999999999999,2|10|0,1:2|0:2|1:2,0:0:0:0:
184,184,25913,2,0,P|237:198|283:197,1,99.9999999999999,10|2,0:2|1:2,0:0:0:0:
347,122,26513,2,0,P|294:108|248:109,1,99.9999999999999,10|0,0:2|0:2,0:0:0:0:
172,44,27113,1,8,0:2:0:0:
266,11,27413,6,0,L|384:17,1,99.9999999999999,2|8,1:2|0:2,0:0:0:0:
423,50,27913,2,0,L|453:197,1,133.333333333333,2|10,0:2|0:2,0:0:0:0:
401,226,28513,2,0,P|338:225|274:179,1,133.333333333333,0|10,0:2|0:2,0:0:0:0:
183,164,29213,1,2,0:0:0:0:
199,262,29513,1,10,0:0:0:0:
217,356,29813,6,0,L|109:371,1,99.9999999999999,2|8,1:2|0:2,0:0:0:0:
51,293,30413,2,0,L|36:185,1,99.9999999999999,2|10,1:2|0:2,0:0:0:0:
85,106,31013,2,0,B|135:83|135:83|199:91,1,99.9999999999999,2|10,1:2|0:2,0:0:0:0:
251,164,31613,2,0,B|301:187|301:187|365:179,1,99.9999999999999,2|10,0:2|0:2,0:0:0:0:
399,97,32213,5,2,1:2:0:0:
462,173,32513,1,10,0:2:0:0:
402,253,32813,1,0,1:2:0:0:
465,330,33113,2,0,P|404:348|366:343,1,99.9999999999999,10|2,0:2|1:2,0:0:0:0:
296,274,33713,2,0,P|235:256|197:261,1,99.9999999999999,8|2,0:2|0:2,0:0:0:0:
118,319,34313,1,8,0:2:0:0:
67,232,34613,6,0,L|59:114,1,99.9999999999999,0|10,1:2|0:2,0:0:0:0:
118,50,35213,2,0,L|236:42,1,99.9999999999999,2|10,1:2|0:2,0:0:0:0:
284,51,35713,1,2,0:2:0:0:
230,172,36113,2,0,P|215:222|216:286,1,99.9999999999999,10|2,0:2|1:2,0:0:0:0:
303,313,36713,1,10,0:2:0:0:
354,227,37013,6,0,L|464:214,1,99.9999999999999,6|8,1:2|0:2,0:0:0:0:
489,122,37613,2,0,L|379:109,1,99.9999999999999,2|8,1:2|0:2,0:0:0:0:
313,45,38213,2,0,P|292:106|301:146,1,99.9999999999999,6|8,1:2|0:2,0:0:0:0:
233,215,38813,1,2,1:2:0:0:
169,137,39113,1,8,1:3:0:0:
102,211,39413,1,6,1:2:0:0:
102,211,46594,6,0,L|115:322,1,99.9999999999999,2|12,1:2|0:2,0:0:0:0:
207,344,47213,2,0,L|220:233,1,99.9999999999999,12|2,0:2|1:2,0:0:0:0:
271,160,47813,2,0,P|329:140|392:142,1,99.9999999999999,10|0,0:2|0:0,0:0:0:0:
460,183,48413,1,8,0:2:0:0:
417,273,48713,1,0,1:2:0:0:
417,273,50213,6,0,L|303:271,1,99.9999999999999,6|10,1:2|0:2,0:0:0:0:
232,325,50813,2,0,L|118:327,1,99.9999999999999,2|8,1:2|0:2,0:0:0:0:
82,282,51313,2,0,P|66:234|81:148,1,133.333333333333,2|10,1:2|0:2,0:0:0:0:
181,191,52013,1,2,1:2:0:0:
243,112,52313,1,10,0:2:0:0:
322,172,52613,6,0,L|421:167,1,99.9999999999999,2|10,1:2|0:2,0:0:0:0:
469,79,53213,2,0,L|370:74,1,99.9999999999999,2|8,1:2|0:2,0:0:0:0:
285,19,53813,1,2,1:2:0:0:
191,54,54113,1,10,0:2:0:0:
170,151,54413,1,2,0:2:0:0:
223,235,54713,1,10,0:2:0:0:
166,317,55013,6,0,P|112:321|66:293,1,99.9999999999999,6|10,1:2|0:2,0:0:0:0:
26,210,55613,2,0,P|80:206|126:234,1,99.9999999999999,2|8,1:2|0:2,0:0:0:0:
223,235,56213,2,0,L|346:223,1,99.9999999999999,2|8,1:2|0:2,0:0:0:0:
370,135,56813,2,0,L|247:123,1,99.9999999999999,2|8,0:2|0:2,0:0:0:0:
184,73,57413,5,2,1:2:0:0:
268,20,57713,1,10,0:2:0:0:
367,30,58013,1,2,1:2:0:0:
448,87,58313,2,0,B|468:138|468:138|446:192,1,99.9999999999999,10|0,0:2|1:2,0:0:0:0:
371,240,58913,2,0,L|401:340,2,99.9999999999999,10|2|8,0:2|1:2|0:2,0:0:0:0:
285,188,59813,6,0,P|236:175|170:195,1,99.9999999999999,6|10,1:2|0:2,0:0:0:0:
111,249,60413,2,0,P|62:262|-4:242,1,99.9999999999999,2|8,1:2|0:2,0:0:0:0:
4,186,60913,2,0,L|37:47,1,133.333333333333,2|10,1:2|0:2,0:0:0:0:
127,97,61613,1,2,0:2:0:0:
209,40,61913,1,10,0:2:0:0:
285,104,62213,6,0,P|331:108|384:85,1,99.9999999999999,2|10,1:2|0:2,0:0:0:0:
450,17,62813,2,0,P|473:56|476:114,1,99.9999999999999,2|8,1:2|0:2,0:0:0:0:
409,183,63413,1,2,1:2:0:0:
469,262,63713,1,10,0:2:0:0:
388,321,64013,1,0,0:2:0:0:
320,247,64313,1,10,0:2:0:0:
239,306,64613,6,0,B|195:328|195:328|136:320,1,99.9999999999999,6|8,1:2|0:2,0:0:0:0:
77,246,65213,2,0,B|121:224|121:224|180:232,1,99.9999999999999,2|8,1:2|0:2,0:0:0:0:
220,143,65813,2,0,L|120:131,1,99.9999999999999,2|8,1:2|0:2,0:0:0:0:
67,46,66413,2,0,L|167:34,1,99.9999999999999,2|8,1:2|0:2,0:0:0:0:
264,54,67013,5,2,1:2:0:0:
336,122,67313,2,0,P|348:161|356:233,1,99.9999999999999,8|0,0:2|1:2,0:0:0:0:
257,235,67913,2,0,P|245:274|237:346,1,99.9999999999999,8|2,0:2|1:2,0:0:0:0:
297,361,68413,2,0,L|426:348,1,99.9999999999999,2|2,0:2|0:2,0:0:0:0:
444,263,69013,1,2,1:2:0:0:
348,174,69413,1,6,1:2:0:0:
453,139,76613,6,0,L|341:127,1,99.9999999999999,2|10,1:2|0:2,0:0:0:0:
267,179,77213,2,0,L|155:191,1,99.9999999999999,2|10,1:2|0:2,0:0:0:0:
90,125,77813,1,10,0:2:0:0:
90,125,79013,6,0,P|70:171|77:237,1,99.9999999999999,6|8,1:2|0:2,0:0:0:0:
143,289,79613,2,0,P|163:243|156:177,1,99.9999999999999,2|8,1:2|0:2,0:0:0:0:
190,133,80113,2,0,L|340:111,1,133.333333333333,2|10,1:2|0:2,0:0:0:0:
420,127,80813,1,2,1:2:0:0:
442,221,81113,1,10,0:2:0:0:
364,284,81413,6,0,B|312:300|312:300|265:291,1,99.9999999999999,0|10,1:2|0:2,0:0:0:0:
206,211,82013,2,0,B|154:195|154:195|107:204,1,99.9999999999999,0|10,1:2|0:2,0:0:0:0:
55,243,82513,2,0,P|51:287|114:366,1,133.333333333333,2|14,1:2|0:2,0:0:0:0:
197,363,83213,1,2,1:2:0:0:
267,291,83513,1,10,0:2:0:0:
349,347,83813,6,0,L|452:341,1,99.9999999999999,6|14,1:2|0:2,0:0:0:0:
479,245,84413,2,0,L|376:239,1,99.9999999999999,0|10,1:2|0:2,0:0:0:0:
328,194,84913,2,0,P|320:139|342:65,1,133.333333333333,2|10,1:2|0:2,0:0:0:0:
256,13,85613,1,2,1:2:0:0:
164,54,85913,1,10,0:2:0:0:
122,145,86213,6,0,P|113:200|125:255,1,99.9999999999999,0|14,1:2|0:2,0:0:0:0:
201,302,86813,1,0,1:2:0:0:
268,224,87113,1,2,1:2:0:0:
321,308,87413,2,0,L|427:301,1,99.9999999999999,8|10,0:2|1:3,0:0:0:0:
467,212,88013,1,10,1:3:0:0:
399,138,88313,1,12,0:2:0:0:
