osu file format v14

[General]
AudioFilename: audio.mp3
AudioLeadIn: 0
PreviewTime: 49538
Countdown: 0
SampleSet: Soft
StackLeniency: 0.7
Mode: 0
LetterboxInBreaks: 0
WidescreenStoryboard: 1

[Editor]
DistanceSpacing: 1.5
BeatDivisor: 4
GridSize: 4
TimelineZoom: 3.2

[Metadata]
Title:Black Catcher (TV Size)
TitleUnicode:Black Catcher (TV Size)
Artist:Vickeblanka
ArtistUnicode:ビッケブランカ
Creator:HakuYT
Version:Hard
Source:ブラッククローバー
Tags:black asta demon clover anime japanese opening 10 yami yuno licht lumiere fuju
BeatmapID:2279984
BeatmapSetID:1089606

[Difficulty]
HPDrainRate:4
CircleSize:3
OverallDifficulty:6
ApproachRate:7
SliderMultiplier:1.4
SliderTickRate:1

[Events]
//Background and Video events
Video,-500,"videoo.mp4"
0,0,"bg.jpg",0,0
//Break Periods
//Storyboard Layer 0 (Background)
//Storyboard Layer 1 (Fail)
//Storyboard Layer 2 (Pass)
//Storyboard Layer 3 (Foreground)
//Storyboard Layer 4 (Overlay)
//Storyboard Sound Samples

[TimingPoints]
63,316.622691292876,4,2,1,45,1,0
63,-200,4,2,1,45,0,0
379,325.20325203252,4,2,1,45,1,0
379,-200,4,2,1,45,0,0
704,340.909090909091,4,2,1,45,1,0
704,-200,4,2,1,45,0,0
1044,320.855614973262,4,2,1,45,1,0
1044,-200,4,2,1,45,0,0
1366,333.333333333333,4,2,1,45,1,0
1366,-200,4,2,1,45,0,0
4699,352.941176470588,4,2,1,45,1,0
4699,-200,4,2,1,45,0,0
5051,401.33779264214,4,2,1,45,1,0
5051,-200,4,2,1,45,0,0
5452,375,4,2,1,45,1,0
5452,-200,4,2,1,45,0,0
6108,353.460972017673,4,2,1,45,1,0
6108,-200,4,2,1,45,0,0
6461,327.421555252387,4,2,1,45,1,0
6461,-200,4,2,1,45,0,0
6788,356.083086053412,4,2,1,45,1,0
6788,-200,4,2,1,45,0,0
7144,353.982300884956,4,2,1,45,1,0
7144,-200,4,2,1,45,0,0
7497,357.142857142857,4,2,1,45,1,0
7497,-200,4,2,1,45,0,0
8211,300,4,2,1,70,1,0
8211,-100,4,2,1,70,0,0
17811,-125,4,2,1,60,0,0
21111,285.714285714286,4,2,1,60,1,0
21111,-125,4,2,1,60,0,0
21301,300,4,2,1,60,1,0
21301,-125,4,2,1,60,0,0
21396,312.5,4,2,1,60,1,0
21396,-125,4,2,1,60,0,0
21708,286.396181384249,4,2,1,60,1,0
21708,-125,4,2,1,60,0,0
22280,310.478654592497,4,2,1,60,1,0
22280,-125,4,2,1,60,0,0
22590,305.343511450382,4,2,1,60,1,0
22590,-125,4,2,1,60,0,0
22900,-125,4,2,1,60,0,0
23200,313.31592689295,4,2,1,60,1,0
23200,-125,4,2,1,60,0,0
23513,310.077519379845,4,2,1,60,1,0
23513,-125,4,2,1,60,0,0
23823,305.343511450382,4,2,1,60,1,0
23823,-125,4,2,1,60,0,0
24128,287.081339712919,4,2,1,60,1,0
24128,-125,4,2,1,60,0,0
24702,311.688311688312,4,2,1,60,1,0
24702,-125,4,2,1,60,0,0
25013,300,4,2,1,60,1,0
25013,-125,4,2,1,60,0,0
25913,317.460317460317,4,2,1,60,1,0
25913,-125,4,2,1,60,0,0
26230,283.018867924528,4,2,1,60,1,0
26230,-125,4,2,1,60,0,0
26513,300,4,2,1,60,1,0
26513,-125,4,2,1,60,0,0
27008,-125,4,2,1,5,0,0
27036,-125,4,2,1,60,0,0
27413,300,4,2,1,60,1,0
27413,-125,4,2,1,60,0,0
37013,-100,4,2,1,60,0,0
46275,319.148936170213,4,2,1,60,1,0
46275,-100,4,2,1,60,0,0
46594,-133.333333333333,4,2,1,60,0,0
46913,300,4,2,1,60,1,0
46913,-133.333333333333,4,2,1,60,0,0
47813,300,4,2,1,60,1,0
47813,-133.333333333333,4,2,1,60,0,0
50213,-90.9090909090909,4,2,1,80,0,1
69413,306.513409961686,4,2,1,65,1,0
69413,-100,4,2,1,65,0,0
70332,300,4,2,1,65,1,0
70332,-100,4,2,1,65,0,0
70632,285.714285714286,4,2,1,65,1,0
70632,-100,4,2,1,65,0,0
70917,293.7576499388,4,2,1,65,1,0
70917,-100,4,2,1,65,0,0
71504,300,4,2,1,65,1,0
71504,-100,4,2,1,65,0,0
72713,332.409972299169,4,2,1,65,1,0
72713,-100,4,2,1,65,0,0
73045,271.493212669683,4,2,1,65,1,0
73045,-100,4,2,1,65,0,0
73316,293.757649938801,4,2,1,65,1,0
73316,-100,4,2,1,65,0,0
73903,279.06976744186,4,2,1,65,1,0
73903,-100,4,2,1,65,0,0
74182,310.077519379845,4,2,1,65,1,0
74182,-100,4,2,1,65,0,0
75112,300,4,2,1,65,1,0
75112,-100,4,2,1,65,0,0
75712,315.789473684211,4,2,1,65,1,0
75712,-100,4,2,1,65,0,0
76027,293.398533007335,4,2,1,65,1,0
76027,-100,4,2,1,65,0,0
76613,300,4,2,1,65,1,0
76613,-100,4,2,1,65,0,0
79013,-100,4,2,1,70,0,0
88313,-166.666666666667,4,2,1,60,0,0

[Colours]
Combo1 : 170,170,255
Combo2 : 255,213,170
Combo3 : 255,170,170
Combo4 : 170,255,170

[HitObjects]
36,69,63,6,0,L|125:62,1,70,0|0,0:2|0:2,0:0:0:0:
208,44,704,2,0,P|205:78|211:120,1,70,2|0,0:2|0:0,0:0:0:0:
217,214,1366,1,0,0:0:0:0:
321,223,1699,1,0,0:2:0:0:
355,130,2032,2,0,L|271:119,1,70,2|2,0:2|0:2,0:0:0:0:
335,32,2699,6,0,L|417:43,1,70,0|0,0:2|0:2,0:0:0:0:
459,132,3365,2,0,B|467:177|467:177|445:277,1,140,2|0,0:2|0:2,0:0:0:0:
354,319,4365,1,0,0:2:0:0:
268,253,4699,2,0,P|223:247|179:254,1,70,2|2,0:2|0:2,0:0:0:0:
73,315,5452,6,0,L|59:241,1,70,2|0,0:2|0:2,0:0:0:0:
108,157,6108,2,0,L|120:85,1,70,2|0,0:2|0:2,0:0:0:0:
193,18,6788,2,0,L|283:28,1,70,0|0,0:2|0:2,0:0:0:0:
338,105,7497,1,2,0:2:0:0:
338,105,8211,6,0,B|337:151|337:151|312:197|248:197,1,140,6|8,1:2|0:2,0:0:0:0:
120,225,8811,2,0,L|111:322,1,93.3333333333333,2|0,1:2|0:2,0:0:0:0:
107,359,9111,1,8,0:2:0:0:
210,353,9311,6,0,P|278:335|360:349,1,140,2|2,0:2|0:2,0:0:0:0:
385,357,9711,1,10,0:2:0:0:
428,262,9911,1,2,1:2:0:0:
428,262,10011,2,0,B|354:260|354:260|287:192,1,140,2|10,0:2|0:2,0:0:0:0:
384,93,10611,6,0,B|340:75|340:75|255:84,1,93.3333333333333,0|0,1:2|0:2,0:0:0:0:
255,96,10911,2,0,B|213:115|213:115|109:98,1,140,10|0,0:2|1:2,0:0:0:0:
35,153,11411,1,2,0:2:0:0:
35,153,11511,1,10,0:2:0:0:
137,186,11711,6,0,P|151:243|134:337,1,140,2|0,0:2|0:2,0:0:0:0:
171,356,12111,2,0,L|315:334,1,140,14|2,0:2|0:2,0:0:0:0:
449,331,12711,1,10,0:2:0:0:
375,208,13011,6,0,P|325:186|275:180,1,93.3333333333333,6|0,1:2|0:2,0:0:0:0:
232,191,13311,2,0,P|178:214|90:197,1,140,12|0,0:2|1:2,0:0:0:0:
114,101,13811,1,0,0:2:0:0:
114,101,13911,1,8,0:2:0:0:
195,29,14111,6,0,L|337:53,1,140,2|2,0:2|0:2,0:0:0:0:
370,87,14511,1,10,0:2:0:0:
395,181,14711,1,2,1:2:0:0:
395,181,14811,2,0,P|387:248|347:310,1,140,2|10,0:2|0:2,0:0:0:0:
213,342,15411,6,0,L|115:335,1,93.3333333333333,0|0,1:2|0:2,0:0:0:0:
91,304,15711,2,0,L|75:160,1,140,14|0,0:2|1:2,0:0:0:0:
150,81,16211,1,2,0:2:0:0:
150,81,16311,1,10,0:2:0:0:
241,134,16511,6,0,P|325:135|394:87,1,140,2|0,0:2|0:2,0:0:0:0:
400,71,16911,2,0,L|413:214,1,140,14|2,0:2|1:2,0:0:0:0:
388,303,17411,1,8,0:2:0:0:
388,303,17511,2,0,L|287:317,1,93.3333333333333,8|0,0:2|0:2,0:0:0:0:
258,321,17811,5,4,1:2:0:0:
172,216,18111,2,0,L|154:90,1,112,10|2,0:2|1:2,0:0:0:0:
63,8,18711,1,10,0:2:0:0:
28,101,18911,6,0,L|48:245,1,112,2|2,0:2|0:2,0:0:0:0:
50,256,19311,1,10,0:2:0:0:
121,370,19611,1,2,0:2:0:0:
206,266,19911,1,10,0:2:0:0:
324,330,20211,6,0,L|334:246,1,74.6666666666667,0|0,1:2|0:2,0:0:0:0:
335,207,20511,1,10,0:2:0:0:
285,84,20811,1,2,1:2:0:0:
163,137,21111,1,10,0:0:0:0:
68,99,21301,1,2,0:0:0:0:
75,236,21604,1,2,0:0:0:0:
75,236,21708,2,0,P|87:298|117:337,1,112,10|2,0:0|0:0,0:0:0:0:
214,245,22280,1,10,0:2:0:0:
339,191,22590,6,0,B|328:239|328:239|364:326,2,112,2|10|0,1:2|0:2|1:2,0:0:0:0:
224,116,23513,6,0,P|184:117|118:141,1,74.6666666666667,10|0,0:2|0:2,0:0:0:0:
107,141,23823,1,2,1:2:0:0:
52,259,24128,1,10,0:2:0:0:
148,264,24319,2,0,L|262:240,1,112,2|2,1:2|1:2,0:0:0:0:
300,228,24702,1,8,0:2:0:0:
378,331,25013,6,0,B|435:307|435:307|513:316,2,112,2|10|0,1:2|0:2|1:2,0:0:0:0:
419,206,25913,6,0,P|403:154|408:99,1,74.6666666666667,10|0,0:2|1:2,0:0:0:0:
410,88,26230,1,2,1:2:0:0:
300,152,26513,1,10,0:2:0:0:
241,74,26713,2,0,L|117:80,1,121.333333333333,2|0,1:2|1:2,0:0:0:0:
77,83,27113,1,8,0:2:0:0:
151,196,27413,6,0,L|170:317,1,112,2|8,1:2|0:2,0:0:0:0:
75,324,27913,2,0,L|55:205,1,112,2|0,0:2|0:2,0:0:0:0:
52,165,28313,1,10,0:2:0:0:
116,93,28513,6,0,P|153:83|235:77,1,112,2|2,0:2|0:2,0:0:0:0:
274,76,28913,1,10,0:2:0:0:
285,209,29213,1,2,0:2:0:0:
384,298,29513,1,10,0:2:0:0:
460,194,29813,6,0,P|468:143|453:94,1,74.6666666666667,2|2,1:2|0:2,0:0:0:0:
447,78,30113,1,8,0:2:0:0:
324,126,30413,1,2,1:2:0:0:
224,35,30713,1,10,0:2:0:0:
159,152,31013,6,0,L|175:247,1,74.6666666666667,2|2,1:2|0:2,0:0:0:0:
181,269,31313,1,10,0:2:0:0:
77,354,31613,1,2,0:2:0:0:
31,227,31913,2,0,L|49:150,1,74.6666666666667,10|2,0:2|0:2,0:0:0:0:
62,111,32213,5,2,1:2:0:0:
127,40,32413,1,0,0:2:0:0:
127,40,32513,2,0,L|241:48,1,112,10|0,0:2|1:2,0:0:0:0:
346,128,33113,1,10,0:2:0:0:
469,74,33413,6,0,P|487:120|488:192,1,112,2|8,1:2|0:2,0:0:0:0:
425,300,34013,2,0,L|281:318,1,112,2|8,0:2|0:2,0:0:0:0:
189,347,34613,6,0,L|82:340,1,74.6666666666667,0|0,1:2|0:2,0:0:0:0:
77,342,34913,1,10,0:2:0:0:
31,212,35213,1,2,1:2:0:0:
97,94,35513,1,10,0:2:0:0:
180,35,35713,6,0,B|239:25|239:25|312:33,1,112,2|2,0:2|0:2,0:0:0:0:
338,45,36113,1,10,0:2:0:0:
313,177,36413,1,2,1:2:0:0:
455,194,36713,1,10,0:2:0:0:
392,358,37013,6,0,L|274:344,1,93.3333333333333,6|0,1:2|0:2,0:0:0:0:
252,342,37313,1,8,0:2:0:0:
99,224,37613,6,0,L|215:212,1,93.3333333333333,2|0,1:2|0:2,0:0:0:0:
238,210,37913,1,8,0:2:0:0:
404,83,38213,6,0,L|286:70,1,93.3333333333333,6|0,1:2|0:2,0:0:0:0:
264,69,38513,1,8,0:2:0:0:
77,9,38813,6,0,P|51:70|49:106,1,93.3333333333333,2|8,1:2|1:3,0:0:0:0:
53,143,39113,1,8,1:3:0:0:
128,283,39413,5,6,1:2:0:0:
128,283,40313,5,2,1:2:0:0:
234,200,40613,1,8,0:2:0:0:
263,331,40913,1,2,1:2:0:0:
263,331,41513,5,2,1:2:0:0:
377,259,41813,1,0,1:2:0:0:
361,124,42113,1,2,1:2:0:0:
361,124,42713,5,2,1:2:0:0:
228,148,43013,1,12,0:2:0:0:
207,14,43313,1,2,1:2:0:0:
207,14,43913,5,0,1:2:0:0:
99,95,44213,1,6,1:2:0:0:
156,217,44513,1,2,1:2:0:0:
156,217,45113,5,2,1:2:0:0:
59,311,45413,1,8,0:2:0:0:
189,346,45713,1,2,1:2:0:0:
189,346,46275,5,2,1:2:0:0:
279,258,46594,6,0,P|337:251|374:252,1,70.0000026702882,2|0,1:2|0:2,0:0:0:0:
383,274,46913,2,0,L|398:184,1,70.0000026702882,12|0,0:2|0:2,0:0:0:0:
404,163,47213,2,0,L|388:71,1,70.0000026702882,12|0,0:2|0:2,0:0:0:0:
384,52,47513,1,2,1:2:0:0:
237,136,47813,5,10,0:2:0:0:
78,30,48313,1,0,1:2:0:0:
78,30,48413,1,8,0:2:0:0:
35,162,48713,1,0,1:2:0:0:
256,192,49013,12,2,49613,0:2:0:0:
51,146,50213,6,0,B|36:198|36:198|58:258,1,102.666669799805,6|0,1:2|0:2,0:0:0:0:
79,287,50513,2,0,L|174:349,1,102.666669799805,10|0,0:2|0:2,0:0:0:0:
215,354,50813,1,2,1:2:0:0:
328,273,51113,1,8,0:2:0:0:
431,321,51313,1,2,1:2:0:0:
431,321,51413,6,0,P|462:250|456:185,1,102.666669799805,0|2,0:2|1:2,0:0:0:0:
444,178,51713,2,0,P|414:109|419:42,1,102.666669799805,10|0,0:2|0:2,0:0:0:0:
405,31,52013,1,2,1:2:0:0:
267,51,52313,1,10,0:2:0:0:
130,28,52613,6,0,L|89:133,1,102.666669799805,2|0,1:2|0:2,0:0:0:0:
86,177,52913,2,0,L|125:278,1,102.666669799805,10|0,0:2|0:2,0:0:0:0:
147,317,53213,1,2,1:2:0:0:
278,360,53513,1,8,0:2:0:0:
403,301,53813,6,0,P|427:244|422:181,1,102.666669799805,2|0,1:2|0:2,0:0:0:0:
406,162,54113,2,0,P|343:183|286:181,1,102.666669799805,10|0,0:2|1:2,0:0:0:0:
262,173,54413,1,2,0:2:0:0:
125,148,54713,1,10,0:2:0:0:
29,63,55013,6,0,L|136:30,1,102.666669799805,6|0,1:2|0:2,0:0:0:0:
175,13,55313,2,0,L|282:48,1,102.666669799805,10|0,0:2|0:2,0:0:0:0:
315,62,55613,1,2,1:2:0:0:
451,36,55913,1,8,0:2:0:0:
450,163,56213,6,0,P|473:221|476:288,1,102.666669799805,2|0,1:2|0:0,0:0:0:0:
470,311,56513,1,8,0:2:0:0:
376,357,56813,2,0,P|332:344|236:357,1,102.666669799805,2|0,0:2|0:0,0:0:0:0:
225,358,57113,1,8,0:2:0:0:
71,373,57413,6,0,L|51:264,1,102.666669799805,2|0,1:2|0:2,0:0:0:0:
28,226,57713,2,0,L|48:116,1,102.666669799805,10|0,0:2|0:2,0:0:0:0:
64,82,58013,1,2,1:2:0:0:
191,39,58313,6,0,L|353:63,1,154.000004699707,10|0,0:2|1:2,0:0:0:0:
243,166,58913,2,0,L|268:278,1,102.666669799805,10|0,0:2|0:2,0:0:0:0:
276,311,59213,1,2,1:2:0:0:
349,375,59413,1,8,0:2:0:0:
349,375,59513,2,0,L|436:354,1,77.0000023498536,8|0,0:2|1:0,0:0:0:0:
482,278,59813,6,0,P|502:204|497:157,1,102.666669799805,6|0,1:2|1:2,0:0:0:0:
475,142,60113,2,0,P|457:64|460:21,1,102.666669799805,10|0,0:2|0:2,0:0:0:0:
431,3,60413,1,2,1:2:0:0:
320,55,60713,1,8,0:2:0:0:
224,33,60913,1,2,1:2:0:0:
224,33,61013,6,0,P|188:81|137:107,1,102.666669799805,2|2,0:2|1:2,0:0:0:0:
108,129,61313,2,0,P|141:181|195:203,1,102.666669799805,10|0,0:2|0:2,0:0:0:0:
224,216,61613,1,2,1:2:0:0:
191,350,61913,1,10,0:2:0:0:
333,322,62213,6,0,B|385:312|385:312|457:330,1,102.666669799805,2|0,1:2|0:2,0:0:0:0:
481,342,62513,2,0,P|471:270|480:223,1,102.666669799805,10|0,0:2|0:2,0:0:0:0:
488,191,62813,1,2,1:2:0:0:
452,57,63113,1,8,0:2:0:0:
324,78,63413,6,0,L|214:61,1,102.666669799805,2|0,1:2|0:2,0:0:0:0:
189,23,63713,2,0,L|76:39,1,102.666669799805,10|0,0:2|1:2,0:0:0:0:
44,55,64013,1,0,0:2:0:0:
32,193,64313,1,10,0:2:0:0:
81,322,64613,6,0,P|149:304|225:308,1,102.666669799805,6|0,1:2|0:2,0:0:0:0:
226,308,64913,1,8,0:2:0:0:
396,384,65213,6,0,L|415:263,1,102.666669799805,2|0,1:2|0:2,0:0:0:0:
420,231,65513,1,8,0:2:0:0:
492,95,65813,6,0,B|445:78|445:78|357:83,1,102.666669799805,2|0,1:2|0:2,0:0:0:0:
341,88,66113,1,8,0:2:0:0:
202,28,66413,6,0,L|220:145,1,102.666669799805,2|0,1:2|0:2,0:0:0:0:
225,180,66713,1,8,0:2:0:0:
295,317,67013,6,0,P|232:338|181:335,1,102.666669799805,2|0,1:2|0:2,0:0:0:0:
147,319,67313,1,8,0:2:0:0:
58,192,67613,6,0,B|38:135|38:135|54:74,1,102.666669799805,0|0,1:2|0:2,0:0:0:0:
66,45,67913,1,8,0:2:0:0:
166,66,68113,1,0,0:2:0:0:
166,66,68213,6,0,L|333:52,1,154.000004699707,2|8,1:2|0:2,0:2:0:0:
443,115,68813,2,0,L|429:282,1,154.000004699707,0|8,1:2|0:2,0:2:0:0:
329,351,69413,1,6,1:2:0:0:
329,351,70332,5,2,1:2:0:0:
232,220,70632,1,8,0:2:0:0:
153,333,70917,1,2,1:2:0:0:
153,333,71504,5,2,1:2:0:0:
141,193,71804,1,4,1:2:0:0:
141,193,72713,5,2,1:2:0:0:
20,70,73045,1,8,0:2:0:0:
37,199,73316,1,2,1:2:0:0:
37,199,73903,5,0,1:2:0:0:
148,279,74182,1,6,1:2:0:0:
148,279,75113,5,2,1:2:0:0:
60,329,75312,1,0,1:2:0:0:
60,329,75412,5,10,0:2:0:0:
51,196,75712,1,2,1:2:0:0:
170,104,76027,1,8,0:2:0:0:
275,199,76320,1,0,0:0:0:0:
327,325,76613,6,0,P|397:353|435:352,1,93.3333333333333,2|0,1:2|0:2,0:0:0:0:
440,320,76913,2,0,L|471:222,1,93.3333333333333,10|0,0:2|0:2,0:0:0:0:
480,186,77213,2,0,L|446:84,1,93.3333333333333,2|2,1:2|0:2,0:0:0:0:
435,53,77513,1,10,0:2:0:0:
311,99,77813,5,10,0:2:0:0:
311,99,79013,6,0,P|261:74|165:77,1,140,6|8,1:2|0:2,0:0:0:0:
43,112,79613,2,0,L|20:226,1,93.3333333333333,2|0,1:2|0:2,0:0:0:0:
21,246,79913,1,8,0:2:0:0:
64,340,80113,6,0,B|124:326|124:326|168:350|227:339,1,140,2|2,1:2|1:2,0:0:0:0:
245,334,80513,1,10,0:2:0:0:
321,265,80713,1,2,0:2:0:0:
321,265,80813,2,0,P|355:310|444:330,1,140,2|10,1:2|0:2,0:0:0:0:
451,193,81413,6,0,L|469:72,1,93.3333333333333,0|0,1:2|0:2,0:0:0:0:
441,59,81713,2,0,L|297:38,1,140,10|0,0:2|1:2,0:0:0:0:
224,105,82213,1,2,0:2:0:0:
224,105,82313,1,10,0:2:0:0:
137,49,82513,6,0,P|116:104|122:197,1,140,2|0,1:2|1:2,0:0:0:0:
134,227,82913,2,0,P|143:286|119:375,1,140,14|2,0:2|1:2,0:0:0:0:
261,333,83513,1,10,0:2:0:0:
256,195,83813,6,0,P|236:133|235:86,1,93.3333333333333,6|0,1:2|0:2,0:0:0:0:
230,58,84113,2,0,P|293:48|371:61,1,140,14|0,0:2|1:2,0:0:0:0:
461,36,84613,1,2,0:2:0:0:
461,36,84713,1,10,0:2:0:0:
478,133,84913,6,0,B|496:192|496:192|469:286,1,140,0|2,1:2|1:2,0:0:0:0:
453,309,85313,1,10,0:2:0:0:
357,279,85513,1,2,0:2:0:0:
357,279,85613,2,0,P|280:262|197:278,1,140,2|10,1:2|0:2,0:0:0:0:
86,312,86213,6,0,P|111:243|110:195,1,93.3333333333333,0|0,1:2|0:2,0:0:0:0:
92,181,86513,2,0,P|67:112|75:32,1,140,14|0,0:2|1:2,0:0:0:0:
166,35,87013,1,10,0:2:0:0:
166,35,87113,1,2,1:2:0:0:
247,91,87313,1,10,0:2:0:0:
247,91,87413,6,0,L|226:168,2,46.6666666666667,8|8|8,0:2|0:2|1:3,0:0:0:0:
279,63,87713,2,0,L|266:6,2,46.6666666666667,10|8|8,1:3|1:3|1:3,0:0:0:0:
317,80,88013,1,10,1:3:0:0:
360,222,88313,1,12,0:2:0:0:
