osu file format v14

[General]
AudioFilename: audio.mp3
AudioLeadIn: 0
PreviewTime: 49538
Countdown: 0
SampleSet: Soft
StackLeniency: 0.7
Mode: 0
LetterboxInBreaks: 0
WidescreenStoryboard: 1

[Editor]
DistanceSpacing: 1.2
BeatDivisor: 3
GridSize: 4
TimelineZoom: 2.7

[Metadata]
Title:Black Catcher (TV Size)
TitleUnicode:Black Catcher (TV Size)
Artist:Vickeblanka
ArtistUnicode:ビッケブランカ
Creator:HakuYT
Version:FuJu's Insane
Source:ブラッククローバー
Tags:black asta demon clover anime japanese opening 10 yami yuno licht lumiere fuju
BeatmapID:2281639
BeatmapSetID:1089606

[Difficulty]
HPDrainRate:5
CircleSize:4
OverallDifficulty:7.5
ApproachRate:8.5
SliderMultiplier:1.7
SliderTickRate:1

[Events]
//Background and Video events
0,0,"bg.jpg",0,0
Video,-500,"videoo.mp4"
//Break Periods
//Storyboard Layer 0 (Background)
//Storyboard Layer 1 (Fail)
//Storyboard Layer 2 (Pass)
//Storyboard Layer 3 (Foreground)
//Storyboard Layer 4 (Overlay)
//Storyboard Sound Samples

[TimingPoints]
63,316.622691292876,4,2,1,45,1,0
379,325.20325203252,4,2,1,45,1,0
704,340.909090909091,4,2,1,45,1,0
1044,320.855614973262,4,2,1,45,1,0
1366,333.333333333333,4,2,1,45,1,0
4699,352.941176470588,4,2,1,45,1,0
5051,401.33779264214,4,2,1,45,1,0
5452,375,4,2,1,45,1,0
6108,353.460972017673,4,2,1,45,1,0
6461,327.421555252387,4,2,1,45,1,0
6788,356.083086053412,4,2,1,45,1,0
7144,353.982300884956,4,2,1,45,1,0
7497,357.142857142857,4,2,1,45,1,0
8211,300,4,2,1,70,1,0
8211,-105.263157894737,4,2,1,70,0,0
17811,-133.333333333333,4,2,1,60,0,0
21111,285.714285714286,4,2,1,60,1,0
21111,-133.333333333333,4,2,1,60,0,0
21301,300,4,2,1,60,1,0
21301,-133.333333333333,4,2,1,60,0,0
21396,312.5,4,2,1,60,1,0
21396,-133.333333333333,4,2,1,60,0,0
21708,286.396181384249,4,2,1,60,1,0
21708,-133.333333333333,4,2,1,60,0,0
22280,310.478654592497,4,2,1,60,1,0
22280,-133.333333333333,4,2,1,60,0,0
22590,305.343511450382,4,2,1,60,1,0
22590,-133.333333333333,4,2,1,60,0,0
22895,-133.333333333333,4,2,1,60,0,0
23200,313.31592689295,4,2,1,60,1,0
23200,-133.333333333333,4,2,1,60,0,0
23513,310.077519379845,4,2,1,60,1,0
23513,-133.333333333333,4,2,1,60,0,0
23823,305.343511450382,4,2,1,60,1,0
23823,-133.333333333333,4,2,1,60,0,0
24128,287.081339712919,4,2,1,60,1,0
24128,-133.333333333333,4,2,1,60,0,0
24702,311.688311688312,4,2,1,60,1,0
24702,-133.333333333333,4,2,1,60,0,0
25013,300,4,2,1,60,1,0
25013,-133.333333333333,4,2,1,60,0,0
25913,317.460317460317,4,2,1,60,1,0
25913,-133.333333333333,4,2,1,60,0,0
26230,283.018867924528,4,2,1,60,1,0
26230,-133.333333333333,4,2,1,60,0,0
26513,300,4,2,1,60,1,0
26513,-133.333333333333,4,2,1,60,0,0
27413,300,4,2,1,60,1,0
27413,-133.333333333333,4,2,1,60,0,0
37013,-95.2380952380952,4,2,1,60,0,0
39413,-133.333333333333,4,2,1,60,0,0
46275,319.148936170213,4,2,1,60,1,0
46275,-133.333333333333,4,2,1,60,0,0
46594,-133.333333333333,4,2,1,60,0,0
46913,300,4,2,1,60,1,0
46913,-133.333333333333,4,2,1,60,0,0
47813,300,4,2,1,60,1,0
47813,-133.333333333333,4,2,1,60,0,0
49013,-285.714285714284,4,2,1,60,0,0
50213,-95.2380952380952,4,2,1,80,0,1
69413,306.513409961686,4,2,1,65,1,0
69413,-117.647058823529,4,2,1,65,0,0
70332,300,4,2,1,65,1,0
70332,-117.647058823529,4,2,1,65,0,0
70632,285.714285714286,4,2,1,65,1,0
70632,-117.647058823529,4,2,1,65,0,0
70917,293.7576499388,4,2,1,65,1,0
70917,-117.647058823529,4,2,1,65,0,0
71504,300,4,2,1,65,1,0
71504,-117.647058823529,4,2,1,65,0,0
72713,332.409972299169,4,2,1,65,1,0
72713,-117.647058823529,4,2,1,65,0,0
73045,271.493212669683,4,2,1,65,1,0
73045,-117.647058823529,4,2,1,65,0,0
73316,293.757649938801,4,2,1,65,1,0
73316,-117.647058823529,4,2,1,65,0,0
73903,279.06976744186,4,2,1,65,1,0
73903,-117.647058823529,4,2,1,65,0,0
74182,310.077519379845,4,2,1,65,1,0
74182,-117.647058823529,4,2,1,65,0,0
75112,300,4,2,1,65,1,0
75112,-117.647058823529,4,2,1,65,0,0
75712,315.789473684211,4,2,1,65,1,0
75712,-117.647058823529,4,2,1,65,0,0
76027,293.398533007335,4,2,1,65,1,0
76027,-117.647058823529,4,2,1,65,0,0
76613,300,4,2,1,65,1,0
76613,-117.647058823529,4,2,1,65,0,0
79013,-105.263157894737,4,2,1,70,0,0
88313,-166.666666666667,4,2,1,60,0,0

[Colours]
Combo1 : 170,170,255
Combo2 : 255,213,170
Combo3 : 255,170,170
Combo4 : 170,255,170

[HitObjects]
79,202,8211,6,0,P|70:146|57:75,1,107.666663791657,6|0,1:2|0:2,0:0:0:0:
143,39,8511,2,0,P|191:61|242:49,1,107.666663791657,8|0,0:2|0:2,0:0:0:0:
343,3,8811,2,0,P|333:55|325:109,1,107.666663791657,2|0,1:2|0:2,0:0:0:0:
246,130,9111,1,8,0:2:0:0:
298,237,9311,1,2,0:2:0:0:
315,246,9411,6,0,P|369:231|427:230,1,107.666663791657,0|2,1:2|0:2,0:0:0:0:
337,331,9711,2,0,P|281:333|236:288,1,107.666663791657,10|2,0:2|1:2,0:0:0:0:
179,360,10011,2,0,P|149:312|165:251,1,107.666663791657,2|2,0:2|1:2,0:0:0:0:
232,206,10311,1,10,0:2:0:0:
232,206,10611,6,0,P|183:193|111:176,1,107.666663791657,2|0,1:2|0:2,0:0:0:0:
11,59,10911,2,0,P|77:104|169:67,1,161.499995687485,10|0,0:2|1:2,0:0:0:0:
289,4,11411,1,2,0:2:0:0:
297,22,11511,2,0,P|284:74|270:126,1,107.666663791657,10|2,0:2|0:2,0:0:0:0:
358,154,11811,6,0,P|371:101|384:49,1,107.666663791657,0|0,1:2|0:2,0:0:0:0:
295,214,12111,1,14,0:2:0:0:
295,214,12411,2,0,P|346:244|411:230,1,107.666663791657,2|0,0:2|1:2,0:0:0:0:
260,313,12711,2,0,P|215:341|162:338,1,107.666663791657,10|0,0:2|0:2,0:0:0:0:
180,146,13011,2,0,P|188:194|195:255,1,107.666663791657,6|0,1:2|0:2,0:0:0:0:
51,124,13311,2,0,P|42:189|19:305,1,161.499995687485,14|0,0:2|1:2,0:0:0:0:
77,12,13811,1,0,0:2:0:0:
88,27,13911,2,0,P|135:58|201:53,1,107.666663791657,8|2,0:2|0:2,0:0:0:0:
317,37,14211,6,0,B|286:82|286:82|286:160,1,107.666663791657,0|2,1:2|0:2,0:0:0:0:
372,163,14511,2,0,B|403:118|403:118|403:40,1,107.666663791657,10|2,0:2|1:2,0:0:0:0:
331,238,14811,2,0,P|388:246|442:208,1,107.666663791657,2|2,0:2|1:2,0:0:0:0:
263,160,15111,2,0,P|253:210|239:275,1,107.666663791657,10|0,0:2|0:0,0:0:0:0:
155,359,15411,6,0,P|145:308|131:244,1,107.666663791657,2|0,1:2|0:2,0:0:0:0:
206,95,15711,2,0,B|147:98|147:98|110:131|110:131|41:132,1,161.499995687485,14|0,0:2|1:2,0:0:0:0:
223,13,16211,1,2,0:2:0:0:
240,8,16311,2,0,L|363:20,1,107.666663791657,10|2,0:2|0:2,0:0:0:0:
435,64,16611,6,0,L|423:187,1,107.666663791657,0|0,1:0|0:2,0:0:0:0:
379,239,16911,2,0,P|350:198|351:139,1,107.666663791657,14|0,0:2|0:2,0:0:0:0:
498,141,17211,2,0,P|498:194|468:237,1,107.666663791657,2|8,1:2|0:2,0:0:0:0:
416,326,17511,1,8,0:2:0:0:
416,326,17811,6,0,P|376:315|318:305,1,85.0000032424928,4|0,1:2|0:2,0:0:0:0:
225,384,18111,1,10,0:2:0:0:
225,384,18411,2,0,P|234:341|240:287,1,85.0000032424928,2|0,1:2|0:2,0:0:0:0:
290,228,18711,1,10,0:2:0:0:
131,121,18911,1,2,0:2:0:0:
141,135,19011,6,0,P|150:177|156:232,1,85.0000032424928,0|2,1:0|0:2,0:0:0:0:
249,111,19311,1,10,0:2:0:0:
249,111,19611,2,0,P|292:112|337:84,1,85.0000032424928,2|0,0:2|1:2,0:0:0:0:
346,188,19911,2,0,P|383:167|408:120,1,85.0000032424928,10|0,0:2|0:2,0:0:0:0:
400,29,20211,5,0,1:2:0:0:
400,29,20511,2,0,P|357:24|294:12,1,85.0000032424928,10|0,0:2|0:2,0:0:0:0:
405,132,20811,2,0,P|447:127|489:119,1,85.0000032424928,2|0,1:2|0:2,0:0:0:0:
475,38,21111,1,10,0:2:0:0:
398,118,21301,1,2,0:2:0:0:
405,132,21396,6,0,P|400:174|392:216,1,85.0000032424928,0|2,1:0|0:2,0:0:0:0:
437,309,21708,1,10,0:2:0:0:
345,279,21898,1,0,1:2:0:0:
329,269,21994,2,0,P|310:225|328:169,1,85.0000032424928,2|0,0:2|1:2,0:0:0:0:
248,66,22280,2,0,P|249:107|228:144,1,85.0000032424928,10|0,0:2|0:2,0:0:0:0:
159,233,22590,5,2,1:2:0:0:
159,233,22895,2,0,L|145:167,2,42.5000016212464,10|2|2,0:2|0:0|0:2,0:0:0:0:
219,323,23200,1,0,1:2:0:0:
219,323,23513,2,0,L|314:305,1,85.0000032424928,10|0,0:2|0:2,0:0:0:0:
328,197,23823,6,0,L|419:228,1,85.0000032424928,2|0,1:2|0:2,0:0:0:0:
446,111,24128,2,0,L|509:184,1,85.0000032424928,10|2,0:2|1:2,0:0:0:0:
475,277,24415,1,0,0:2:0:0:
408,224,24606,1,2,1:2:0:0:
392,215,24702,2,0,P|401:173|433:135,1,85.0000032424928,8|0,0:2|0:2,3:0:0:0:
512,56,25013,5,2,1:2:0:0:
512,56,25313,2,0,L|472:14,2,42.5000016212464,10|2|2,0:2|0:0|0:2,0:0:0:0:
492,176,25613,1,0,1:2:0:0:
492,176,25913,2,0,P|451:171|413:130,1,85.0000032424928,10|0,0:2|1:2,0:0:0:0:
379,235,26230,6,0,P|345:210|333:155,1,85.0000032424928,2|0,1:2|0:2,0:0:0:0:
257,231,26513,2,0,P|240:192|257:139,1,85.0000032424928,10|0,0:2|1:2,0:0:0:0:
311,85,26813,1,0,0:2:0:0:
203,18,27038,1,0,1:2:0:0:
203,18,27113,2,0,P|198:57|183:115,1,85.0000032424928,8|0,0:2|0:0,0:0:0:0:
145,206,27413,6,0,B|72:206|91:243|8:248,1,127.500004863739,2|8,1:2|0:2,0:0:0:0:
134,289,27913,1,2,0:2:0:0:
148,297,28013,2,0,P|197:293|234:259,1,85.0000032424928,0|0,1:0|0:2,0:0:0:0:
227,170,28313,1,10,0:2:0:0:
320,136,28513,1,2,0:2:0:0:
311,151,28613,6,0,P|299:192|289:248,1,85.0000032424928,0|2,1:2|0:2,0:0:0:0:
279,328,28913,2,0,P|328:324|365:290,1,85.0000032424928,10|0,0:2|1:2,0:0:0:0:
391,384,29213,2,0,P|431:356|446:308,1,85.0000032424928,2|0,0:2|1:2,0:0:0:0:
409,246,29513,1,10,0:2:0:0:
512,162,29713,1,2,0:2:0:0:
500,167,29813,6,0,P|461:159|403:142,1,85.0000032424928,2|2,1:2|0:2,0:0:0:0:
322,72,30113,2,0,P|360:64|419:47,1,85.0000032424928,8|2,0:2|0:2,0:0:0:0:
331,233,30413,2,0,P|322:191|310:150,1,85.0000032424928,2|0,1:2|0:2,0:0:0:0:
245,92,30713,2,0,P|206:84|148:67,1,85.0000032424928,10|2,0:2|0:2,0:0:0:0:
92,114,31013,5,2,1:2:0:0:
39,50,31213,1,2,0:2:0:0:
27,57,31313,2,0,P|0:94|11:146,1,85.0000032424928,10|2,0:2|1:2,0:0:0:0:
94,203,31613,1,2,0:2:0:0:
216,133,31813,1,0,1:2:0:0:
206,144,31913,2,0,P|197:184|190:234,1,85.0000032424928,10|2,0:2|0:2,0:0:0:0:
230,304,32213,6,0,P|272:310|313:319,1,85.0000032424928,2|0,1:2|0:2,0:0:0:0:
388,262,32513,2,0,P|397:222|404:172,1,85.0000032424928,10|2,0:2|0:2,0:0:0:0:
325,82,32813,1,0,1:2:0:0:
325,82,33113,2,0,P|367:101|416:86,1,85.0000032424928,10|0,0:2|0:2,0:0:0:0:
417,11,33413,6,0,P|375:-8|326:7,1,85.0000032424928,2|0,1:2|0:2,0:0:0:0:
236,36,33713,2,0,P|244:87|242:147,1,85.0000032424928,8|0,0:2|1:2,0:0:0:0:
210,215,34013,1,2,0:2:0:0:
299,262,34213,1,0,1:2:0:0:
309,248,34313,2,0,P|317:197|315:137,1,85.0000032424928,8|2,0:2|0:2,0:0:0:0:
244,120,34613,6,0,P|202:127|138:138,1,85.0000032424928,0|0,1:2|0:2,0:0:0:0:
37,205,34913,2,0,P|78:211|120:219,1,85.0000032424928,10|2,0:2|0:2,0:0:0:0:
181,266,35213,2,0,P|179:308|172:350,1,85.0000032424928,2|0,1:2|0:2,0:0:0:0:
245,384,35513,2,0,P|286:377|357:356,1,106.250004053116,10|2,0:2|0:2,0:0:0:0:
348,359,35813,6,0,L|365:262,1,85.0000032424928,0|2,1:2|0:2,0:0:0:0:
276,160,36113,2,0,L|293:257,1,85.0000032424928,10|0,0:2|0:2,0:0:0:0:
389,284,36413,2,0,P|434:290|483:262,1,85.0000032424928,2|0,1:2|0:2,0:0:0:0:
453,183,36713,2,0,P|411:176|372:192,1,85.0000032424928,10|0,0:2|0:2,0:0:0:0:
285,334,37013,6,0,B|207:320|220:370|127:354,1,148.74999546051,6|0,1:2|0:0,0:0:0:0:
140,355,37313,1,8,0:2:0:0:
42,199,37613,2,0,P|30:272|12:366,1,148.74999546051,2|0,1:2|0:0,0:0:0:0:
16,345,37913,1,8,0:2:0:0:
127,195,38213,6,0,B|217:204|217:204|233:237|273:249,1,148.74999546051,6|0,1:2|0:0,0:0:0:0:
258,243,38513,1,8,0:2:0:0:
354,221,38813,2,0,P|360:157|336:103,1,118.999996368408,2|8,1:2|1:3,0:0:0:0:
349,27,39113,1,8,1:3:0:0:
349,27,39413,6,0,P|287:41|201:53,1,127.500004863739,6|2,1:2|0:0,0:0:0:0:
122,24,40013,2,0,L|141:114,1,85.0000032424928,2|0,0:0|0:0,0:0:0:0:
196,236,40313,2,0,L|215:146,1,85.0000032424928,0|0,1:2|0:0,0:0:0:0:
139,107,40613,5,8,0:2:0:0:
139,107,40913,2,0,L|108:238,1,127.500004863739,2|0,1:2|0:0,0:0:0:0:
181,355,41513,2,0,B|241:368|241:368|318:333,1,127.500004863739,2|0,1:2|1:2,0:0:0:0:
290,161,42113,2,0,B|230:148|230:148|153:183,1,127.500004863739,2|0,1:2|0:0,0:0:0:0:
176,272,42713,6,0,B|236:244|236:244|296:257,1,127.500004863739,2|12,1:2|0:2,0:0:0:0:
412,384,43313,2,0,P|420:313|431:240,1,127.500004863739,2|0,1:2|0:0,0:0:0:0:
341,54,43913,2,0,P|345:95|352:165,1,85.0000032424928,0|0,1:2|0:0,0:0:0:0:
354,175,44213,6,0,P|421:187|486:135,1,127.500004863739,6|2,1:2|1:2,0:0:0:0:
354,175,44813,1,2,0:0:0:0:
354,175,45113,2,0,P|293:189|217:215,1,127.500004863739,2|8,1:2|0:2,0:0:0:0:
219,20,45713,2,0,P|279:39|341:54,1,127.500004863739,2|0,1:2|0:0,0:0:0:0:
166,115,46275,1,2,1:2:0:0:
166,115,46594,6,0,P|154:172|140:252,1,127.500004863739,2|12,1:2|0:2,0:0:0:0:
124,22,47213,1,12,0:0:0:0:
0,0,47513,2,0,P|9:47|21:94,1,85.0000032424928,2|0,1:2|0:0,0:0:0:0:
71,151,47813,6,0,P|57:210|35:295,1,127.500004863739,10|0,0:2|0:0,0:0:0:0:
115,351,48313,1,0,1:2:0:0:
120,362,48413,2,0,P|175:381|240:347,1,127.500004863739,8|0,0:2|1:2,0:0:0:0:
257,92,49013,2,0,P|249:140|233:221,1,118.999996368408,0|2,0:0|0:2,0:0:0:0:
235,209,50213,6,0,P|301:197|360:188,1,118.999996368408,6|0,1:2|0:2,0:0:0:0:
463,166,50513,2,0,P|419:114|382:68,1,118.999996368408,10|0,0:2|0:2,0:0:0:0:
325,4,50813,2,0,P|302:67|280:122,1,118.999996368408,2|0,1:2|0:2,0:0:0:0:
235,209,51113,1,8,0:2:0:0:
220,218,51313,6,0,P|154:206|95:197,1,118.999996368408,2|0,1:2|0:0,0:0:0:0:
105,104,51613,1,2,1:2:0:0:
28,143,51713,2,0,P|12:206|44:272,1,118.999996368408,10|0,0:2|0:2,0:0:0:0:
99,340,52013,2,0,B|204:307|174:385|285:360,1,178.499994552612,2|10,1:2|0:2,0:0:0:0:
269,363,52613,6,0,P|331:356|401:355,1,118.999996368408,2|0,1:2|0:2,0:0:0:0:
464,298,52913,2,0,P|457:236|456:166,1,118.999996368408,10|0,0:2|0:2,0:0:0:0:
340,164,53213,2,0,P|299:207|254:246,1,118.999996368408,2|0,1:2|0:2,0:0:0:0:
251,356,53513,1,8,0:2:0:0:
269,363,53813,6,0,P|272:303|249:237,1,118.999996368408,2|0,1:2|0:2,0:0:0:0:
177,212,54113,2,0,P|120:229|61:226,1,118.999996368408,10|0,0:2|1:2,0:0:0:0:
44,105,54413,2,0,P|100:87|159:90,1,118.999996368408,2|0,0:2|1:2,0:0:0:0:
263,160,54713,1,10,0:2:0:0:
244,170,55013,6,0,P|239:113|271:57,1,118.999996368408,6|0,1:2|0:2,0:0:0:0:
360,49,55313,2,0,B|415:76|415:76|491:72,1,118.999996368408,10|0,0:2|0:2,0:0:0:0:
488,172,55613,2,0,B|390:173|390:173|313:132,1,178.499994552612,2|8,1:2|0:2,0:0:0:0:
318,135,56213,6,0,B|287:225|357:225|324:325,1,178.499994552612,2|8,1:2|0:2,0:0:0:0:
210,199,56713,1,0,1:2:0:0:
149,257,56813,2,0,P|202:281|259:268,1,118.999996368408,2|0,0:2|1:0,0:0:0:0:
272,140,57113,2,0,P|218:115|162:129,1,118.999996368408,8|0,0:2|0:2,0:0:0:0:
136,42,57413,6,0,P|189:17|245:31,1,118.999996368408,2|0,1:2|0:2,0:0:0:0:
366,0,57713,2,0,P|354:59|346:118,1,118.999996368408,10|0,0:2|0:2,0:0:0:0:
470,253,58013,2,0,P|457:194|449:135,1,118.999996368408,2|0,1:2|0:2,0:0:0:0:
341,200,58313,2,0,B|294:200|273:158|273:158|239:124|187:138,1,178.499994552612,10|0,0:2|1:2,0:0:0:0:
159,150,58913,6,0,P|170:207|179:274,1,118.999996368408,10|0,0:2|0:2,0:0:0:0:
77,376,59213,2,0,P|85:317|96:258,1,118.999996368408,2|8,1:2|0:2,0:0:0:0:
266,292,59513,2,0,P|330:305|394:262,1,118.999996368408,8|0,0:2|1:2,0:0:0:0:
351,95,59813,6,0,P|338:149|316:215,1,118.999996368408,6|0,1:2|1:2,0:0:0:0:
261,311,60113,2,0,P|314:295|382:281,1,118.999996368408,10|0,0:2|0:2,0:0:0:0:
498,256,60413,2,0,P|457:217|411:165,1,118.999996368408,2|0,1:2|0:2,0:0:0:0:
488,129,60713,1,8,0:2:0:0:
378,17,60913,1,2,0:2:0:0:
351,95,61013,6,0,P|293:124|220:116,1,118.999996368408,2|2,1:2|0:2,0:0:0:0:
134,118,61313,2,0,P|144:52|150:-9,1,118.999996368408,10|0,0:2|0:2,0:0:0:0:
23,90,61613,2,0,P|33:156|39:217,1,118.999996368408,2|0,1:2|0:2,0:0:0:0:
94,297,61913,1,10,0:2:0:0:
105,312,62213,6,0,P|169:307|221:253,1,118.999996368408,2|0,1:2|0:2,0:0:0:0:
268,353,62513,2,0,P|295:295|274:223,1,118.999996368408,10|0,0:2|0:2,0:0:0:0:
384,220,62813,2,0,P|347:167|274:149,1,118.999996368408,2|0,1:2|0:2,0:0:0:0:
197,180,63113,1,8,0:2:0:0:
212,168,63413,6,0,P|201:105|186:42,1,118.999996368408,2|0,1:2|0:2,0:0:0:0:
297,148,63713,2,0,P|307:85|323:22,1,118.999996368408,10|0,0:2|1:2,0:0:0:0:
98,131,64013,2,0,P|111:188|121:247,1,118.999996368408,0|0,0:2|1:2,0:0:0:0:
252,350,64313,2,0,P|261:291|275:233,1,118.999996368408,10|0,0:2|0:2,0:0:0:0:
445,123,64613,6,0,P|380:175|280:123,1,178.499994552612,6|8,1:2|0:2,0:0:0:0:
121,105,65113,1,0,0:2:0:0:
39,76,65213,2,0,P|104:24|204:76,1,178.499994552612,2|8,1:2|0:2,0:0:0:0:
120,235,65713,1,0,0:2:0:0:
188,307,65813,2,0,P|199:218|217:131,1,178.499994552612,2|8,1:2|0:2,0:0:0:0:
405,24,66313,1,0,0:2:0:0:
432,106,66413,2,0,B|329:120|367:45|240:65,1,178.499994552612,2|8,1:2|0:2,0:0:0:0:
230,80,67013,6,0,P|242:133|250:202,1,118.999996368408,2|0,1:2|0:2,0:0:0:0:
308,263,67313,2,0,P|367:270|426:283,1,118.999996368408,8|0,0:2|0:2,0:0:0:0:
414,198,67613,1,0,1:2:0:0:
486,339,67813,1,0,0:2:0:0:
414,367,67913,2,0,P|355:354|296:347,1,118.999996368408,8|0,0:2|0:2,0:0:0:0:
226,289,68213,6,0,P|219:229|206:171,1,118.999996368408,2|2,1:2|0:2,0:0:0:0:
262,93,68513,2,0,P|321:86|379:73,1,118.999996368408,8|2,0:0|0:2,0:0:0:0:
414,198,68813,2,0,P|355:185|296:178,1,118.999996368408,0|2,1:0|1:2,0:0:0:0:
206,171,69113,2,0,P|185:230|219:292,1,118.999996368408,8|2,0:0|0:2,0:0:0:0:
94,318,69413,6,0,P|101:232|106:147,1,144.500002756119,6|2,1:2|0:0,0:0:0:0:
29,23,70026,1,2,0:0:0:0:
29,23,70332,2,0,P|70:54|138:50,1,96.3333351707459,2|0,1:2|0:0,0:0:0:0:
105,173,70632,6,0,P|155:165|201:115,1,96.3333351707459,8|0,0:2|0:0,0:0:0:0:
208,37,70917,2,0,B|268:36|268:36|301:62|301:62|371:62,1,144.500002756119,2|0,1:2|0:0,0:0:0:0:
343,62,71504,2,0,P|333:107|323:167,1,96.3333351707459,2|0,1:2|0:0,0:0:0:0:
214,117,71804,2,0,P|228:160|249:217,1,96.3333351707459,4|0,1:2|0:0,0:0:0:0:
332,256,72104,2,0,P|405:240|479:229,1,144.500002756119,2|0,0:0|0:0,0:0:0:0:
474,229,72713,6,0,P|425:222|386:177,1,96.3333351707459,0|0,1:2|0:0,0:0:0:0:
430,110,73045,2,0,P|477:116|512:149,1,96.3333351707459,8|0,0:2|0:0,0:0:0:0:
512,305,73316,1,2,1:2:0:0:
512,305,73609,2,0,P|466:309|412:321,1,96.3333351707459
332,256,73903,2,0,P|286:251|232:240,1,96.3333351707459,0|0,1:2|0:0,0:0:0:0:
147,261,74182,6,0,P|129:314|159:363,1,96.3333351707459,6|0,1:2|0:0,0:0:0:0:
236,241,74492,2,0,P|252:188|224:139,1,96.3333351707459,2|0,0:0|0:0,0:0:0:0:
160,74,74802,1,2,0:0:0:0:
160,74,75112,2,0,P|209:67|272:57,1,96.3333351707459,0|0,1:2|1:2,0:0:0:0:
330,0,75412,2,0,P|377:6|425:14,1,96.3333351707459,10|0,0:2|0:0,0:0:0:0:
494,64,75712,2,0,B|497:140|497:140|452:214,1,144.500002756119,0|8,1:2|0:2,0:0:0:0:
374,209,76222,1,0,0:0:0:0:
369,190,76320,2,0,P|366:141|360:94,1,96.3333351707459,2|0,0:0|0:0,0:0:0:0:
269,189,76613,6,0,P|285:233|277:284,1,96.3333351707459,2|0,1:2|0:2,0:0:0:0:
224,355,76913,2,0,P|180:371|129:363,1,96.3333351707459,10|0,0:2|0:2,0:0:0:0:
67,306,77213,2,0,P|51:262|59:211,1,96.3333351707459,2|2,1:2|0:2,0:0:0:0:
159,141,77513,2,0,L|172:301,1,144.500002756119,10|10,0:2|0:2,0:0:0:0:
495,39,79013,6,0,P|442:32|380:20,1,107.666663791657,6|0,1:2|0:2,0:0:0:0:
295,37,79313,2,0,P|285:96|312:163,1,107.666663791657,8|0,0:2|0:2,0:0:0:0:
317,256,79613,2,0,P|264:249|202:237,1,107.666663791657,2|0,1:2|0:2,0:0:0:0:
197,145,79913,1,8,0:2:0:0:
90,332,80113,6,0,L|110:213,1,107.666663791657,2|0,1:2|0:0,0:0:0:0:
0,136,80413,1,2,1:2:0:0:
10,144,80513,2,0,P|67:144|106:106,1,107.666663791657,10|2,0:2|0:2,0:0:0:0:
167,172,80813,2,0,P|195:122|182:69,1,107.666663791657,2|2,1:2|1:2,0:0:0:0:
106,10,81113,1,10,0:2:0:0:
106,10,81413,6,0,L|226:-4,1,107.666663791657,0|0,1:2|0:2,0:0:0:0:
318,128,81713,2,0,B|230:115|255:177|145:171,1,161.499995687485,10|0,0:2|1:2,0:0:0:0:
275,210,82213,1,2,0:2:0:0:
288,217,82313,2,0,P|344:217|398:183,1,107.666663791657,10|2,0:2|1:2,0:0:0:0:
401,105,82613,6,0,P|388:49|378:-13,1,107.666663791657,0|0,0:0|1:2,0:0:0:0:
469,158,82913,1,14,0:2:0:0:
469,158,83213,2,0,P|478:211|490:263,1,107.666663791657,2|0,1:2|1:2,0:0:0:0:
457,342,83513,2,0,P|403:351|351:363,1,107.666663791657,10|0,0:2|0:2,0:0:0:0:
238,220,83813,6,0,P|250:272|260:326,1,107.666663791657,6|0,1:2|0:2,0:0:0:0:
107,146,84113,2,0,P|91:217|76:328,1,161.499995687485,14|0,0:2|1:2,0:0:0:0:
171,66,84613,1,2,0:2:0:0:
175,84,84713,2,0,P|215:125|277:127,1,107.666663791657,10|0,0:2|1:2,0:0:0:0:
396,28,85013,6,0,B|364:69|364:69|358:144,1,107.666663791657,0|2,0:0|1:2,0:0:0:0:
446,155,85313,2,0,B|478:114|478:114|484:39,1,107.666663791657,10|2,0:2|0:2,0:0:0:0:
322,200,85613,2,0,P|378:200|428:247,1,107.666663791657,2|2,1:2|0:2,0:0:0:0:
392,325,85913,2,0,P|332:327|281:281,1,107.666663791657,10|0,0:2|0:0,0:0:0:0:
211,244,86213,6,0,P|195:296|219:360,1,107.666663791657,0|0,1:2|0:2,0:0:0:0:
322,200,86513,2,0,P|338:148|314:84,1,107.666663791657,14|0,0:2|0:2,0:0:0:0:
245,53,86813,2,0,P|255:26|264:-2,2,53.8333318958283,0|0|10,1:2|1:2|0:2,0:0:0:0:
256,148,87113,1,2,1:2:0:0:
165,62,87313,1,10,0:2:0:0:
162,50,87413,6,0,P|171:24|179:0,2,53.8333318958283,8|8|8,0:2|0:2|1:3,0:0:0:0:
77,5,87713,2,0,P|69:30|60:56,1,53.8333318958283,10|8,1:3|1:3,0:0:0:0:
21,141,87913,1,8,1:3:0:0:
61,216,88013,2,0,P|116:196|183:191,1,107.666663791657,10|0,1:3|0:0,0:0:0:0:
294,299,88313,1,12,0:2:0:0:
