osu file format v14

[General]
AudioFilename: audio.mp3
AudioLeadIn: 0
PreviewTime: 49538
Countdown: 0
SampleSet: Soft
StackLeniency: 0.7
Mode: 0
LetterboxInBreaks: 0
WidescreenStoryboard: 0

[Editor]
DistanceSpacing: 1.3
BeatDivisor: 3
GridSize: 4
TimelineZoom: 2.7

[Metadata]
Title:Black Catcher (TV Size)
TitleUnicode:Black Catcher (TV Size)
Artist:Vickeblanka
ArtistUnicode:ビッケブランカ
Creator:HakuYT
Version:Black Divider
Source:ブラッククローバー
Tags:black asta demon clover anime japanese opening 10 yami yuno licht lumiere fuju
BeatmapID:2279950
BeatmapSetID:1089606

[Difficulty]
HPDrainRate:6
CircleSize:3.8
OverallDifficulty:8.5
ApproachRate:9
SliderMultiplier:1.8
SliderTickRate:1

[Events]
//Background and Video events
Video,-500,"videoo.mp4"
0,0,"bg.jpg",0,0
//Break Periods
//Storyboard Layer 0 (Background)
//Storyboard Layer 1 (Fail)
//Storyboard Layer 2 (Pass)
//Storyboard Layer 3 (Foreground)
//Storyboard Layer 4 (Overlay)
//Storyboard Sound Samples

[TimingPoints]
63,316.622691292876,4,2,1,45,1,0
63,-200,4,2,1,45,0,0
379,325.20325203252,4,2,1,45,1,0
379,-200,4,2,1,45,0,0
704,340.909090909091,4,2,1,45,1,0
704,-200,4,2,1,45,0,0
1044,320.855614973262,4,2,1,45,1,0
1044,-200,4,2,1,45,0,0
1366,333.333333333333,4,2,1,45,1,0
1366,-200,4,2,1,45,0,0
4699,352.941176470588,4,2,1,45,1,0
5051,401.33779264214,4,2,1,45,1,0
5452,375,4,2,1,45,1,0
5452,-200,4,2,1,45,0,0
6108,353.460972017673,4,2,1,45,1,0
6108,-200,4,2,1,45,0,0
6461,327.421555252387,4,2,1,45,1,0
6788,356.083086053412,4,2,1,45,1,0
7144,353.982300884956,4,2,1,45,1,0
7497,357.142857142857,4,2,1,45,1,0
7497,-200,4,2,1,45,0,0
8211,300,4,2,1,70,1,0
8211,-100,4,2,1,70,0,0
17811,-125,4,2,1,60,0,0
21111,285.714285714286,4,2,1,60,1,0
21111,-125,4,2,1,60,0,0
21301,300,4,2,1,60,1,0
21301,-125,4,2,1,60,0,0
21396,312.5,4,2,1,60,1,0
21396,-125,4,2,1,60,0,0
21708,286.396181384249,4,2,1,60,1,0
21708,-125,4,2,1,60,0,0
22280,310.478654592497,4,2,1,60,1,0
22280,-125,4,2,1,60,0,0
22590,305.343511450382,4,2,1,60,1,0
22590,-125,4,2,1,60,0,0
22895,-125,4,2,1,60,0,0
23200,313.31592689295,4,2,1,60,1,0
23200,-125,4,2,1,60,0,0
23513,310.077519379845,4,2,1,60,1,0
23513,-125,4,2,1,60,0,0
23823,305.343511450382,4,2,1,60,1,0
23823,-125,4,2,1,60,0,0
24128,287.081339712919,4,2,1,60,1,0
24128,-125,4,2,1,60,0,0
24702,311.688311688312,4,2,1,60,1,0
24702,-125,4,2,1,60,0,0
25013,300,4,2,1,60,1,0
25013,-125,4,2,1,60,0,0
25913,317.460317460317,4,2,1,60,1,0
25913,-125,4,2,1,60,0,0
26230,283.018867924528,4,2,1,60,1,0
26230,-125,4,2,1,60,0,0
26513,300,4,2,1,60,1,0
26513,-125,4,2,1,60,0,0
27413,300,4,2,1,60,1,0
27413,-125,4,2,1,60,0,0
37013,-100,4,2,1,60,0,0
46275,319.148936170213,4,2,1,60,1,0
46594,-133.333333333333,4,2,1,60,0,0
46913,300,4,2,1,60,1,0
46913,-133.333333333333,4,2,1,60,0,0
47813,300,4,2,1,60,1,0
50213,-90.9090909090909,4,2,1,80,0,1
69413,306.513409961686,4,2,1,65,1,0
69413,-100,4,2,1,65,0,0
70332,300,4,2,1,65,1,0
70632,285.714285714286,4,2,1,65,1,0
70917,293.7576499388,4,2,1,65,1,0
71504,300,4,2,1,65,1,0
72713,332.409972299169,4,2,1,65,1,0
73045,271.493212669683,4,2,1,65,1,0
73316,293.757649938801,4,2,1,65,1,0
73903,279.06976744186,4,2,1,65,1,0
74182,310.077519379845,4,2,1,65,1,0
75112,300,4,2,1,65,1,0
75712,315.789473684211,4,2,1,65,1,0
76027,293.398533007335,4,2,1,65,1,0
76613,300,4,2,1,65,1,0
79013,-100,4,2,1,70,0,0
88313,-500,4,2,1,60,0,0
89213,-500,4,2,1,5,0,0

[Colours]
Combo1 : 170,170,255
Combo2 : 255,213,170
Combo3 : 255,170,170
Combo4 : 170,255,170

[HitObjects]
72,53,63,6,0,L|90:159,1,90,0|0,0:2|0:2,0:2:0:0:
174,236,704,1,2,0:2:0:0:
245,159,1044,1,0,0:2:0:0:
361,155,1366,2,0,P|400:199|408:248,1,90,0|0,0:2|0:2,0:2:0:0:
351,350,2032,1,2,0:2:0:0:
307,233,2365,1,2,0:2:0:0:
218,307,2699,6,0,L|114:322,1,90,0|0,0:2|0:2,0:2:0:0:
20,240,3365,1,2,0:2:0:0:
80,158,3699,1,0,0:2:0:0:
31,50,4032,2,0,B|75:56|75:56|85:66|85:66|124:72,1,90,0|0,0:2|0:2,0:2:0:0:
249,96,4699,1,2,0:2:0:0:
145,239,5051,1,2,0:2:0:0:
312,305,5452,6,0,P|343:262|350:211,1,90,2|0,0:2|0:2,0:2:0:0:
285,111,6108,2,0,B|248:109|248:109|226:120|226:120|179:117,1,90,2|0,0:2|0:2,0:2:0:0:
113,165,6788,1,0,0:2:0:0:
99,60,7144,1,0,0:2:0:0:
21,153,7497,2,0,B|0:241|67:201|40:316,1,150,2|0,0:2|0:2,0:2:0:0:
127,349,8211,6,0,L|301:325,1,120,6|0,1:2|0:2,0:2:0:0:
396,238,8511,2,0,L|222:214,1,120,8|0,0:2|0:2,0:2:0:0:
190,165,8811,1,2,1:2:0:0:
332,68,9011,1,0,0:2:0:0:
322,51,9111,1,8,0:2:0:0:
155,84,9311,6,0,P|103:151|152:258,1,180,2|2,0:2|0:2,0:2:0:0:
217,291,9711,1,10,0:2:0:0:
402,178,9911,1,2,1:2:0:0:
411,196,10011,1,2,0:2:0:0:
333,342,10211,1,2,1:2:0:0:
337,324,10311,1,10,0:2:0:0:
221,150,10611,6,0,L|57:134,1,120,0|0,1:2|0:2,0:2:0:0:
0,284,10911,2,0,L|164:268,1,120,10|0,0:2|0:2,0:2:0:0:
223,246,11211,1,0,1:2:0:0:
20,135,11411,1,2,0:2:0:0:
24,119,11511,1,10,0:2:0:0:
213,29,11711,6,0,B|275:26|275:26|326:56|326:56|407:54,1,180,2|0,0:2|0:2,0:2:0:0:
473,157,12111,2,0,L|457:278,1,120,14|0,0:2|1:2,0:2:0:0:
352,351,12411,2,0,L|336:230,1,120,2|0,0:2|1:2,0:2:0:0:
226,186,12711,2,0,L|210:307,1,120,10|0,0:2|0:2,0:2:0:0:
124,350,13011,6,0,P|53:364|6:344,1,120,6|0,1:2|0:2,0:2:0:0:
112,183,13311,2,0,P|183:169|230:189,1,120,12|0,0:2|0:2,0:2:0:0:
303,243,13611,1,0,1:2:0:0:
253,54,13811,1,0,0:2:0:0:
247,68,13911,1,8,0:2:0:0:
479,61,14111,6,0,P|409:53|374:159,1,180,2|2,0:2|0:2,0:2:0:0:
438,205,14511,1,10,0:2:0:0:
330,344,14711,1,2,1:2:0:0:
310,337,14811,1,2,0:2:0:0:
160,212,15011,1,2,1:2:0:0:
145,218,15111,1,10,0:2:0:0:
18,361,15411,6,0,B|33:314|33:314|17:189,1,120,0|0,1:2|0:2,0:2:0:0:
76,115,15711,2,0,P|143:90|233:109,1,120,14|0,0:2|0:2,0:2:0:0:
287,120,16011,1,0,1:2:0:0:
463,47,16211,1,2,0:2:0:0:
457,63,16311,1,10,0:2:0:0:
457,255,16511,6,0,B|397:220|397:220|329:216|296:293,1,180,2|0,0:2|0:2,0:2:0:0:
225,366,16911,2,0,P|194:292|201:230,1,120,14|0,0:2|0:2,0:2:0:0:
76,125,17211,2,0,P|73:184|46:237,1,120,2|8,1:2|0:2,0:2:0:0:
79,333,17511,1,8,0:2:0:0:
213,132,17711,1,0,0:2:0:0:
225,143,17811,6,0,L|358:123,1,96,4|0,1:2|0:2,0:2:0:0:
378,66,18111,2,0,P|405:131|391:178,1,96,10|0,0:2|0:2,0:2:0:0:
328,225,18411,2,0,P|301:290|315:337,1,96,2|0,1:2|0:2,0:2:0:0:
384,364,18711,1,10,0:2:0:0:
218,333,18911,6,0,L|105:349,1,96,2|0,0:2|0:2,0:2:0:0:
127,230,19211,1,2,0:2:0:0:
133,217,19311,2,0,L|146:115,1,96,10|0,0:2|1:2,0:2:0:0:
235,60,19611,2,0,L|248:162,1,96,2|0,0:2|1:2,0:2:0:0:
337,242,19911,2,0,L|350:140,1,96,10|0,0:2|0:2,0:2:0:0:
509,73,20211,6,0,P|466:90|393:87,1,96,0|0,1:2|0:2,0:2:0:0:
327,41,20511,2,0,P|279:42|234:60,1,96,10|0,0:2|0:2,0:2:0:0:
167,136,20811,2,0,L|153:243,1,96,2|0,1:2|0:2,0:2:0:0:
144,328,21111,1,10,0:2:0:0:
280,271,21301,6,0,L|412:261,1,96,2|0,0:2|0:2,0:2:0:0:
478,253,21604,1,2,0:2:0:0:
464,247,21708,2,0,P|452:194|451:111,1,96,10|0,0:2|1:2,0:2:0:0:
356,52,21994,2,0,P|351:99|340:146,1,96,2|0,0:2|1:2,0:2:0:0:
221,176,22280,2,0,L|84:153,1,96,10|0,0:2|0:2,0:2:0:0:
43,117,22590,6,0,B|31:166|31:166|61:241,1,96,2|0,1:2|0:2,0:2:0:0:
139,332,22895,2,0,B|151:283|151:283|121:208,1,96,10|0,0:2|0:2,0:2:0:0:
40,289,23200,1,0,1:2:0:0:
223,356,23513,6,0,P|273:340|314:300,1,96,10|0,0:2|0:2,0:2:0:0:
373,172,23823,2,0,L|385:271,1,96,2|0,1:2|0:2,0:2:0:0:
479,348,24128,1,10,0:2:0:0:
495,204,24319,1,2,1:2:0:0:
491,187,24415,1,0,0:2:0:0:
396,72,24606,1,2,1:2:0:0:
387,84,24702,2,0,L|269:75,1,96,8|0,0:2|0:2,0:2:0:0:
206,21,25013,6,0,P|203:99|224:141,1,96,2|0,1:2|0:2,0:2:0:0:
92,218,25313,2,0,P|102:171|94:124,1,96,10|0,0:2|0:2,0:2:0:0:
13,55,25613,1,0,1:2:0:0:
1,255,25913,6,0,L|108:244,1,96,10|0,0:2|1:2,0:2:0:0:
192,182,26230,2,0,L|299:193,1,96,2|0,1:2|0:2,0:2:0:0:
393,295,26513,2,0,P|375:234|383:183,1,96,10|0,0:2|1:2,0:2:0:0:
434,115,26813,1,0,0:2:0:0:
484,248,27038,1,0,1:2:0:0:
484,248,27113,1,8,0:2:0:0:
307,321,27413,6,0,B|249:315|249:315|222:339|222:339|144:334,1,144,2|8,1:2|0:2,0:2:0:0:
31,233,27913,2,0,B|89:227|89:227|116:251|116:251|194:246,1,144,2|0,0:2|0:2,0:2:0:0:
283,178,28313,1,10,0:2:0:0:
158,70,28513,1,2,0:2:0:0:
156,90,28613,5,0,1:2:0:0:
302,43,28813,1,2,0:2:0:0:
308,56,28913,2,0,L|426:49,1,96,10|0,0:2|1:2,0:2:0:0:
473,131,29213,2,0,P|463:194|441:224,1,96,2|0,0:2|1:2,0:2:0:0:
323,272,29513,1,10,0:2:0:0:
200,218,29713,1,2,0:2:0:0:
182,227,29813,5,2,1:2:0:0:
90,338,30013,1,2,0:2:0:0:
110,352,30113,1,8,0:2:0:0:
249,356,30313,1,2,0:2:0:0:
262,361,30413,2,0,L|375:353,1,96,2|0,1:2|0:2,0:2:0:0:
450,325,30713,1,10,0:2:0:0:
368,201,30913,1,2,0:2:0:0:
365,183,31013,5,2,1:2:0:0:
450,80,31213,1,2,0:2:0:0:
446,95,31313,1,10,0:2:0:0:
308,62,31513,1,2,1:2:0:0:
293,68,31613,2,0,L|184:85,1,96,2|0,0:2|1:2,0:2:0:0:
117,180,31913,2,0,L|8:163,1,96,10|2,0:2|0:2,0:2:0:0:
26,61,32213,5,2,1:2:0:0:
181,86,32413,1,0,0:2:0:0:
198,82,32513,1,10,0:2:0:0:
315,31,32713,1,2,0:2:0:0:
325,42,32813,2,0,L|422:52,1,96,0|0,1:2|0:2,0:2:0:0:
494,192,33113,6,0,P|480:142|489:88,1,96,10|0,0:2|0:2,0:2:0:0:
367,164,33413,2,0,P|381:214|372:268,1,96,2|0,1:2|0:2,0:2:0:0:
314,326,33713,1,8,0:2:0:0:
183,218,33913,1,0,1:2:0:0:
175,228,34013,2,0,L|66:221,1,96,2|0,0:2|1:2,0:2:0:0:
15,349,34313,1,8,0:2:0:0:
174,312,34513,1,2,0:2:0:0:
183,323,34613,6,0,L|292:339,1,96,0|0,1:2|0:2,0:2:0:0:
403,363,34913,2,0,P|418:291|399:232,1,96,10|2,0:2|0:2,0:2:0:0:
334,211,35213,2,0,L|211:195,1,96,2|0,1:2|0:2,0:2:0:0:
115,206,35513,1,10,0:2:0:0:
175,91,35713,1,2,0:2:0:0:
189,88,35813,6,0,P|250:75|291:78,1,96,2|2,1:2|0:2,0:2:0:0:
398,134,36113,2,0,P|459:147|500:144,1,96,10|0,0:2|0:2,0:2:0:0:
506,251,36413,2,0,L|400:273,1,96,2|0,1:2|0:2,0:2:0:0:
317,362,36713,2,0,L|211:340,1,96,10|0,0:2|0:2,0:2:0:0:
174,165,37013,6,0,B|127:175|127:175|109:197|109:197|22:215,1,120,6|0,1:2|0:2,0:2:0:0:
218,235,37313,2,0,B|171:245|171:245|153:267|153:267|66:285,1,120,8|0,0:2|0:2,0:2:0:0:
223,342,37613,2,0,L|352:323,1,120,2|0,1:2|0:2,0:2:0:0:
428,212,37913,2,0,L|299:231,1,120,8|0,0:2|0:2,0:2:0:0:
179,127,38213,6,0,P|217:186|217:237,1,120,6|0,1:2|0:2,0:2:0:0:
74,324,38513,2,0,P|77:264|112:216,1,120,8|0,0:2|0:2,0:2:0:0:
77,125,38813,1,2,1:2:0:0:
227,42,39013,1,8,1:3:0:0:
244,48,39113,1,8,1:3:0:0:
367,112,39313,1,8,1:3:0:0:
384,104,39413,5,6,1:2:0:0:
384,104,40313,5,2,1:2:0:0:
293,341,40613,1,8,0:2:0:0:
198,189,40913,1,2,1:2:0:0:
198,189,41513,5,2,1:2:0:0:
390,242,41813,1,0,1:2:0:0:
202,307,42113,1,2,1:2:0:0:
202,307,42713,5,2,1:2:0:0:
84,134,43013,1,12,0:2:0:0:
250,69,43313,1,2,1:2:0:0:
250,69,43913,5,0,1:2:0:0:
321,240,44213,1,6,1:2:0:0:
131,213,44513,1,2,1:2:0:0:
131,213,45113,5,2,1:2:0:0:
297,363,45413,1,8,0:2:0:0:
418,241,45713,1,2,1:2:0:0:
418,241,46275,5,2,1:2:0:0:
302,135,46594,6,0,P|239:116|186:117,1,90.0000034332277,2|0,1:2|0:2,0:2:0:0:
195,278,46913,2,0,L|231:192,1,90.0000034332277,12|0,0:2|0:2,0:2:0:0:
44,221,47213,2,0,P|107:202|160:203,1,90.0000034332277,12|0,0:2|0:2,0:2:0:0:
102,301,47513,1,2,1:2:0:0:
313,252,47813,5,10,0:2:0:0:
313,252,48313,5,0,1:2:0:0:
318,233,48413,1,8,0:2:0:0:
463,93,48713,1,0,1:2:0:0:
256,192,49013,12,2,49613,0:2:0:0:
463,93,50213,6,0,B|414:95|414:95|383:120|383:120|279:123,1,132.00000402832,6|0,1:2|0:2,0:2:0:0:
164,31,50513,2,0,B|213:33|213:33|244:58|244:58|348:61,1,132.00000402832,10|0,0:2|0:2,0:2:0:0:
217,236,50813,2,0,P|179:176|179:112,1,132.00000402832,2|0,1:2|0:2,0:2:0:0:
30,26,51113,1,8,0:2:0:0:
18,185,51313,1,2,1:2:0:0:
23,206,51413,6,0,L|44:341,1,132.00000402832,0|2,0:2|1:2,0:2:0:0:
217,236,51713,2,0,L|196:371,1,132.00000402832,10|0,0:2|0:2,0:2:0:0:
429,255,52013,2,0,P|362:222|307:227,1,132.00000402832,2|0,1:2|0:2,0:2:0:0:
127,139,52313,2,0,P|192:142|249:111,1,132.00000402832,10|0,0:2|0:2,0:2:0:0:
345,13,52613,6,0,B|333:53|333:53|359:154,1,132.00000402832,2|0,1:2|0:2,0:2:0:0:
317,354,52913,2,0,B|329:314|329:314|303:213,1,132.00000402832,10|0,0:2|0:2,0:2:0:0:
129,225,53213,1,2,1:2:0:0:
244,94,53413,1,0,0:2:0:0:
249,111,53513,1,8,0:2:0:0:
21,80,53713,1,0,0:2:0:0:
37,66,53813,6,0,P|105:36|186:43,1,132.00000402832,2|0,1:2|0:2,0:2:0:0:
253,254,54113,2,0,P|187:252|128:224,1,132.00000402832,10|0,0:2|1:2,0:2:0:0:
354,109,54413,2,0,L|376:247,1,132.00000402832,2|0,0:2|1:2,0:2:0:0:
232,384,54713,2,0,L|254:246,1,132.00000402832,10|0,0:2|0:2,0:2:0:0:
453,289,55013,6,0,P|401:326|323:323,1,132.00000402832,6|0,1:2|0:2,0:2:0:0:
170,141,55313,2,0,P|235:142|288:180,1,132.00000402832,10|0,0:2|0:2,0:2:0:0:
136,262,55613,1,2,1:2:0:0:
80,70,55813,1,0,0:2:0:0:
85,86,55913,1,8,0:2:0:0:
281,49,56113,1,0,0:2:0:0:
277,64,56213,6,0,P|270:143|347:235,1,198.000006042481,2|8,1:2|0:2,0:2:0:0:
474,53,56713,1,0,1:2:0:0:
476,68,56813,2,0,P|483:147|406:239,1,198.000006042481,2|8,0:2|0:2,0:2:0:0:
243,331,57313,1,0,0:2:0:0:
226,328,57413,6,0,L|91:315,1,132.00000402832,2|0,1:2|0:2,0:2:0:0:
16,171,57713,2,0,L|151:158,1,132.00000402832,10|0,0:2|0:2,0:2:0:0:
292,242,58013,2,0,P|248:179|244:107,1,132.00000402832,2|0,1:2|0:2,0:2:0:0:
410,24,58313,2,0,P|399:88|359:140,1,132.00000402832,10|0,0:2|0:2,0:2:0:0:
440,273,58613,5,0,1:2:0:0:
268,344,58813,1,0,0:2:0:0:
254,341,58913,2,0,P|181:329|110:338,1,132.00000402832,10|0,0:2|0:2,0:2:0:0:
0,373,59213,1,2,1:2:0:0:
66,186,59413,1,8,0:2:0:0:
76,208,59513,1,8,0:2:0:0:
165,249,59663,1,0,1:2:0:0:
299,235,59813,6,0,L|430:194,1,132.00000402832,6|0,1:2|1:2,0:2:0:0:
221,80,60113,2,0,L|346:119,1,132.00000402832,10|0,0:2|0:2,0:2:0:0:
159,152,60413,2,0,P|132:81|173:0,1,132.00000402832,2|0,1:2|0:2,0:2:0:0:
319,8,60713,1,8,0:2:0:0:
431,181,60913,1,2,0:2:0:0:
424,195,61013,5,2,1:2:0:0:
312,352,61213,1,2,0:2:0:0:
306,335,61313,2,0,P|268:275|170:244,1,132.00000402832,10|0,0:2|1:2,0:2:0:0:
28,359,61613,2,0,P|84:327|118:271,1,132.00000402832,2|0,1:2|1:2,0:2:0:0:
44,114,61913,2,0,L|32:257,1,132.00000402832,10|0,0:2|0:2,0:2:0:0:
252,81,62213,6,0,B|188:55|188:55|124:73,1,132.00000402832,2|0,1:2|0:2,0:2:0:0:
215,247,62513,2,0,B|279:273|279:273|343:255,1,132.00000402832,10|0,0:2|0:2,0:2:0:0:
497,104,62813,2,0,B|433:78|433:78|369:96,1,132.00000402832,2|0,1:2|0:2,0:2:0:0:
462,235,63113,1,8,0:2:0:0:
239,111,63313,1,0,0:2:0:0:
223,117,63413,6,0,P|208:189|221:266,1,132.00000402832,2|0,1:2|0:2,0:2:0:0:
21,362,63713,2,0,P|36:290|23:213,1,132.00000402832,10|0,0:2|1:2,0:2:0:0:
104,51,64013,2,0,L|122:205,1,132.00000402832,0|0,0:2|1:2,0:2:0:0:
288,338,64313,2,0,L|306:184,1,132.00000402832,10|0,0:2|0:2,0:2:0:0:
311,16,64613,6,0,P|283:90|180:97,1,132.00000402832,6|0,1:2|0:2,0:2:0:0:
104,51,64913,1,8,0:2:0:0:
15,267,65113,1,0,0:2:0:0:
20,280,65213,2,0,L|202:254,1,132.00000402832,2|0,1:2|0:2,0:2:0:0:
319,232,65513,1,8,0:2:0:0:
223,34,65713,1,0,0:2:0:0:
212,42,65813,6,0,P|178:95|187:180,1,132.00000402832,2|0,1:2|0:2,0:2:0:0:
246,300,66113,1,8,0:2:0:0:
315,113,66313,1,0,0:2:0:0:
327,124,66413,2,0,B|390:98|390:98|470:127,1,132.00000402832,2|0,1:2|1:2,0:2:0:0:
503,273,66713,1,8,0:2:0:0:
313,375,66913,1,0,0:2:0:0:
303,356,67013,6,0,B|254:286|292:221,1,132.00000402832,2|0,1:2|0:2,0:2:0:0:
155,161,67313,1,8,0:2:0:0:
40,332,67513,1,0,0:2:0:0:
62,334,67613,2,0,L|196:319,1,132.00000402832,0|0,1:2|0:2,0:2:0:0:
337,240,67913,1,8,0:2:0:0:
155,161,68113,1,0,0:2:0:0:
155,131,68213,6,0,L|138:-7,1,132.00000402832,2|2,1:2|0:2,0:2:0:0:
262,170,68513,2,0,L|278:38,1,132.00000402832,8|2,0:2|0:2,0:2:0:0:
505,76,68813,2,0,P|451:41|377:43,1,132.00000402832,0|2,1:2|0:2,0:2:0:0:
337,240,69113,2,0,P|402:239|456:204,1,132.00000402832,8|2,0:2|0:2,0:2:0:0:
366,138,69413,5,6,1:2:0:0:
366,138,70332,5,2,1:2:0:0:
193,283,70632,1,8,0:2:0:0:
390,298,70917,1,2,1:2:0:0:
390,298,71504,5,2,1:2:0:0:
237,191,71804,1,4,1:2:0:0:
237,191,72713,5,2,1:2:0:0:
56,333,73045,1,8,0:2:0:0:
30,179,73316,1,2,1:2:0:0:
30,179,73903,5,0,1:2:0:0:
212,253,74182,1,6,1:2:0:0:
212,253,75112,5,2,1:2:0:0:
133,86,75312,1,0,1:2:0:0:
120,114,75412,1,10,0:2:0:0:
323,96,75712,5,2,1:2:0:0:
382,303,76027,1,8,0:2:0:0:
382,303,76613,6,0,P|314:284|262:285,1,120,2|0,1:2|0:2,0:2:0:0:
116,365,76913,2,0,P|135:297|134:245,1,120,10|0,0:2|0:2,0:2:0:0:
209,119,77213,2,0,P|268:119|325:137,1,120,2|2,1:2|0:2,0:2:0:0:
426,218,77513,1,10,0:2:0:0:
413,48,77713,1,8,0:2:0:0:
404,80,77813,1,10,0:2:0:0:
256,192,77913,12,2,78863,0:2:0:0:
404,80,79013,6,0,L|421:216,1,120,6|0,1:2|0:2,0:2:0:0:
307,324,79313,2,0,L|324:188,1,120,8|0,0:2|0:2,0:2:0:0:
263,105,79613,1,2,1:2:0:0:
175,257,79813,1,0,0:2:0:0:
140,249,79913,1,8,0:2:0:0:
15,112,80113,6,0,P|80:137|175:87,1,180,2|2,1:2|1:2,0:2:0:0:
145,0,80513,1,10,0:2:0:0:
274,102,80713,1,2,0:2:0:0:
310,96,80813,1,2,1:2:0:0:
448,47,81013,1,2,0:2:0:0:
484,53,81113,1,10,0:2:0:0:
431,245,81413,6,0,P|413:183|431:124,1,120,0|0,1:2|0:2,0:2:0:0:
285,215,81713,2,0,P|303:277|285:336,1,120,10|0,0:2|0:2,0:2:0:0:
193,364,82013,1,0,1:2:0:0:
94,233,82213,1,2,0:2:0:0:
87,262,82313,1,10,0:2:0:0:
29,118,82513,6,0,B|91:115|91:115|142:145|142:145|223:143,1,180,2|0,1:2|1:2,0:2:0:0:
304,59,82913,2,0,P|236:42|187:56,1,120,14|0,0:2|0:2,0:2:0:0:
338,143,83213,2,0,P|386:92|390:38,1,120,2|0,1:2|1:2,0:2:0:0:
272,179,83513,2,0,P|276:248|305:291,1,120,10|0,0:2|0:2,0:2:0:0:
471,230,83813,6,0,L|351:223,1,120,6|0,1:2|0:2,0:2:0:0:
184,283,84113,2,0,L|304:290,1,120,14|0,0:2|0:2,0:2:0:0:
398,349,84413,1,0,1:2:0:0:
383,198,84613,1,2,0:2:0:0:
373,172,84713,1,10,0:2:0:0:
232,89,84913,6,0,B|172:124|172:124|104:128|71:51,1,180,0|2,1:2|1:2,0:2:0:0:
1,1,85313,1,10,0:2:0:0:
155,29,85513,1,2,0:2:0:0:
189,15,85613,1,2,1:2:0:0:
341,37,85813,1,2,0:2:0:0:
375,51,85913,1,10,0:2:0:0:
498,175,86213,6,0,L|364:160,1,120,0|0,1:2|0:2,0:2:0:0:
241,251,86513,2,0,L|375:236,1,120,14|0,0:2|0:2,0:2:0:0:
438,306,86813,1,0,1:2:0:0:
387,363,86913,1,0,1:2:0:0:
312,378,87013,1,10,0:2:0:0:
246,336,87113,1,2,1:2:0:0:
55,360,87313,5,10,0:2:0:0:
64,282,87413,1,8,0:2:0:0:
74,205,87513,1,8,0:2:0:0:
87,128,87613,1,8,1:3:0:0:
150,96,87713,1,10,1:3:0:0:
222,99,87813,1,8,1:3:0:0:
283,135,87913,1,8,1:3:0:0:
320,196,88013,1,10,1:3:0:0:
55,360,88313,6,0,B|66:308|66:308|58:287|58:287|66:235,1,107.999996704102,12|0,0:2|0:2,0:2:0:0:
