osu file format v14

[General]
AudioFilename: audio.mp3
AudioLeadIn: 0
PreviewTime: 48097
Countdown: 1
SampleSet: Soft
StackLeniency: 0.7
Mode: 0
LetterboxInBreaks: 0
WidescreenStoryboard: 0

[Editor]
Bookmarks: 14715
DistanceSpacing: 4.2
BeatDivisor: 4
GridSize: 4
TimelineZoom: 1.7

[Metadata]
Title:Black Rover
TitleUnicode:Black Rover
Artist:VickeBlanka
ArtistUnicode:VickeBlanka
Creator:Origuon
Version:Insane
Source:
Tags:
BeatmapID:1672477
BeatmapSetID:785929

[Difficulty]
HPDrainRate:6
CircleSize:4
OverallDifficulty:8
ApproachRate:9.3
SliderMultiplier:1.6
SliderTickRate:1

[Events]
//Background and Video events
0,0,"bg.jpg",0,0
//Break Periods
//Storyboard Layer 0 (Background)
Sprite,Background,Centre,"sb\cir.png",488,360 C,0,66599,,0,202,0 F,2,66599,66803,1,0 S,2,66599,66803,0.3,0.06 P,0,66599,66803,A
Sprite,Background,Centre,"sb\cir.png",176,240 C,0,66746,,0,202,0 F,2,66746,66950,1,0 S,2,66746,66950,0.3,0.06 P,0,66746,66950,A
Sprite,Background,Centre,"sb\cir.png",308,408 C,0,66893,,18,124,255 F,2,66893,67097,1,0 S,2,66893,67097,0.3,0.06 P,0,66893,67097,A
Sprite,Background,Centre,"sb\cir.png",416,144 C,0,67040,,18,124,255 F,2,67040,67244,1,0 S,2,67040,67244,0.3,0.06 P,0,67040,67244,A
Sprite,Background,Centre,"sb\cir.png",168,324 C,0,67187,,242,24,57 F,2,67187,67391,1,0 S,2,67187,67391,0.3,0.06 P,0,67187,67391,A
Sprite,Background,Centre,"sb\cir.png",460,220 C,0,67334,,242,24,57 F,2,67334,67538,1,0 S,2,67334,67538,0.3,0.06 P,0,67334,67538,A
Sprite,Background,Centre,"sb\cir.png",216,156 C,0,67481,,255,192,0 F,2,67481,67685,1,0 S,2,67481,67685,0.3,0.06 P,0,67481,67685,A
Sprite,Background,Centre,"sb\cir.png",364,432 C,0,67628,,255,192,0 F,2,67628,67832,1,0 S,2,67628,67832,0.3,0.06 P,0,67628,67832,A
Sprite,Background,Centre,"sb\cir.png",356,160 C,0,67775,,0,202,0 F,2,67775,67979,1,0 S,2,67775,67979,0.3,0.06 P,0,67775,67979,A
Sprite,Background,Centre,"sb\cir.png",256,412 C,0,67922,,0,202,0 F,2,67922,68126,1,0 S,2,67922,68126,0.3,0.06 P,0,67922,68126,A
Sprite,Background,Centre,"sb\cir.png",268,140 C,0,68069,,18,124,255 F,2,68069,68273,1,0 S,2,68069,68273,0.3,0.06 P,0,68069,68273,A
Sprite,Background,Centre,"sb\cir.png",404,424 C,0,68217,,18,124,255 F,2,68217,68421,1,0 S,2,68217,68421,0.3,0.06 P,0,68217,68421,A
Sprite,Background,Centre,"sb\cir.png",160,216 C,0,68364,,242,24,57 F,2,68364,68568,1,0 S,2,68364,68568,0.3,0.06 P,0,68364,68568,A
Sprite,Background,Centre,"sb\cir.png",484,232 C,0,68511,,242,24,57 F,2,68511,68715,1,0 S,2,68511,68715,0.3,0.06 P,0,68511,68715,A
Sprite,Background,Centre,"sb\cir.png",196,392 C,0,68658,,255,192,0 F,2,68658,68862,1,0 S,2,68658,68862,0.3,0.06 P,0,68658,68862,A
Sprite,Background,Centre,"sb\cir.png",200,104 C,0,68805,,255,192,0 F,2,68805,69009,1,0 S,2,68805,69009,0.3,0.06 P,0,68805,69009,A
Sprite,Background,Centre,"sb\cir.png",472,232 C,0,68952,,0,202,0 F,2,68952,69156,1,0 S,2,68952,69156,0.3,0.06 P,0,68952,69156,A
Sprite,Background,Centre,"sb\cir.png",152,324 C,0,69099,,0,202,0 F,2,69099,69303,1,0 S,2,69099,69303,0.3,0.06 P,0,69099,69303,A
Sprite,Background,Centre,"sb\cir.png",508,348 C,0,69246,,18,124,255 F,2,69246,69450,1,0 S,2,69246,69450,0.3,0.06 P,0,69246,69450,A
Sprite,Background,Centre,"sb\cir.png",160,204 C,0,69393,,18,124,255 F,2,69393,69597,1,0 S,2,69393,69597,0.3,0.06 P,0,69393,69597,A
Sprite,Background,Centre,"sb\cir.png",484,284 C,0,69540,,242,24,57 F,2,69540,69744,1,0 S,2,69540,69744,0.3,0.06 P,0,69540,69744,A
Sprite,Background,Centre,"sb\cir.png",172,416 C,0,69687,,242,24,57 F,2,69687,69891,1,0 S,2,69687,69891,0.3,0.06 P,0,69687,69891,A
Sprite,Background,Centre,"sb\cir.png",208,144 C,0,69834,,255,192,0 F,2,69834,70038,1,0 S,2,69834,70038,0.3,0.06 P,0,69834,70038,A
Sprite,Background,Centre,"sb\cir.png",328,404 C,0,69981,,255,192,0 F,2,69981,70185,1,0 S,2,69981,70185,0.3,0.06 P,0,69981,70185,A
Sprite,Background,Centre,"sb\cir.png",432,116 C,0,70128,,0,202,0 F,2,70128,70332,1,0 S,2,70128,70332,0.3,0.06 P,0,70128,70332,A
Sprite,Background,Centre,"sb\cir.png",176,340 C,0,70275,,0,202,0 F,2,70275,70479,1,0 S,2,70275,70479,0.3,0.06 P,0,70275,70479,A
Sprite,Background,Centre,"sb\cir.png",204,96 C,0,70422,,18,124,255 F,2,70422,70626,1,0 S,2,70422,70626,0.3,0.06 P,0,70422,70626,A
Sprite,Background,Centre,"sb\cir.png",440,364 C,0,70569,,18,124,255 F,2,70569,70773,1,0 S,2,70569,70773,0.3,0.06 P,0,70569,70773,A
Sprite,Background,Centre,"sb\cir.png",416,80 C,0,70717,,242,24,57 F,2,70717,70921,1,0 S,2,70717,70921,0.3,0.06 P,0,70717,70921,A
Sprite,Background,Centre,"sb\cir.png",304,388 C,0,70864,,242,24,57 F,2,70864,71068,1,0 S,2,70864,71068,0.3,0.06 P,0,70864,71068,A
Sprite,Background,Centre,"sb\cir.png",324,88 C,0,71011,,255,192,0 F,2,71011,71215,1,0 S,2,71011,71215,0.3,0.06 P,0,71011,71215,A
Sprite,Background,Centre,"sb\cir.png",204,336 C,0,71158,,255,192,0 F,2,71158,71362,1,0 S,2,71158,71362,0.3,0.06 P,0,71158,71362,A
Sprite,Background,Centre,"sb\cir.png",220,184 C,0,71305,,0,202,0 F,2,71305,71509,1,0 S,2,71305,71509,0.3,0.06 P,0,71305,71509,A
Sprite,Background,Centre,"sb\cir.png",384,328 C,0,71452,,0,202,0 F,2,71452,71656,1,0 S,2,71452,71656,0.3,0.06 P,0,71452,71656,A
Sprite,Background,Centre,"sb\cir.png",168,372 C,0,71599,,18,124,255 F,2,71599,71803,1,0 S,2,71599,71803,0.3,0.06 P,0,71599,71803,A
Sprite,Background,Centre,"sb\cir.png",320,160 C,0,71746,,18,124,255 F,2,71746,71950,1,0 S,2,71746,71950,0.3,0.06 P,0,71746,71950,A
Sprite,Background,Centre,"sb\cir.png",444,304 C,0,71893,,242,24,57 F,2,71893,72097,1,0 S,2,71893,72097,0.3,0.06 P,0,71893,72097,A
Sprite,Background,Centre,"sb\cir.png",136,128 C,0,72041,,242,24,57 F,2,72041,72245,1,0 S,2,72041,72245,0.3,0.06 P,0,72041,72245,A
Sprite,Background,Centre,"sb\cir.png",228,372 C,0,72187,,255,192,0 F,2,72187,72391,1,0 S,2,72187,72391,0.3,0.06 P,0,72187,72391,A
Sprite,Background,Centre,"sb\cir.png",396,212 C,0,72334,,255,192,0 F,2,72334,72538,1,0 S,2,72334,72538,0.3,0.06 P,0,72334,72538,A
Sprite,Background,Centre,"sb\cir.png",200,256 C,0,72481,,0,202,0 F,2,72481,72685,1,0 S,2,72481,72685,0.3,0.06 P,0,72481,72685,A
Sprite,Background,Centre,"sb\cir.png",388,364 C,0,72628,,0,202,0 F,2,72628,72832,1,0 S,2,72628,72832,0.3,0.06 P,0,72628,72832,A
Sprite,Background,Centre,"sb\cir.png",340,184 C,0,72775,,18,124,255 F,2,72775,72979,1,0 S,2,72775,72979,0.3,0.06 P,0,72775,72979,A
Sprite,Background,Centre,"sb\cir.png",184,372 C,0,72922,,18,124,255 F,2,72922,73126,1,0 S,2,72922,73126,0.3,0.06 P,0,72922,73126,A
Sprite,Background,Centre,"sb\cir.png",160,128 C,0,73069,,242,24,57 F,2,73069,73273,1,0 S,2,73069,73273,0.3,0.06 P,0,73069,73273,A
Sprite,Background,Centre,"sb\cir.png",348,332 C,0,73217,,242,24,57 F,2,73217,73421,1,0 S,2,73217,73421,0.3,0.06 P,0,73217,73421,A
Sprite,Background,Centre,"sb\cir.png",132,272 C,0,73364,,255,192,0 F,2,73364,73568,1,0 S,2,73364,73568,0.3,0.06 P,0,73364,73568,A
Sprite,Background,Centre,"sb\cir.png",428,172 C,0,73511,,255,192,0 F,2,73511,73715,1,0 S,2,73511,73715,0.3,0.06 P,0,73511,73715,A
Sprite,Background,Centre,"sb\cir.png",212,400 C,0,73658,,0,202,0 F,2,73658,73862,1,0 S,2,73658,73862,0.3,0.06 P,0,73658,73862,A
Sprite,Background,Centre,"sb\cir.png",208,120 C,0,73805,,0,202,0 F,2,73805,74009,1,0 S,2,73805,74009,0.3,0.06 P,0,73805,74009,A
Sprite,Background,Centre,"sb\cir.png",420,400 C,0,73952,,18,124,255 F,2,73952,74156,1,0 S,2,73952,74156,0.3,0.06 P,0,73952,74156,A
Sprite,Background,Centre,"sb\cir.png",408,112 C,0,74099,,18,124,255 F,2,74099,74303,1,0 S,2,74099,74303,0.3,0.06 P,0,74099,74303,A
Sprite,Background,Centre,"sb\cir.png",244,408 C,0,74246,,242,24,57 F,2,74246,74450,1,0 S,2,74246,74450,0.3,0.06 P,0,74246,74450,A
Sprite,Background,Centre,"sb\cir.png",244,100 C,0,74393,,242,24,57 F,2,74393,74597,1,0 S,2,74393,74597,0.3,0.06 P,0,74393,74597,A
Sprite,Background,Centre,"sb\cir.png",400,412 C,0,74540,,255,192,0 F,2,74540,74744,1,0 S,2,74540,74744,0.3,0.06 P,0,74540,74744,A
Sprite,Background,Centre,"sb\cir.png",392,92 C,0,74687,,255,192,0 F,2,74687,74891,1,0 S,2,74687,74891,0.3,0.06 P,0,74687,74891,A
Sprite,Background,Centre,"sb\cir.png",124,412 C,0,74834,,0,202,0 F,2,74834,75038,1,0 S,2,74834,75038,0.3,0.06 P,0,74834,75038,A
Sprite,Background,Centre,"sb\cir.png",128,92 C,0,74981,,0,202,0 F,2,74981,75185,1,0 S,2,74981,75185,0.3,0.06 P,0,74981,75185,A
Sprite,Background,Centre,"sb\cir.png",484,268 C,0,75128,,18,124,255 F,2,75128,75332,1,0 S,2,75128,75332,0.3,0.06 P,0,75128,75332,A
//Storyboard Layer 1 (Fail)
//Storyboard Layer 2 (Pass)
//Storyboard Layer 3 (Foreground)
//Storyboard Sound Samples

[TimingPoints]
1010,294.117647058824,4,2,0,40,1,0
7362,-76.9230769230769,4,2,0,40,0,0
7460,294.117647058824,4,2,0,40,1,0
7656,-100,4,2,0,40,0,0
8048,294.117647058824,4,2,0,40,1,0
38342,-133.333333333333,4,2,0,40,0,0
45695,-200,4,2,0,40,0,0
47302,294.117647058824,4,2,0,40,1,0
47425,294.117647058824,4,2,0,40,1,0
47425,-66.6666666666667,4,2,0,40,0,0
47596,294.117647058824,4,2,0,40,1,0
47596,-66.6666666666667,4,2,0,40,0,0
47736,294.117647058824,4,2,0,40,1,0
47736,-66.6666666666667,4,2,0,40,0,0
47900,294.117647058824,4,2,0,40,1,0
47900,-86.9565217391304,4,2,0,40,0,0
48047,294.117647058824,4,2,0,40,1,0
56282,-83.3333333333333,4,2,0,40,0,0
67164,-66.6666666666667,4,2,0,40,0,0
67458,-83.3333333333333,4,2,0,40,0,0
67752,-66.6666666666667,4,2,0,40,0,0
68047,-83.3333333333333,4,2,0,40,0,0
68341,-66.6666666666667,4,2,0,40,0,0
68635,-83.3333333333333,4,2,0,40,0,0
68929,-66.6666666666667,4,2,0,40,0,0
69223,-83.3333333333333,4,2,0,40,0,0
69444,-66.6666666666667,4,2,0,40,0,0
69811,-83.3333333333333,4,2,0,40,0,0
70105,-66.6666666666667,4,2,0,40,0,0
70399,-83.3333333333333,4,2,0,40,0,0
70694,-66.6666666666667,4,2,0,40,0,0
70988,-83.3333333333333,4,2,0,40,0,0
71282,-66.6666666666667,4,2,0,40,0,0
74811,-100,4,2,0,40,0,0
75580,294.117647058824,4,2,0,40,1,0
76268,294.117647058824,4,2,0,40,1,0

[HitObjects]
88,160,1010,5,0,0:0:0:0:
172,220,1304,1,0,0:0:0:0:
212,124,1598,1,0,0:0:0:0:
168,220,1892,5,0,0:0:0:0:
260,268,2186,1,0,0:0:0:0:
168,220,2480,1,0,0:0:0:0:
104,304,2774,5,0,0:0:0:0:
164,216,3068,1,0,0:0:0:0:
256,172,3362,1,0,0:0:0:0:
252,68,3657,5,0,0:0:0:0:
256,172,3951,1,0,0:0:0:0:
352,216,4245,1,0,0:0:0:0:
356,320,4539,5,0,0:0:0:0:
352,216,4833,1,0,0:0:0:0:
444,268,5127,1,0,0:0:0:0:
352,216,5421,5,0,0:0:0:0:
300,308,5715,5,0,0:0:0:0:
416,132,6010,1,0,0:0:0:0:
208,128,6304,5,0,0:0:0:0:
300,308,6598,1,0,0:0:0:0:
208,128,6892,1,0,0:0:0:0:
116,320,7186,1,0,0:0:0:0:
112,200,7333,5,0,0:0:0:0:
112,200,7407,1,0,0:0:0:0:
112,200,7480,1,0,0:0:0:0:
24,80,7627,2,0,L|24:181,1,80
232,284,7901,6,0,B|152:328|152:236|64:300,1,160
120,164,8342,5,0,0:0:0:0:
124,196,8637,2,0,L|232:196,1,80
276,48,8931,2,0,L|168:48,1,80
320,172,9225,5,0,0:0:0:0:
412,204,9372,2,0,P|368:260|328:264,1,80
268,264,9666,5,0,0:0:0:0:
192,280,9813,2,0,P|240:336|268:340,2,80
76,128,10254,6,0,B|40:208|88:268|88:268|100:224,1,160
228,108,10695,2,0,P|184:72|128:68,1,80
96,256,10990,2,0,L|200:256,1,80
80,128,11284,1,0,0:0:0:0:
80,128,11578,5,0,0:0:0:0:
168,120,11725,2,0,P|136:192|104:204,1,80
60,296,12019,1,0,0:0:0:0:
104,364,12166,2,0,P|136:324|136:280,2,80
232,200,12607,6,0,B|216:260|216:260|244:292|244:292|228:332|248:368,1,160
372,228,13048,2,0,P|376:284|352:328,1,80
232,200,13342,2,0,P|272:160|320:156,1,80
368,304,13637,1,0,0:0:0:0:
444,152,13931,6,0,L|444:236,2,80
328,104,14372,1,0,0:0:0:0:
432,52,14519,1,0,0:0:0:0:
444,152,14666,1,0,0:0:0:0:
320,84,14813,6,0,B|292:124|292:124|292:188,1,80
432,296,15107,1,0,0:0:0:0:
292,155,15303,1,0,0:0:0:0:
240,332,15499,1,0,0:0:0:0:
132,176,15695,6,0,L|148:268,1,80
324,184,15990,2,0,L|308:288,1,80
168,232,16284,6,0,L|184:324,1,80
328,236,16578,6,0,L|314:314,1,80
300,132,16872,5,0,0:0:0:0:
156,200,17019,1,0,0:0:0:0:
300,132,17166,1,0,0:0:0:0:
156,200,17313,1,0,0:0:0:0:
232,76,17460,6,0,P|312:52|388:100,1,160
313,314,17901,1,0,0:0:0:0:
312,312,18342,6,0,L|208:312,1,80
152,200,18637,2,0,P|112:236|104:264,2,80
60,76,19078,6,0,L|60:176,1,80
108,256,19372,1,0,0:0:0:0:
144,336,19519,2,0,L|44:336,1,80
220,200,19813,6,0,B|256:252|256:252|256:360,1,160
108,256,20254,1,0,0:0:0:0:
220,28,20695,6,0,L|220:124,1,80
316,128,20990,2,0,P|272:184|248:188,2,80
416,272,21431,6,0,L|320:240,1,80
436,176,21725,1,0,0:0:0:0:
396,40,21872,2,0,L|356:132,1,80
367,259,22166,2,0,B|384:292|384:292|428:176,1,160
272,80,22607,5,0,0:0:0:0:
264,96,22901,2,0,L|168:124,1,80
200,288,23195,2,0,L|308:244,1,80
240,124,23490,2,0,L|144:152,1,80
228,264,23784,2,0,L|336:220,1,80
147,170,24078,6,0,L|147:278,1,80
84,72,24372,1,0,0:0:0:0:
84,72,24445,1,0,0:0:0:0:
84,72,24519,2,0,L|196:72,1,80
284,200,24813,5,0,0:0:0:0:
200,264,24960,2,0,P|240:304|296:308,1,80
432,160,25254,1,0,0:0:0:0:
388,292,25401,2,0,L|496:292,1,80
356,96,25695,6,0,P|316:160|332:252,1,160
452,180,26137,1,0,0:0:0:0:
356,96,26284,5,0,0:0:0:0:
200,200,26431,1,0,0:0:0:0:
376,116,26578,1,0,0:0:0:0:
188,164,26725,1,0,0:0:0:0:
396,156,26872,2,0,B|352:232|372:264|372:264|444:248,1,160
272,48,27313,6,0,P|240:108|244:144,1,80
220,252,27607,1,0,0:0:0:0:
128,180,27754,2,0,P|176:164|232:188,1,80
172,316,28048,2,0,L|68:316,1,80
56,120,28343,5,0,0:0:0:0:
240,120,28490,2,0,L|184:48,1,80
224,276,28783,1,0,0:0:0:0:
112,216,28930,2,0,P|88:268|96:316,1,80
240,120,29224,6,0,B|240:180|240:180|224:216|224:216|224:296,1,160
456,336,29665,2,0,L|356:336,1,80
416,208,29959,1,0,0:0:0:0:
300,128,30106,6,0,B|300:84|300:84|336:28,1,80
444,53,30400,2,0,B|464:84|464:84|464:128,1,80
268,228,30695,1,0,0:0:0:0:
420,304,30842,2,0,L|397:227,1,80
268,192,31136,1,0,0:0:0:0:
196,328,31283,6,0,L|304:328,1,80
160,120,31577,2,0,B|120:92|120:92|104:240,1,160
280,232,32018,2,0,L|280:328,1,80
180,332,32312,1,0,0:0:0:0:
153,120,32459,2,0,L|153:40,1,80
352,168,32753,5,0,0:0:0:0:
224,156,32900,1,0,0:0:0:0:
276,308,33048,1,0,0:0:0:0:
184,256,33195,1,0,0:0:0:0:
184,256,33342,2,0,P|136:240|108:208,1,80
168,136,33636,2,0,P|196:172|252:188,1,80
356,92,33930,5,0,0:0:0:0:
368,108,34224,5,0,0:0:0:0:
336,264,34518,1,0,0:0:0:0:
294,97,34665,5,0,0:0:0:0:
262,253,34812,1,0,0:0:0:0:
215,81,34959,5,0,0:0:0:0:
183,237,35106,1,0,0:0:0:0:
141,69,35253,5,0,0:0:0:0:
109,225,35400,1,0,0:0:0:0:
38,90,35548,5,0,0:0:0:0:
206,159,35695,1,0,0:0:0:0:
16,193,35842,5,0,0:0:0:0:
184,262,35989,1,0,0:0:0:0:
84,353,36136,1,0,0:0:0:0:
376,296,36283,6,0,P|304:284|256:360,1,160
332,352,36724,1,0,0:0:0:0:
248,184,36871,2,0,P|208:200|176:328,1,160
352,120,37312,1,0,0:0:0:0:
352,120,37386,1,0,0:0:0:0:
352,120,37459,2,0,P|316:68|276:60,1,80
248,184,37753,6,0,L|248:80,1,80
60,192,38048,2,0,L|152:192,2,80
168,292,38489,1,0,0:0:0:0:
168,292,38636,6,0,P|160:332|128:364,1,60.0000022888184
296,216,38930,2,0,L|208:216,1,60.0000022888184
352,336,39224,2,0,L|424:336,1,60.0000022888184
396,104,39518,5,0,0:0:0:0:
272,216,39665,2,0,L|404:216,1,120.000004577637
208,52,40106,1,0,0:0:0:0:
196,176,40400,2,0,L|56:176,1,120.000004577637
320,340,40989,2,0,P|372:288|368:224,1,120.000004577637
288,52,41577,2,0,P|272:112|316:168,1,120.000004577637
80,216,42165,2,0,P|80:276|140:324,1,120.000004577637
256,228,42753,2,0,P|260:180|196:116,1,120.000004577637
228,344,43342,5,0,0:0:0:0:
256,316,43636,5,0,0:0:0:0:
232,284,43930,5,0,0:0:0:0:
252,252,44224,5,0,0:0:0:0:
292,260,44518,5,0,0:0:0:0:
308,224,44812,5,0,0:0:0:0:
348,228,45106,5,0,0:0:0:0:
344,188,45400,5,0,0:0:0:0:
112,56,45695,6,0,B|148:76|188:52|188:52|184:112|184:164|184:200|240:176|240:176|296:184|284:228,1,320
344,96,47312,5,0,0:0:0:0:
204,184,47425,2,0,L|276:200,1,60.0000022888184
420,256,47565,2,0,L|336:264,1,60.0000022888184
220,344,47736,2,0,L|288:360,1,60.0000022888184
224,72,47883,6,0,B|176:144|212:244|212:244|264:176,1,240.000009155274
456,56,48341,2,0,P|484:96|492:160,1,80
356,128,48635,1,0,0:0:0:0:
396,292,48782,1,0,0:0:0:0:
280,264,48929,2,0,P|308:216|352:200,1,80
180,152,49223,6,0,L|180:260,1,80
24,136,49517,1,0,0:0:0:0:
132,344,49664,2,0,L|132:232,1,80
236,264,49958,1,0,0:0:0:0:
128,172,50105,1,0,0:0:0:0:
220,352,50252,2,0,P|280:336|328:248,1,160
304,32,50694,6,0,P|352:48|380:96,1,80
192,164,50988,1,0,0:0:0:0:
348,168,51135,1,0,0:0:0:0:
168,64,51282,6,0,L|256:64,1,80
144,252,51576,1,0,0:0:0:0:
68,136,51723,1,0,0:0:0:0:
60,304,51870,2,0,L|60:212,1,80
208,112,52164,2,0,L|108:112,1,80
144,296,52458,5,0,0:0:0:0:
294,134,52605,2,0,P|328:203|292:272,1,160
186,41,53047,2,0,L|299:41,1,80
151,263,53341,2,0,L|61:265,1,80
115,93,53635,1,0,0:0:0:0:
220,251,53782,1,0,0:0:0:0:
211,99,53929,6,0,P|257:105|292:159,1,80
180,327,54223,2,0,P|144:271|149:227,1,80
136,59,54517,2,0,P|104:99|100:145,1,80
197,225,54811,1,0,0:0:0:0:
124,339,54958,6,0,P|165:255|119:172,1,160
38,263,55399,1,0,0:0:0:0:
225,99,55547,2,0,L|226:187,1,80
371,70,55841,1,0,0:0:0:0:
293,232,55988,1,0,0:0:0:0:
476,154,56282,6,0,L|380:153,1,95.9999970703126
302,259,56576,1,0,0:0:0:0:
238,74,56723,2,0,L|334:74,1,95.9999970703126
342,287,57017,1,0,0:0:0:0:
401,152,57164,1,0,0:0:0:0:
209,213,57311,2,0,B|204:271|204:271|311:368,1,191.999994140625
138,59,57752,6,0,P|69:85|57:122,1,95.9999970703126
119,280,58047,2,0,P|94:341|56:361,1,95.9999970703126
131,125,58341,5,0,0:0:0:0:
46,279,58488,1,0,0:0:0:0:
216,149,58635,6,0,P|211:230|182:262,1,95.9999970703126
313,47,58929,2,0,L|203:47,1,95.9999970703126
469,312,59223,2,0,L|466:211,1,95.9999970703126
441,60,59517,1,0,0:0:0:0:
308,143,59664,6,0,P|349:194|403:203,1,95.9999970703126
318,22,59958,1,0,0:0:0:0:
190,155,60105,2,0,L|190:48,1,95.9999970703126
74,213,60399,2,0,L|74:335,1,95.9999970703126
263,149,60694,2,0,P|290:197|276:273,1,95.9999970703126
129,342,60988,6,0,L|252:343,1,95.9999970703126
488,161,61282,2,0,L|488:283,1,95.9999970703126
241,42,61576,2,0,L|359:42,1,95.9999970703126
381,257,61870,1,0,0:0:0:0:
280,220,62017,6,0,P|282:285|400:373,1,191.999994140625
417,45,62458,2,0,B|426:102|426:102|396:162,1,95.9999970703126
221,116,62752,2,0,B|203:81|203:81|212:24,1,95.9999970703126
252,212,63047,1,0,0:0:0:0:
408,136,63194,1,0,0:0:0:0:
179,284,63341,6,0,P|211:339|260:363,1,95.9999970703126
335,142,63635,2,0,P|320:84|289:47,1,95.9999970703126
154,200,63929,2,0,P|171:258|208:289,1,95.9999970703126
228,72,64223,2,0,P|196:32|155:23,1,95.9999970703126
93,166,64517,6,0,P|176:126|227:212,1,191.999994140625
30,202,64958,2,0,L|31:86,1,95.9999970703126
248,271,65252,1,0,0:0:0:0:
53,281,65399,1,0,0:0:0:0:
53,280,65694,6,0,L|176:281,1,95.9999970703126
265,198,65988,1,0,0:0:0:0:
343,335,66135,2,0,L|216:333,1,95.9999970703126
265,198,66429,1,0,0:0:0:0:
169,306,66576,5,0,0:0:0:0:
169,306,66649,1,0,0:0:0:0:
169,306,66723,1,0,0:0:0:0:
57,221,66870,6,0,L|56:328,1,95.9999970703126
183,130,67164,2,0,L|183:-6,1,120.000004577637
299,237,67458,2,0,L|299:348,1,95.9999970703126
417,131,67752,2,0,L|416:-2,1,120.000004577637
188,148,68047,6,0,P|192:83|242:43,1,95.9999970703126
265,240,68341,2,0,P|245:323|176:355,1,120.000004577637
440,245,68635,6,0,P|469:306|460:355,1,95.9999970703126
300,118,68929,2,0,P|303:50|360:11,1,120.000004577637
144,98,69223,2,0,P|204:163|200:197,1,95.9999970703126
192,355,69517,2,0,P|241:287|229:217,1,120.000004577637
60,23,69811,6,0,P|37:91|56:133,1,95.9999970703126
80,357,70105,2,0,P|108:281|85:225,1,120.000004577637
278,272,70399,2,0,P|295:341|275:385,1,95.9999970703126
206,146,70694,2,0,P|200:67|238:13,1,120.000004577637
455,89,70988,2,0,P|477:143|472:181,1,95.9999970703126
347,357,71282,2,0,P|327:272|353:216,1,120.000004577637
426,86,71576,5,0,0:0:0:0:
284,126,71723,1,0,0:0:0:0:
446,165,71870,5,0,0:0:0:0:
304,205,72017,1,0,0:0:0:0:
468,250,72164,5,0,0:0:0:0:
326,290,72311,1,0,0:0:0:0:
399,359,72458,5,0,0:0:0:0:
326,190,72605,1,0,0:0:0:0:
301,368,72752,5,0,0:0:0:0:
228,199,72899,1,0,0:0:0:0:
199,378,73047,5,0,0:0:0:0:
126,209,73194,1,0,0:0:0:0:
103,376,73341,5,0,0:0:0:0:
30,207,73488,1,0,0:0:0:0:
29,320,73635,5,0,0:0:0:0:
176,258,73782,1,0,0:0:0:0:
21,215,73929,5,0,0:0:0:0:
168,153,74076,1,0,0:0:0:0:
75,65,74223,5,0,0:0:0:0:
91,204,74370,1,0,0:0:0:0:
188,20,74517,5,0,0:0:0:0:
204,159,74664,1,0,0:0:0:0:
307,68,74811,5,0,0:0:0:0:
323,207,74958,1,0,0:0:0:0:
429,108,75105,5,0,0:0:0:0:
445,247,75252,1,0,0:0:0:0:
283,254,75399,5,0,0:0:0:0:
359,88,75547,1,0,0:0:0:0:
298,335,75727,6,0,L|382:336,1,80
206,50,76268,2,0,B|230:121|148:121|231:233,1,160
61,183,76856,6,0,P|46:245|133:325,1,160
295,174,77444,6,0,B|304:237|304:237|231:324,1,160
201,80,78033,2,0,P|262:54|308:72,1,80
178,277,78327,2,0,L|179:175,1,80
344,57,78621,5,0,0:0:0:0:
344,57,78768,2,0,L|431:57,1,80
453,277,79061,2,0,L|451:192,1,80
300,270,79355,2,0,L|300:353,2,80
124,226,79796,2,0,L|212:227,3,80
119,65,80384,5,0,0:0:0:0:
49,197,80532,2,0,L|49:101,1,80
294,324,80973,6,0,L|192:323,1,80
317,182,81267,1,0,0:0:0:0:
436,268,81414,2,0,L|354:269,1,80
426,60,81708,2,0,L|426:157,2,80
210,87,82149,6,0,L|302:86,3,80
150,224,82737,1,0,0:0:0:0:
91,53,82884,2,0,L|91:147,1,80
123,291,83179,1,0,0:0:0:0:
268,218,83326,2,0,L|175:219,1,80
271,91,83620,5,0,0:0:0:0:
450,174,83767,2,0,L|363:174,1,80
216,312,84061,6,0,L|315:312,1,80
112,210,84355,2,0,L|226:211,4,80
211,41,85090,2,0,L|211:142,2,80
254,192,85679,5,0,0:0:0:0:
