osu file format v14

[General]
AudioFilename: Vicetone - Kaleidoscope ft. Grace Grundy.mp3
AudioLeadIn: 0
PreviewTime: 71436
Countdown: 0
SampleSet: Soft
StackLeniency: 0.7
Mode: 0
LetterboxInBreaks: 0
WidescreenStoryboard: 0

[Editor]
DistanceSpacing: 1.2
BeatDivisor: 4
GridSize: 4
TimelineZoom: 1.3

[Metadata]
Title:Kaleidoscope
TitleUnicode:Kaleidoscope
Artist:Vicetone
ArtistUnicode:Vicetone
Creator:Come[Back]Home
Version:Hard
Source:
Tags:cbh ruben den boer victor pool electro edm house dance
BeatmapID:1128184
BeatmapSetID:532417

[Difficulty]
HPDrainRate:6
CircleSize:4
OverallDifficulty:6
ApproachRate:7
SliderMultiplier:1.6
SliderTickRate:1

[Events]
//Background and Video events
0,0,"cropped-1366-768-266386.jpg",0,0
//Break Periods
//Storyboard Layer 0 (Background)
//Storyboard Layer 1 (Fail)
//Storyboard Layer 2 (Pass)
//Storyboard Layer 3 (Foreground)
//Storyboard Sound Samples

[TimingPoints]
1190,487.80487804878,4,2,1,70,1,0
16799,-117.647058823529,4,2,2,70,0,0
48019,-100,4,2,2,70,0,0
48385,-100,4,2,2,5,0,0
48507,-100,4,2,2,70,0,0
48872,-100,4,2,2,5,0,0
48994,-100,4,2,2,70,0,0
50336,-100,4,2,2,5,0,0
50458,-100,4,2,2,70,0,0
50824,-100,4,2,2,5,0,0
50946,-100,4,2,2,70,0,0
55824,-86.9565217391304,4,2,1,70,0,1
60092,-86.9565217391304,4,2,1,5,0,1
60214,-86.9565217391304,4,2,1,70,0,1
71433,-142.857142857143,4,2,1,70,0,0
71799,-142.857142857143,4,2,1,5,0,0
71921,-142.857142857143,4,2,1,70,0,0
72287,-142.857142857143,4,2,1,5,0,0
72409,-142.857142857143,4,2,1,70,0,0
73385,-80,4,2,1,70,0,1
87043,-100,4,2,2,70,0,0

[Colours]
Combo1 : 255,207,64
Combo2 : 159,255,64
Combo3 : 255,255,108
Combo4 : 179,102,102

[HitObjects]
120,325,1190,6,0,L|132:230,1,80,2|0,0:0|0:0,0:0:0:0:
85,160,1677,1,2,0:0:0:0:
85,160,1921,1,0,0:0:0:0:
161,102,2165,2,0,B|213:89|213:89|336:99,1,160,2|2,0:0|0:0,0:0:0:0:
415,106,2897,1,2,0:0:0:0:
465,187,3141,6,0,L|454:287,1,80,2|0,0:0|0:0,0:0:0:0:
370,369,3629,2,0,L|362:290,1,80,2|0,0:0|0:0,0:0:0:0:
357,194,4116,2,0,L|179:211,1,160,2|2,0:0|0:0,0:0:0:0:
127,275,4848,1,2,0:0:0:0:
194,127,5092,6,0,L|274:121,2,80,2|2|2,0:0|0:0|0:0,0:0:0:0:
186,223,5824,1,2,0:0:0:0:
277,257,6068,2,0,P|324:240|357:173,1,120,2|0,0:0|0:0,0:0:0:0:
360,133,6555,1,2,0:0:0:0:
440,184,6799,1,0,0:0:0:0:
466,276,7043,6,0,L|456:368,1,80,2|0,0:0|0:0,0:0:0:0:
457,355,7409,1,0,0:0:0:0:
457,355,7531,1,2,0:0:0:0:
374,307,7775,1,0,0:0:0:0:
325,224,8019,2,0,L|333:144,1,80,2|0,0:0|0:0,0:0:0:0:
415,94,8507,1,2,0:0:0:0:
329,51,8750,1,0,0:0:0:0:
248,103,8994,6,0,B|212:124|212:124|93:106,1,160,2|2,0:0|0:0,0:0:0:0:
30,34,9726,1,0,0:0:0:0:
71,120,9970,2,0,L|64:218,1,80,2|0,0:0|0:0,0:0:0:0:
130,270,10458,1,2,0:0:0:0:
85,355,10702,1,2,0:0:0:0:
180,345,10946,6,0,B|234:336|234:336|296:345|296:345|352:334,1,160,2|2,0:0|0:0,0:0:0:0:
433,330,11677,1,0,0:0:0:0:
377,251,11921,2,0,P|371:206|377:159,1,80,2|0,0:0|0:0,0:0:0:0:
428,91,12409,1,2,0:0:0:0:
344,44,12653,1,0,0:0:0:0:
269,104,12897,6,0,L|181:120,1,80,2|2,0:0|0:0,0:0:0:0:
98,87,13385,1,2,0:0:0:0:
117,181,13629,1,2,0:0:0:0:
202,224,13872,2,0,L|281:208,1,80,2|0,0:0|0:0,0:0:0:0:
328,199,14238,1,0,0:0:0:0:
328,199,14360,1,2,0:0:0:0:
373,114,14604,1,0,0:0:0:0:
423,195,14848,5,2,0:0:0:0:
256,192,14970,12,0,16311,0:0:0:0:
390,310,16799,6,0,L|381:237,1,68.0000012969971,2|0,0:0|0:0,0:0:0:0:
369,161,17287,1,0,0:0:0:0:
304,211,17531,2,0,L|231:220,1,68.0000012969971,2|2,0:0|0:0,0:0:0:0:
147,356,18263,1,12,0:0:0:0:
84,205,18750,5,2,0:0:0:0:
119,131,18994,1,0,0:0:0:0:
166,197,19238,2,0,P|161:234|132:268,1,68.0000012969971,2|0,0:0|0:0,0:0:0:0:
68,290,19726,1,2,0:0:0:0:
223,340,20214,1,2,0:0:0:0:
303,324,20458,1,0,0:0:0:0:
383,308,20702,6,0,L|391:231,1,68.0000012969971,2|0,0:0|0:0,0:0:0:0:
402,159,21189,1,0,0:0:0:0:
357,90,21433,2,0,P|328:118|319:157,1,68.0000012969971,2|2,0:0|0:0,0:0:0:0:
283,303,22165,1,12,0:0:0:0:
140,223,22653,6,0,L|149:143,1,68.0000012969971,2|0,0:0|0:0,0:0:0:0:
99,89,23141,1,2,0:0:0:0:
156,29,23385,1,0,0:0:0:0:
219,80,23629,2,0,B|256:102|256:102|356:94,1,136.000002593994,2|2,0:0|0:0,0:0:0:0:
430,88,24360,1,0,0:0:0:0:
393,160,24604,6,0,L|382:303,1,136.000002593994,2|0,0:0|0:0,0:0:0:0:
316,344,25336,2,0,L|234:334,1,68.0000012969971,2|2,0:0|0:0,0:0:0:0:
188,279,25824,1,0,0:0:0:0:
163,356,26068,1,12,0:0:0:0:
135,195,26555,6,0,P|173:178|202:182,1,68.0000012969971,2|0,0:0|0:0,0:0:0:0:
262,231,27043,2,0,P|295:232|325:216,1,68.0000012969971,2|0,0:0|0:0,0:0:0:0:
380,155,27531,2,0,L|377:11,1,136.000002593994,2|2,0:0|0:0,0:0:0:0:
453,48,28263,1,0,0:0:0:0:
337,92,28507,6,0,B|278:89|278:89|252:99|252:99|195:96,1,136.000002593994,2|0,0:0|0:0,0:0:0:0:
127,127,29238,1,2,0:0:0:0:
175,192,29482,2,0,L|259:199,1,68.0000012969971,2|0,0:0|0:0,0:0:0:0:
313,239,29970,1,12,0:0:0:0:
217,106,30458,6,0,L|224:31,1,68.0000012969971,2|0,0:0|0:0,0:0:0:0:
300,11,30946,1,2,0:0:0:0:
351,91,31189,1,0,0:0:0:0:
351,91,31311,1,0,0:0:0:0:
351,91,31433,2,0,L|420:83,1,68.0000012969971,2|0,0:0|0:0,0:0:0:0:
500,91,31921,1,2,0:0:0:0:
500,91,32165,1,0,0:0:0:0:
455,203,32409,6,0,L|468:347,1,136.000002593994,10|8,0:0|0:0,0:0:0:0:
389,363,33141,1,2,0:0:0:0:
337,301,33385,2,0,L|330:219,1,68.0000012969971,10|0,0:0|0:0,0:0:0:0:
364,158,33872,1,12,0:0:0:0:
282,149,34116,1,0,0:0:0:0:
419,94,34360,6,0,P|441:125|445:161,1,68.0000012969971,8|0,0:0|0:0,0:0:0:0:
398,221,34848,2,0,P|404:254|424:281,1,68.0000012969971,10|0,0:0|0:0,0:0:0:0:
492,326,35336,2,0,L|338:310,1,136.000002593994,10|10,0:0|0:0,0:0:0:0:
281,344,36068,1,10,0:0:0:0:
213,298,36311,6,0,L|226:221,1,68.0000012969971,10|0,0:0|0:0,0:0:0:0:
192,155,36799,1,8,0:0:0:0:
267,124,37043,2,0,P|293:137|323:172,1,68.0000012969971,2|10,0:0|0:0,0:0:0:0:
343,243,37531,1,0,0:0:0:0:
397,182,37775,1,12,0:0:0:0:
427,257,38019,1,2,0:0:0:0:
289,300,38263,6,0,P|268:270|269:225,1,68.0000012969971,8|0,0:0|0:0,0:0:0:0:
312,172,38750,1,10,0:0:0:0:
312,172,38994,1,0,0:0:0:0:
257,110,39238,2,0,L|177:116,1,68.0000012969971,8|8,0:0|0:0,0:0:0:0:
110,91,39726,1,8,0:0:0:0:
127,170,39970,1,8,0:0:0:0:
277,206,40214,6,0,L|376:199,1,68.0000012969971,10|0,0:0|0:0,0:0:0:0:
426,196,40702,1,8,0:0:0:0:
385,125,40946,2,0,L|397:46,1,68.0000012969971,0|10,0:0|0:0,0:0:0:0:
299,0,41433,2,0,L|310:66,1,68.0000012969971,0|12,0:0|0:0,0:0:0:0:
252,123,41921,1,0,0:0:0:0:
184,76,42165,5,8,0:0:0:0:
173,156,42409,1,0,0:0:0:0:
240,202,42653,2,0,P|275:200|315:171,1,68.0000012969971,10|0,0:0|0:0,0:0:0:0:
347,115,43141,2,0,L|353:266,1,136.000002593994,10|8,0:0|0:0,0:0:0:0:
355,332,43872,1,0,0:0:0:0:
285,288,44116,6,0,B|235:282|235:282|189:295|189:295|142:290,1,136.000002593994,10|0,0:0|0:0,0:0:0:0:
82,247,44848,2,0,B|93:152|93:152|85:100,1,136.000002593994,2|0,0:0|0:0,0:0:0:0:
33,50,45580,1,12,0:0:0:0:
112,32,45824,1,0,0:0:0:0:
171,144,46068,6,0,L|162:230,2,68.0000012969971,2|0|0,0:0|0:0|0:0,0:0:0:0:
236,95,46799,1,2,0:0:0:0:
126,322,48019,6,0,L|117:191,1,120,10|0,0:0|0:0,0:0:0:0:
116,153,48507,2,0,B|167:170|167:170|248:154,1,120,10|0,0:0|0:0,0:0:0:0:
278,147,48994,2,0,L|357:156,1,80,10|0,0:0|0:0,0:0:0:0:
405,164,49360,1,2,0:0:0:0:
405,164,49482,1,10,0:0:0:0:
449,248,49726,1,2,0:0:0:0:
378,313,49970,6,0,B|342:335|342:335|245:322,1,120,10|0,0:0|0:0,0:0:0:0:
236,285,50458,2,0,B|158:274|158:274|122:296,1,120,10|0,0:0|0:0,0:0:0:0:
78,316,50946,2,0,L|88:217,1,80,10|0,0:0|0:0,0:0:0:0:
94,189,51311,1,10,0:0:0:0:
94,189,51433,1,10,0:0:0:0:
56,100,51677,1,10,0:0:0:0:
143,60,51921,6,0,L|224:67,1,80,10|2,0:0|0:0,0:0:0:0:
305,17,52409,1,10,0:0:0:0:
372,84,52653,1,0,0:0:0:0:
313,160,52897,2,0,B|296:200|296:200|311:266,1,80,10|0,0:0|0:0,0:0:0:0:
317,282,53263,1,0,0:0:0:0:
317,282,53385,1,10,0:0:0:0:
252,353,53629,1,0,0:0:0:0:
172,299,53872,6,0,L|160:254,3,40,2|0|0|0,0:0|0:0|0:0|0:0,0:0:0:0:
142,217,54360,2,0,L|154:172,3,40,2|0|0|0,0:0|0:0|0:0|0:0,0:0:0:0:
135,132,54848,1,2,0:0:0:0:
209,71,55092,1,0,0:0:0:0:
289,123,55336,1,2,0:0:0:0:
361,59,55580,1,2,0:0:0:0:
433,142,55824,6,0,L|417:307,1,138.000002632141,10|0,0:0|0:0,0:0:0:0:
413,334,56311,2,0,P|367:316|318:324,1,92.0000017547608,10|0,0:0|0:0,0:0:0:0:
215,337,56799,2,0,P|169:341|127:323,1,92.0000017547608,10|0,0:0|0:0,0:0:0:0:
81,292,57165,1,2,0:0:0:0:
81,292,57287,1,10,0:0:0:0:
166,222,57531,1,2,0:0:0:0:
124,119,57775,6,0,L|18:126,2,92.0000017547608,10|2|10,0:0|0:0|0:0,0:0:0:0:
199,37,58507,1,0,0:0:0:0:
274,116,58750,2,0,B|266:165|266:165|270:206|270:206|256:270,1,138.000002632141,10|2,0:0|0:0,0:0:0:0:
244,305,59238,1,10,0:0:0:0:
342,354,59482,1,2,0:0:0:0:
438,300,59726,6,0,B|461:253|461:253|449:146,1,138.000002632141,10|0,0:0|0:0,0:0:0:0:
440,113,60214,2,0,L|346:122,1,92.0000017547608,10|0,0:0|0:0,0:0:0:0:
243,157,60702,2,0,L|151:148,1,92.0000017547608,10|0,0:0|0:0,0:0:0:0:
96,142,61068,1,2,0:0:0:0:
96,142,61189,1,10,0:0:0:0:
142,242,61433,1,2,0:0:0:0:
245,280,61677,6,0,L|312:286,2,61.3333345031739,8|0|0,0:0|0:0|0:0,0:0:0:0:
194,334,62165,2,0,L|102:320,1,92.0000017547608,8|0,0:0|0:0,0:0:0:0:
33,233,62653,1,8,0:0:0:0:
103,320,62897,1,0,0:0:0:0:
146,218,63141,2,0,L|145:121,1,92.0000017547608,8|0,0:0|0:0,0:0:0:0:
146,70,63507,1,0,0:0:0:0:
146,70,63629,6,0,B|196:85|196:85|294:68,1,138.000002632141,10|0,0:0|0:0,0:0:0:0:
333,86,64116,2,0,L|312:193,1,92.0000017547608,10|0,0:0|0:0,0:0:0:0:
380,266,64604,1,10,0:0:0:0:
288,328,64848,2,0,L|234:322,2,46.0000008773804,0|2|10,0:0|0:0|0:0,0:0:0:0:
386,378,65336,1,2,0:0:0:0:
380,266,65580,6,0,L|391:163,1,92.0000017547608,10|2,0:0|0:0,0:0:0:0:
457,86,66068,1,10,0:0:0:0:
367,22,66311,1,0,0:0:0:0:
296,106,66555,2,0,P|240:117|160:74,1,138.000002632141,10|2,0:0|0:0,0:0:0:0:
134,40,67043,1,10,0:0:0:0:
56,118,67287,1,2,0:0:0:0:
120,207,67531,6,0,L|222:217,1,92.0000017547608,10|0,0:0|0:0,0:0:0:0:
297,286,68019,2,0,L|388:277,1,92.0000017547608,10|0,0:0|0:0,0:0:0:0:
479,340,68507,1,10,0:0:0:0:
489,230,68750,1,0,0:0:0:0:
489,230,68872,1,2,0:0:0:0:
489,230,68994,1,10,0:0:0:0:
414,148,69238,1,2,0:0:0:0:
306,121,69482,6,0,L|205:130,1,92.0000017547608,8|2,0:0|0:0,0:0:0:0:
116,76,69970,1,8,0:0:0:0:
148,181,70214,1,2,0:0:0:0:
84,271,70458,1,8,0:0:0:0:
132,370,70702,1,8,0:0:0:0:
201,284,70946,2,0,L|300:300,1,92.0000017547608,8|0,0:0|0:0,0:0:0:0:
291,298,71433,6,0,L|282:196,1,83.9999974365235,2|0,0:0|0:0,0:0:0:0:
280,180,71921,2,0,L|272:96,1,83.9999974365235,2|0,0:0|0:0,0:0:0:0:
266,62,72409,2,0,L|201:71,1,55.9999982910157,2|0,0:0|0:0,0:0:0:0:
177,74,72775,1,2,0:0:0:0:
177,74,72897,1,2,0:0:0:0:
142,143,73141,1,2,0:0:0:0:
211,240,73385,6,0,L|316:228,2,100,10|2|10,0:0|0:0|0:0,0:0:0:0:
108,301,74116,1,0,0:0:0:0:
27,211,74360,2,0,B|9:144|9:144|34:58,1,150,10|2,0:0|0:0,0:0:0:0:
89,50,74848,2,0,P|144:63|197:46,1,100,10|2,0:0|0:0,0:0:0:0:
303,27,75336,6,0,P|351:16|399:29,1,100,10|0,0:0|0:0,0:0:0:0:
451,138,75824,2,0,P|396:151|343:134,1,100,10|0,0:0|0:0,0:0:0:0:
245,90,76311,2,0,L|255:252,1,150,10|2,0:0|0:0,0:0:0:0:
257,300,76799,1,10,0:0:0:0:
153,239,77043,1,2,0:0:0:0:
302,150,77287,6,0,L|380:160,2,66.6666666666667,8|0|0,0:0|0:0|0:0,0:0:0:0:
245,90,77775,2,0,L|106:98,1,100,8|0,0:0|0:0,0:0:0:0:
39,37,78263,1,8,0:0:0:0:
67,155,78507,2,0,L|46:271,1,100,0|8,0:0|0:0,0:0:0:0:
119,350,78994,1,0,0:0:0:0:
119,350,79116,1,0,0:0:0:0:
119,350,79238,6,0,L|290:329,1,150,10|0,0:0|0:0,0:0:0:0:
327,322,79726,2,0,L|433:304,1,100,10|0,0:0|0:0,0:0:0:0:
466,192,80214,1,10,0:0:0:0:
372,117,80458,2,0,L|383:64,2,50,0|2|10,0:0|0:0|0:0,0:0:0:0:
267,176,80946,1,2,0:0:0:0:
357,253,81189,6,0,L|470:245,1,100,10|2,0:0|0:0,0:0:0:0:
267,176,81677,2,0,L|111:189,1,150,10|0,0:0|0:0,0:0:0:0:
58,199,82165,1,10,0:0:0:0:
141,284,82409,2,0,L|130:344,2,50,0|0|10,0:0|0:0|0:0,0:0:0:0:
257,251,82897,1,2,0:0:0:0:
350,326,83141,6,0,L|456:338,1,100,10|0,0:0|0:0,0:0:0:0:
486,222,83629,2,0,L|386:233,1,100,10|0,0:0|0:0,0:0:0:0:
266,242,84116,2,0,B|278:178|278:178|270:146|270:146|281:81,1,150,10|2,0:0|0:0,0:0:0:0:
294,36,84604,1,10,0:0:0:0:
193,101,84848,1,2,0:0:0:0:
141,209,85092,6,0,L|144:284,2,66.6666666666667,2|0|0,0:0|0:0|0:0,0:0:0:0:
90,146,85580,2,0,P|157:130|218:238,1,200,2|2,0:0|0:0,0:0:0:0:
185,341,86311,1,0,0:0:0:0:
304,331,86555,2,0,L|405:346,1,100,2|0,0:0|0:0,0:0:0:0:
494,267,87043,6,0,L|484:175,1,80,2|0,0:0|0:0,0:0:0:0:
472,91,87531,1,2,0:0:0:0:
393,146,87775,2,0,B|345:154|345:154|298:140,1,80,0|2,0:0|0:0,0:0:0:0:
176,11,88507,1,14,0:0:0:0:
106,189,88994,6,0,L|111:280,2,80,2|0|2,0:0|0:0|0:0,0:0:0:0:
33,125,89726,1,0,0:0:0:0:
124,96,89970,2,0,B|173:109|173:109|290:90,1,160,2|2,0:0|0:0,0:0:0:0:
375,74,90702,1,0,0:0:0:0:
432,150,90946,6,0,L|425:235,1,80,2|0,0:0|0:0,0:0:0:0:
349,288,91433,1,2,0:0:0:0:
255,266,91677,2,0,P|281:225|317:206,1,80,0|2,0:0|0:0,0:0:0:0:
496,176,92409,1,14,0:0:0:0:
332,74,92897,6,0,L|247:85,1,80,2|0,0:0|0:0,0:0:0:0:
158,62,93385,1,2,0:0:0:0:
93,133,93629,1,0,0:0:0:0:
162,199,93872,2,0,P|200:252|159:361,1,160,2|2,0:0|0:0,0:0:0:0:
106,280,94604,1,0,0:0:0:0:
55,198,94848,6,0,L|66:86,1,80,2|0,0:0|0:0,0:0:0:0:
83,24,95336,1,2,0:0:0:0:
148,95,95580,2,0,L|247:88,1,80,0|2,0:0|0:0,0:0:0:0:
308,142,96068,2,0,L|387:147,1,80,0|2,0:0|0:0,0:0:0:0:
458,83,96555,1,0,0:0:0:0:
415,168,96799,6,0,P|408:213|427:272,1,80,2|0,0:0|0:0,0:0:0:0:
463,329,97287,1,2,0:0:0:0:
370,354,97531,2,0,L|268:344,1,80,0|2,0:0|0:0,0:0:0:0:
100,377,98263,1,2,0:0:0:0:
150,295,98507,1,0,0:0:0:0:
135,200,98750,6,0,B|120:138|120:138|142:42,1,160,2|2,0:0|0:0,0:0:0:0:
224,93,99482,2,0,P|270:104|389:77,1,160,2|0,0:0|0:0,0:0:0:0:
182,294,100702,5,2,0:0:0:0:
103,349,100946,1,2,0:0:0:0:
61,263,101189,1,2,0:0:0:0:
136,206,101433,1,2,0:0:0:0:
