osu file format v14

[General]
AudioFilename: Vicetone - Kaleidoscope ft. Grace Grundy.mp3
AudioLeadIn: 0
PreviewTime: 71436
Countdown: 0
SampleSet: Soft
StackLeniency: 0.7
Mode: 0
LetterboxInBreaks: 0
WidescreenStoryboard: 0

[Editor]
DistanceSpacing: 1.4
BeatDivisor: 4
GridSize: 4
TimelineZoom: 1.3

[Metadata]
Title:Kaleidoscope
TitleUnicode:Kaleidoscope
Artist:Vicetone
ArtistUnicode:Vicetone
Creator:Come[Back]Home
Version:Easy
Source:
Tags:cbh ruben den boer victor pool electro edm house dance
BeatmapID:1128183
BeatmapSetID:532417

[Difficulty]
HPDrainRate:3
CircleSize:2
OverallDifficulty:2
ApproachRate:3
SliderMultiplier:1
SliderTickRate:1

[Events]
//Background and Video events
0,0,"cropped-1366-768-266386.jpg",0,0
//Break Periods
//Storyboard Layer 0 (Background)
//Storyboard Layer 1 (Fail)
//Storyboard Layer 2 (Pass)
//Storyboard Layer 3 (Foreground)
//Storyboard Sound Samples

[TimingPoints]
1190,487.80487804878,4,2,1,70,1,0
16799,-100,4,2,2,70,0,0
55824,-100,4,2,1,70,0,1
71433,-100,4,2,1,70,0,0
73385,-100,4,2,1,70,0,1
87043,-100,4,2,2,70,0,0

[Colours]
Combo1 : 255,207,64
Combo2 : 159,255,64
Combo3 : 255,255,108
Combo4 : 179,102,102

[HitObjects]
112,312,1190,6,0,L|123:201,1,100,2|2,0:0|0:0,0:0:0:0:
220,112,2165,2,0,L|229:211,1,100,2|2,0:0|0:0,0:0:0:0:
243,351,3141,1,2,0:0:0:0:
352,263,3629,2,0,L|363:152,1,100,2|2,0:0|0:0,0:0:0:0:
471,75,4604,1,2,0:0:0:0:
341,22,5092,6,0,B|268:31|268:31|217:20|217:20|143:29,2,200,2|2|2,0:0|0:0|0:0,0:0:0:0:
447,112,7531,1,2,0:0:0:0:
369,228,8019,2,0,L|259:244,1,100,2|2,0:0|0:0,0:0:0:0:
152,319,8994,6,0,P|127:247|184:135,1,200,2|2,0:0|0:0,0:0:0:0:
314,105,10458,1,2,0:0:0:0:
395,219,10946,2,0,L|383:325,2,100,2|2|2,0:0|0:0|0:0,0:0:0:0:
498,124,12409,1,2,0:0:0:0:
374,58,12897,6,0,B|304:68|304:68|274:62|274:62|254:76|254:76|167:90,1,200,2|2,0:0|0:0,0:0:0:0:
55,24,14360,1,2,0:0:0:0:
45,163,14848,2,0,P|23:211|104:334,1,200,2|0,0:0|0:0,0:0:0:0:
225,359,16311,1,0,0:0:0:0:
338,277,16799,6,0,B|372:240|372:240|359:133,2,150,2|0|12,0:0|0:0|0:0,0:0:0:0:
203,314,18750,2,0,L|217:193,1,100,2|2,0:0|0:0,0:0:0:0:
136,98,19726,1,2,0:0:0:0:
266,47,20214,1,2,0:0:0:0:
378,130,20702,6,0,L|360:292,2,150,2|2|12,0:0|0:0|0:0,0:0:0:0:
481,35,22653,1,2,0:0:0:0:
341,51,23141,2,0,P|313:67|288:134,1,100,2|2,0:0|0:0,0:0:0:0:
349,252,24116,1,2,0:0:0:0:
232,329,24604,6,0,B|136:306|136:306|67:326,2,150,2|2|12,0:0|0:0|0:0,0:0:0:0:
369,358,26555,1,2,0:0:0:0:
465,256,27043,1,2,0:0:0:0:
331,213,27531,2,0,L|347:104,1,100,2|2,0:0|0:0,0:0:0:0:
207,140,28507,6,0,L|230:338,1,200,2|0,0:0|0:0,0:0:0:0:
368,360,29970,1,12,0:0:0:0:
445,243,30458,2,0,L|429:133,1,100,2|2,0:0|0:0,0:0:0:0:
319,58,31433,2,0,L|304:156,1,100,2|2,0:0|0:0,0:0:0:0:
217,268,32409,6,0,B|78:277|78:277|25:213,1,200,10|10,0:0|0:0,0:0:0:0:
9,93,33872,1,12,0:0:0:0:
142,50,34360,2,0,L|244:58,1,100,8|10,0:0|0:0,0:0:0:0:
308,181,35336,2,0,L|407:173,1,100,10|10,0:0|0:0,0:0:0:0:
441,309,36311,6,0,B|382:334|331:289|331:289|298:316|234:294,1,200,10|10,0:0|0:0,0:0:0:0:
129,233,37775,2,0,L|139:130,1,100,12|8,0:0|0:0,0:0:0:0:
52,23,38750,1,10,0:0:0:0:
189,59,39238,2,0,P|221:94|227:148,1,100,8|8,0:0|0:0,0:0:0:0:
185,280,40214,6,0,P|259:280|335:227,2,150,10|0|12,0:0|0:0|0:0,0:0:0:0:
62,212,42165,2,0,P|95:173|148:148,1,100,8|10,0:0|0:0,0:0:0:0:
255,73,43141,2,0,L|370:80,1,100,10|8,0:0|0:0,0:0:0:0:
435,193,44116,6,0,B|428:252|428:252|432:290|432:290|425:360,2,150,10|2|12,0:0|0:0|0:0,0:0:0:0:
335,94,46068,1,2,0:0:0:0:
200,132,46555,2,0,L|134:124,1,50,0|2,0:0|0:0,0:0:0:0:
475,255,48019,6,0,L|464:140,2,100,10|10|10,0:0|0:0|0:0,0:0:0:0:
353,325,49482,1,0,0:0:0:0:
214,306,49970,2,0,B|228:200|228:200|213:96,1,200,10|10,0:0|0:0,0:0:0:0:
92,39,51433,1,0,0:0:0:0:
48,171,51921,6,0,L|58:278,1,100,10|10,0:0|0:0,0:0:0:0:
177,344,52897,2,0,P|195:306|191:240,1,100,10|0,0:0|0:0,0:0:0:0:
165,112,53872,2,0,P|164:64|187:13,1,100,2|2,0:0|0:0,0:0:0:0:
303,90,54848,2,0,L|414:85,1,100,2|2,0:0|0:0,0:0:0:0:
386,224,55824,6,0,L|174:240,1,200,10|10,0:0|0:0,0:0:0:0:
98,348,57287,1,10,0:0:0:0:
34,222,57775,2,0,L|47:121,1,100,10|10,0:0|0:0,0:0:0:0:
159,41,58750,2,0,P|212:37|274:51,1,100,10|10,0:0|0:0,0:0:0:0:
381,111,59726,6,0,B|371:189|371:189|379:226|379:226|364:325,1,200,10|10,0:0|0:0,0:0:0:0:
239,367,61189,1,10,0:0:0:0:
126,283,61677,2,0,L|116:177,1,100,8|8,0:0|0:0,0:0:0:0:
44,62,62653,1,8,0:0:0:0:
176,15,63141,1,8,0:0:0:0:
254,131,63629,6,0,B|308:153|308:153|390:130|390:130|448:155,1,200,10|10,0:0|0:0,0:0:0:0:
473,288,65092,1,10,0:0:0:0:
343,344,65580,2,0,P|330:299|350:227,1,100,10|10,0:0|0:0,0:0:0:0:
441,151,66555,2,0,P|449:102|436:54,1,100,10|10,0:0|0:0,0:0:0:0:
308,113,67531,6,0,L|96:131,1,200,10|10,0:0|0:0,0:0:0:0:
42,253,68994,1,10,0:0:0:0:
155,335,69482,2,0,L|262:324,1,100,8|8,0:0|0:0,0:0:0:0:
390,361,70458,1,8,0:0:0:0:
461,240,70946,1,8,0:0:0:0:
371,132,71433,5,2,0:0:0:0:
104,76,73385,6,0,L|116:197,1,100,10|10,0:0|0:0,0:0:0:0:
74,309,74360,1,10,0:0:0:0:
203,363,74848,1,10,0:0:0:0:
321,288,75336,6,0,P|317:244|196:147,1,200,10|10,0:0|0:0,0:0:0:0:
66,147,76799,1,10,0:0:0:0:
149,259,77287,2,0,L|142:364,2,100,8|8|8,0:0|0:0|0:0,0:0:0:0:
228,143,78750,1,8,0:0:0:0:
264,278,79238,6,0,B|343:292|343:292|388:278|388:278|467:294,1,200,10|10,0:0|0:0,0:0:0:0:
503,159,80702,1,10,0:0:0:0:
381,89,81189,2,0,L|270:103,1,100,10|10,0:0|0:0,0:0:0:0:
141,93,82165,2,0,P|139:125|185:189,1,100,10|10,0:0|0:0,0:0:0:0:
310,207,83141,6,0,P|274:279|165:325,1,200,10|10,0:0|0:0,0:0:0:0:
43,288,84604,1,10,0:0:0:0:
144,190,85092,2,0,L|138:85,1,100,2|2,0:0|0:0,0:0:0:0:
257,15,86068,1,2,0:0:0:0:
361,107,86555,1,2,0:0:0:0:
288,227,87043,6,0,L|123:212,2,150,2|0|14,0:0|0:0|0:0,0:0:0:0:
372,341,88994,1,2,0:0:0:0:
457,230,89482,2,0,L|440:124,1,100,2|2,0:0|0:0,0:0:0:0:
353,21,90458,1,2,0:0:0:0:
284,143,90946,6,0,B|239:175|239:175|124:160,2,150,2|0|14,0:0|0:0|0:0,0:0:0:0:
352,21,92897,1,2,0:0:0:0:
437,131,93385,2,0,L|431:231,1,100,2|2,0:0|0:0,0:0:0:0:
479,362,94360,1,2,0:0:0:0:
348,316,94848,6,0,B|281:304|281:304|213:312|213:312|145:300,1,200,2|2,0:0|0:0,0:0:0:0:
67,188,96311,1,2,0:0:0:0:
198,138,96799,2,0,L|189:25,2,100,2|2|2,0:0|0:0|0:0,0:0:0:0:
328,190,98263,1,2,0:0:0:0:
250,306,98750,5,2,0:0:0:0:
135,224,99238,2,0,L|148:158,1,50,2|2,0:0|0:0,0:0:0:0:
462,28,100702,2,0,L|436:190,1,150,2|2,0:0|0:0,0:0:0:0:
