osu file format v14

[General]
AudioFilename: Vicetone & Tony Igy - Astronomia 2014.mp3
AudioLeadIn: 0
PreviewTime: 66722
Countdown: 0
SampleSet: Soft
StackLeniency: 0.7
Mode: 0
LetterboxInBreaks: 0
WidescreenStoryboard: 0

[Editor]
Bookmarks: 98270
DistanceSpacing: 1.4
BeatDivisor: 4
GridSize: 4
TimelineZoom: 1

[Metadata]
Title:Astronomia 2014
TitleUnicode:Astronomia 2014
Artist:Vicetone & Tony Igy
ArtistUnicode:Vicetone & Tony Igy
Creator:Come[Back]Home
Version:Normal
Source:
Tags:cbh ruben den boer victor pool electro edm house
BeatmapID:800250
BeatmapSetID:360107

[Difficulty]
HPDrainRate:4
CircleSize:3.5
OverallDifficulty:4
ApproachRate:5
SliderMultiplier:1.2
SliderTickRate:1

[Events]
//Background and Video events
0,0,"17.jpg",0,0
//Break Periods
//Storyboard Layer 0 (Background)
//Storyboard Layer 1 (Fail)
//Storyboard Layer 2 (Pass)
//Storyboard Layer 3 (Foreground)
//Storyboard Sound Samples

[TimingPoints]
3032,476.190476190476,4,2,0,70,1,0
6841,-100,4,2,0,70,0,0
33508,-100,4,2,0,50,0,0
37317,-100,4,2,0,70,0,0
66841,-100,4,2,0,70,0,0
67793,-100,4,2,0,70,0,1
98270,-100,4,2,0,70,0,0
98746,-100,4,2,0,60,0,0
99222,-100,4,2,0,50,0,0
99698,-100,4,2,0,40,0,0
100174,-100,4,2,0,30,0,0
100651,-100,4,2,0,20,0,0
101127,-100,4,2,0,10,0,0

[Colours]
Combo1 : 128,64,64
Combo2 : 255,128,128
Combo3 : 0,128,128

[HitObjects]
112,316,6841,6,0,L|104:188,1,120,2|2,0:0|0:0,0:0:0:0:
152,128,7555,2,0,P|192:120|216:128,1,60,0|2,0:0|0:0,0:0:0:0:
256,288,8270,1,2,0:0:0:0:
400,316,8746,6,0,L|408:188,1,120,2|2,0:0|0:0,0:0:0:0:
360,128,9460,2,0,P|320:120|296:128,1,60,0|2,0:0|0:0,0:0:0:0:
256,288,10175,1,2,0:0:0:0:
100,348,10651,6,0,B|88:276|88:276|108:216,1,120,2|2,0:0|0:0,0:0:0:0:
176,188,11365,1,0,0:0:0:0:
256,164,11603,2,0,B|270:119|270:119|258:47,1,120,2|2,0:0|0:0,0:0:0:0:
404,136,12555,6,0,L|368:272,1,120,2|2,0:0|0:0,0:0:0:0:
308,304,13270,1,0,0:0:0:0:
232,340,13508,2,0,B|160:328|160:328|104:344,1,120,2|2,0:0|0:0,0:0:0:0:
56,184,14460,5,2,0:0:0:0:
168,60,14936,2,0,L|240:64,1,60,2|0,0:0|0:0,0:0:0:0:
272,136,15412,2,0,L|408:128,1,120,2|2,0:0|0:0,0:0:0:0:
476,272,16365,5,2,0:0:0:0:
324,340,16841,2,0,B|240:336,1,60,2|0,0:0|0:0,0:0:0:0:
200,280,17317,2,0,P|208:240|156:176,1,120,2|2,0:0|0:0,0:0:0:0:
8,112,18270,5,2,0:0:0:0:
164,56,18746,2,0,P|200:52|228:56,1,60,2|0,0:0|0:0,0:0:0:0:
280,116,19222,2,0,P|344:128|416:104,1,120,2|2,0:0|0:0,0:0:0:0:
480,260,20174,5,2,0:0:0:0:
328,332,20651,2,0,B|288:336|288:336|260:328,1,60,2|0,0:0|0:0,0:0:0:0:
224,260,21127,2,0,B|204:254|204:254|164:258,1,60,2|0,0:0|0:0,0:0:0:0:
88,292,21603,2,0,P|80:260|88:224,1,60,2|0,0:0|0:0,0:0:0:0:
121,158,22079,6,0,L|253:146,1,120,0|0,1:0|1:0,0:0:0:0:
391,220,23031,2,0,P|375:168|415:108,1,120,0|0,1:0|1:0,0:0:0:0:
464,272,23984,6,0,P|432:300|356:300,1,120,0|0,1:0|1:0,0:0:0:0:
244,176,24936,2,0,P|185:170|137:204,1,120,0|0,1:0|1:0,0:0:0:0:
24,332,25889,6,0,L|36:204,1,120,0|0,1:0|1:0,0:0:0:0:
132,76,26841,2,0,B|140:148|140:148|184:176,1,120,0|0,1:0|1:0,0:0:0:0:
296,296,27793,6,0,B|336:270|336:270|344:198,1,120,0|0,1:0|1:0,0:0:0:0:
308,36,28746,1,0,1:0:0:0:
474,54,29222,1,0,1:0:0:0:
444,216,29698,6,0,P|428:276|476:340,1,120,0|2,1:0|0:0,0:0:0:0:
380,368,30412,1,2,0:0:0:0:
312,320,30651,2,0,L|164:328,1,120,0|2,1:0|0:0,0:0:0:0:
100,184,31603,6,0,B|176:180|176:180|224:148,1,120,0|2,1:0|0:0,0:0:0:0:
248,80,32317,1,2,0:0:0:0:
316,32,32555,2,0,L|456:44,1,120,0|2,1:0|0:0,0:0:0:0:
256,192,33508,12,0,36365,0:0:0:0:
148,316,37317,6,0,P|164:244|136:196,1,120,2|2,0:0|0:0,0:0:0:0:
76,156,38031,1,2,0:0:0:0:
132,92,38270,2,0,B|208:100|208:100|264:84,1,120,2|2,0:0|0:0,0:0:0:0:
408,32,39222,6,0,L|400:160,1,120,2|2,0:0|0:0,0:0:0:0:
460,212,39936,1,2,0:0:0:0:
428,288,40174,2,0,B|368:300|368:300|300:288,1,120,2|2,0:0|0:0,0:0:0:0:
256,224,40889,1,2,0:0:0:0:
201,289,41127,6,0,B|144:300|144:300|84:288,1,120,2|2,0:0|0:0,0:0:0:0:
40,216,41841,2,0,P|40:176|56:144,1,60,2|2,0:0|0:0,0:0:0:0:
108,100,42317,1,2,0:0:0:0:
192,116,42555,2,0,P|232:124|304:88,1,120,2|2,0:0|0:0,0:0:0:0:
456,24,43508,5,2,0:0:0:0:
416,100,43746,2,0,B|408:136|408:136|420:164,1,60,2|2,0:0|0:0,0:0:0:0:
480,216,44222,1,2,0:0:0:0:
436,288,44460,2,0,L|300:280,1,120,2|2,0:0|0:0,0:0:0:0:
152,312,45412,6,0,P|148:280|156:248,1,60,2|2,0:0|0:0,0:0:0:0:
228,212,45889,2,0,P|200:184|104:184,1,120,2|2,0:0|0:0,0:0:0:0:
264,84,46841,6,0,P|292:112|388:112,1,120,2|2,0:0|0:0,0:0:0:0:
440,80,47555,1,2,0:0:0:0:
484,152,47793,2,0,L|480:284,1,120,2|2,0:0|0:0,0:0:0:0:
408,316,48508,1,2,0:0:0:0:
328,348,48746,6,0,B|260:352|260:352|196:332,1,120,2|2,0:0|0:0,0:0:0:0:
164,264,49460,2,0,P|160:232|176:200,1,60,2|2,0:0|0:0,0:0:0:0:
248,172,49936,1,2,0:0:0:0:
180,124,50174,2,0,L|32:128,1,120,2|2,0:0|0:0,0:0:0:0:
196,28,51127,5,2,0:0:0:0:
268,68,51365,2,0,B|304:72|304:72|332:64,1,60,2|2,0:0|0:0,0:0:0:0:
404,28,51841,1,2,0:0:0:0:
456,92,52079,2,0,L|452:224,1,120,2|2,0:0|0:0,0:0:0:0:
324,320,53031,6,0,L|244:328,1,60,2|2,0:0|0:0,0:0:0:0:
188,292,53508,2,0,P|200:248|152:168,1,120,2|2,0:0|0:0,0:0:0:0:
64,52,54460,6,0,L|192:64,1,120,2|2,0:0|0:0,0:0:0:0:
244,124,55174,2,0,L|324:120,1,60,2|2,0:0|0:0,0:0:0:0:
448,204,55889,2,0,P|448:244|464:264,1,60,2|2,0:0|0:0,0:0:0:0:
424,336,56365,6,0,L|292:344,1,120,2|2,0:0|0:0,0:0:0:0:
272,268,57079,2,0,L|340:264,2,60,2|2|2,0:0|0:0|0:0,0:0:0:0:
212,328,57793,2,0,P|188:288|216:208,1,120,2|2,0:0|0:0,0:0:0:0:
344,128,58746,5,2,0:0:0:0:
280,72,58984,2,0,P|240:66|216:72,2,60,2|2|2,0:0|0:0|0:0,0:0:0:0:
248,148,59698,2,0,B|236:220|236:220|260:292,1,120,2|10,0:0|0:0,0:0:0:0:
404,332,60651,5,10,0:0:0:0:
472,180,61127,2,0,P|460:120|492:56,1,120,10|10,0:0|0:0,0:0:0:0:
424,8,61841,1,2,0:0:0:0:
360,64,62079,6,0,P|300:80|244:48,1,120,10|10,0:0|0:0,0:0:0:0:
112,152,63031,1,10,0:0:0:0:
224,280,63508,2,0,L|292:284,1,60,10|2,0:0|0:0,0:0:0:0:
348,336,63984,5,10,0:0:0:0:
256,192,64103,12,2,66841,0:0:0:0:
128,292,67793,6,0,L|256:300,1,120,2|10,0:0|0:0,0:0:0:0:
320,252,68508,1,2,0:0:0:0:
292,172,68746,2,0,L|277:35,1,120,2|10,0:0|0:0,0:0:0:0:
114,88,69698,6,0,L|126:224,1,120,2|10,0:0|0:0,0:0:0:0:
133,291,70412,1,2,0:0:0:0:
208,332,70651,2,0,B|284:340|284:340|332:328,1,120,2|10,0:0|0:0,0:0:0:0:
384,268,71365,1,2,0:0:0:0:
428,196,71603,6,0,P|408:136|436:88,1,120,2|10,0:0|0:0,0:0:0:0:
376,28,72317,2,0,L|296:36,1,60,2|2,0:0|0:0,0:0:0:0:
276,108,72793,1,2,0:0:0:0:
224,176,73031,2,0,L|88:164,1,120,10|2,0:0|0:0,0:0:0:0:
40,320,73984,5,10,0:0:0:0:
120,348,74222,2,0,B|164:352|164:352|192:344,1,60,2|2,0:0|0:0,0:0:0:0:
244,292,74698,1,2,0:0:0:0:
300,228,74936,2,0,B|352:220|352:220|432:240,1,120,10|2,0:0|0:0,0:0:0:0:
368,76,75889,6,0,L|304:84,1,60,10|2,0:0|0:0,0:0:0:0:
256,148,76365,2,0,L|132:140,1,120,2|10,0:0|0:0,0:0:0:0:
248,264,77317,6,0,L|388:256,1,120,2|10,0:0|0:0,0:0:0:0:
424,196,78031,1,2,0:0:0:0:
368,132,78270,2,0,B|279:137|279:137|232:112,1,120,2|10,0:0|0:0,0:0:0:0:
196,60,78984,1,2,0:0:0:0:
128,108,79222,6,0,L|152:232,1,120,2|10,0:0|0:0,0:0:0:0:
96,288,79936,1,2,0:0:0:0:
172,328,80174,2,0,L|240:324,1,60,2|2,0:0|0:0,0:0:0:0:
304,280,80651,2,0,P|296:232|352:176,1,120,10|2,0:0|0:0,0:0:0:0:
480,88,81603,5,10,0:0:0:0:
404,56,81841,2,0,L|332:60,1,60,2|2,0:0|0:0,0:0:0:0:
272,104,82317,1,2,0:0:0:0:
217,40,82555,2,0,B|136:48|136:48|96:82,1,120,10|6,0:0|0:0,0:0:0:0:
54,233,83508,6,0,L|46:301,1,60,10|2,0:0|0:0,0:0:0:0:
119,334,83984,2,0,L|255:322,1,120,2|10,0:0|0:0,0:0:0:0:
335,186,84936,6,0,P|343:254|395:290,1,120,2|10,0:0|0:0,0:0:0:0:
415,208,85651,2,0,L|423:132,1,60,2|2,0:0|0:0,0:0:0:0:
291,42,86365,2,0,L|297:101,1,60,10|2,0:0|0:0,0:0:0:0:
260,176,86841,6,0,B|196:184|196:184|136:164,1,120,2|10,0:0|0:0,0:0:0:0:
116,244,87555,2,0,L|52:224,2,60,2|2|2,0:0|0:0|0:0,0:0:0:0:
176,304,88270,2,0,L|304:288,1,120,10|2,0:0|0:0,0:0:0:0:
400,156,89222,5,10,0:0:0:0:
344,92,89460,2,0,L|276:96,2,60,2|2|2,0:0|0:0|0:0,0:0:0:0:
320,172,90174,2,0,P|336:208|416:232,1,120,10|0,0:0|1:0,0:0:0:0:
284,348,91127,5,10,0:0:0:0:
140,264,91603,2,0,B|128:200|128:200|144:136,1,120,0|10,1:0|0:0,0:0:0:0:
208,96,92317,1,2,0:0:0:0:
276,148,92555,6,0,P|324:160|396:120,1,120,0|10,1:0|0:0,0:0:0:0:
488,264,93508,1,0,1:0:0:0:
348,356,93984,2,0,L|264:344,1,60,10|2,0:0|0:0,0:0:0:0:
204,356,94460,6,0,B|198:283|257:259|282:261|282:261|270:190|209:170|209:170|196:124|217:82|266:74|266:74|295:88|335:77|353:42,1,480,0|0,1:0|1:0,0:0:0:0:
472,164,96841,2,0,L|464:295,1,120,8|0,0:0|1:0,0:0:0:0:
302,328,97793,1,8,0:0:0:0:
256,192,98270,12,0,101603,0:0:0:0:
