osu file format v14

[General]
AudioFilename: Vicetone & Tony Igy - Astronomia 2014.mp3
AudioLeadIn: 0
PreviewTime: 66722
Countdown: 0
SampleSet: Soft
StackLeniency: 0.7
Mode: 0
LetterboxInBreaks: 0
WidescreenStoryboard: 0

[Editor]
Bookmarks: 98270
DistanceSpacing: 1.6
BeatDivisor: 4
GridSize: 4
TimelineZoom: 1

[Metadata]
Title:Astronomia 2014
TitleUnicode:Astronomia 2014
Artist:Vicetone & Tony Igy
ArtistUnicode:Vicetone & Tony Igy
Creator:Come[Back]Home
Version:Insane
Source:
Tags:cbh ruben den boer victor pool electro edm house
BeatmapID:791636
BeatmapSetID:360107

[Difficulty]
HPDrainRate:6.5
CircleSize:4
OverallDifficulty:8
ApproachRate:8.5
SliderMultiplier:1.8
SliderTickRate:1

[Events]
//Background and Video events
0,0,"17.jpg",0,0
//Break Periods
//Storyboard Layer 0 (Background)
//Storyboard Layer 1 (Fail)
//Storyboard Layer 2 (Pass)
//Storyboard Layer 3 (Foreground)
//Storyboard Sound Samples

[TimingPoints]
3032,476.190476190476,4,2,0,70,1,0
6841,-117.647058823529,4,2,0,70,0,0
37317,-100,4,2,0,70,0,0
67793,-86.9565217391304,4,2,0,70,0,1
98270,-86.9565217391304,4,2,0,70,0,0
98746,-86.9565217391304,4,2,0,60,0,0
99222,-86.9565217391304,4,2,0,50,0,0
99698,-86.9565217391304,4,2,0,40,0,0
100174,-86.9565217391304,4,2,0,30,0,0
100651,-86.9565217391304,4,2,0,20,0,0
101127,-86.9565217391304,4,2,0,10,0,0

[Colours]
Combo1 : 128,64,64
Combo2 : 255,128,128
Combo3 : 0,128,128

[HitObjects]
88,324,6841,5,2,0:0:0:0:
240,220,7317,1,2,0:0:0:0:
329,240,7555,1,0,0:0:0:0:
228,104,7793,2,0,L|60:120,1,153.000002918243,2|2,0:0|0:0,0:0:0:0:
156,284,8746,5,2,0:0:0:0:
300,168,9222,2,0,L|303:253,1,76.5000014591217,2|0,0:0|0:0,0:0:0:0:
392,112,9698,2,0,B|367:69|316:60|316:60|388:24,1,153.000002918243,2|2,0:0|0:0,0:0:0:0:
184,16,10651,5,2,0:0:0:0:
132,192,11127,1,2,0:0:0:0:
96,108,11365,1,0,0:0:0:0:
104,312,11603,2,0,L|280:296,1,153.000002918243,2|2,0:0|0:0,0:0:0:0:
336,132,12555,5,2,0:0:0:0:
376,312,13031,2,0,P|334:315|296:295,1,76.5000014591217,2|0,0:0|0:0,0:0:0:0:
448,244,13508,2,0,P|424:160|476:116,1,153.000002918243,2|2,0:0|0:0,0:0:0:0:
300,40,14460,5,2,0:0:0:0:
136,120,14936,1,2,0:0:0:0:
228,136,15174,1,0,0:0:0:0:
52,260,15412,2,0,B|128:240|128:240|216:264,1,153.000002918243,2|2,0:0|0:0,0:0:0:0:
348,368,16365,5,2,0:0:0:0:
400,192,16841,2,0,L|407:280,1,76.5000014591217,2|0,0:0|0:0,0:0:0:0:
252,168,17317,2,0,L|268:4,1,153.000002918243,2|2,0:0|0:0,0:0:0:0:
112,112,18270,5,2,0:0:0:0:
180,280,18746,1,2,0:0:0:0:
272,272,18984,1,0,0:0:0:0:
108,356,19222,2,0,B|159:282|100:204,1,153.000002918243,2|2,0:0|0:0,0:0:0:0:
204,64,20174,5,2,0:0:0:0:
372,140,20651,1,2,0:0:0:0:
452,100,20889,1,0,0:0:0:0:
352,252,21127,1,2,0:0:0:0:
208,208,21365,1,2,0:0:0:0:
388,360,21603,1,2,0:0:0:0:
512,268,21841,1,2,0:0:0:0:
212,336,22079,6,0,P|148:340|96:308,1,114.750002188683,0|0,1:0|0:0,0:0:0:0:
85,274,22555,1,0,1:0:0:0:
115,187,22793,2,0,L|223:181,1,76.5000014591217,2|0,0:0|1:0,0:0:0:0:
216,29,23270,1,0,0:0:0:0:
302,60,23508,1,0,1:0:0:0:
280,220,23746,1,2,0:0:0:0:
132,80,23984,6,0,P|140:144|80:192,1,114.750002188683,0|0,1:0|0:0,0:0:0:0:
67,195,24460,1,0,1:0:0:0:
94,282,24698,2,0,L|200:277,1,76.5000014591217,2|0,0:0|1:0,0:0:0:0:
200,365,25174,1,0,0:0:0:0:
280,320,25412,1,0,1:0:0:0:
131,236,25651,1,2,0:0:0:0:
296,136,25889,6,0,B|360:144|360:144|424:128,1,114.750002188683,0|0,1:0|0:0,0:0:0:0:
428,90,26365,1,0,1:0:0:0:
505,139,26603,2,0,L|501:248,1,76.5000014591217,2|0,0:0|1:0,0:0:0:0:
410,214,27079,1,0,0:0:0:0:
428,304,27317,1,0,1:0:0:0:
280,252,27555,1,2,0:0:0:0:
408,344,27793,6,0,L|288:352,1,114.750002188683,0|0,1:0|0:0,0:0:0:0:
248,341,28270,1,0,1:0:0:0:
169,293,28508,2,0,B|178:250|178:250|171:187,1,76.5000014591217,2|0,0:0|1:0,0:0:0:0:
78,30,28984,1,0,0:0:0:0:
48,117,29222,1,0,1:0:0:0:
204,72,29460,1,2,0:0:0:0:
43,164,29698,6,0,L|47:244,1,76.5000014591217,0|0,1:0|0:0,0:0:0:0:
104,320,30174,1,2,0:0:0:0:
104,320,30412,1,2,0:0:0:0:
168,120,30651,2,0,L|152:200,1,76.5000014591217,0|0,1:0|0:0,0:0:0:0:
64,340,31127,1,2,0:0:0:0:
64,340,31365,1,2,0:0:0:0:
288,120,31603,6,0,L|252:192,1,76.5000014591217,0|0,1:0|0:0,0:0:0:0:
376,312,32079,1,2,0:0:0:0:
228,352,32317,1,2,0:0:0:0:
424,308,32555,5,0,1:0:0:0:
272,264,32793,1,0,0:0:0:0:
392,176,33031,1,2,0:0:0:0:
192,324,33270,1,2,0:0:0:0:
388,332,33508,5,0,1:0:0:0:
368,290,33627,1,0,0:0:0:0:
357,245,33746,1,2,0:0:0:0:
362,199,33865,1,0,0:0:0:0:
378,156,33984,1,0,1:0:0:0:
387,111,34103,1,0,0:0:0:0:
370,68,34222,1,2,0:0:0:0:
335,37,34341,1,0,0:0:0:0:
290,27,34460,5,0,1:0:0:0:
251,51,34579,1,0,0:0:0:0:
234,93,34698,1,2,0:0:0:0:
250,135,34817,1,0,0:0:0:0:
278,171,34936,1,0,1:0:0:0:
280,216,35055,1,0,0:0:0:0:
252,252,35174,1,2,0:0:0:0:
206,258,35293,1,0,0:0:0:0:
170,228,35412,5,0,1:0:0:0:
169,273,35531,1,0,0:0:0:0:
197,309,35651,1,2,0:0:0:0:
239,326,35770,1,0,0:0:0:0:
284,324,35889,1,0,1:0:0:0:
325,304,36008,1,0,0:0:0:0:
368,290,36127,1,2,0:0:0:0:
413,295,36246,1,0,0:0:0:0:
449,323,36365,5,2,0:0:0:0:
434,130,36603,1,2,0:0:0:0:
291,219,36841,1,2,0:0:0:0:
471,154,37079,1,2,0:0:0:0:
264,82,37317,6,0,B|207:88|207:88|106:60,1,135,2|0,0:0|0:0,0:0:0:0:
69,31,37793,1,2,0:0:0:0:
91,173,38031,1,2,0:0:0:0:
212,136,38270,2,0,P|193:185|248:259,1,135,2|0,0:0|0:0,0:0:0:0:
267,314,38746,2,0,L|298:210,1,90,2|0,0:0|0:0,0:0:0:0:
422,166,39222,6,0,B|366:141|366:141|360:66,1,135,2|0,0:0|0:0,0:0:0:0:
423,32,39698,1,2,0:0:0:0:
277,57,39936,1,2,0:0:0:0:
94,204,40174,2,0,L|261:219,1,135,2|0,0:0|0:0,0:0:0:0:
286,172,40651,1,2,0:0:0:0:
324,310,40889,1,2,0:0:0:0:
155,263,41127,6,0,P|177:213|128:126,1,135,2|0,0:0|0:0,0:0:0:0:
82,116,41603,1,2,0:0:0:0:
209,50,41841,5,2,0:0:0:0:
94,204,42079,1,2,0:0:0:0:
317,192,42317,1,2,0:0:0:0:
118,95,42555,1,2,0:0:0:0:
344,82,42793,1,2,0:0:0:0:
110,238,43031,6,0,P|91:290|149:355,1,135,2|0,0:0|0:0,0:0:0:0:
206,355,43508,1,2,0:0:0:0:
347,331,43746,5,2,0:0:0:0:
151,230,43984,1,2,0:0:0:0:
316,136,44222,1,2,0:0:0:0:
132,83,44460,1,2,0:0:0:0:
189,252,44698,1,2,0:0:0:0:
265,65,44936,6,0,P|314:49|397:101,1,135,2|0,0:0|0:0,0:0:0:0:
394,154,45412,1,2,0:0:0:0:
476,35,45651,1,2,0:0:0:0:
256,113,45889,2,0,B|189:122|189:122|101:103,1,135,2|0,0:0|0:0,0:0:0:0:
63,67,46365,2,0,L|97:190,1,90,2|0,0:0|0:0,0:0:0:0:
189,254,46841,6,0,P|123:248|79:303,1,135,2|0,0:0|0:0,0:0:0:0:
66,366,47317,1,2,0:0:0:0:
212,367,47555,1,2,0:0:0:0:
329,121,47793,2,0,B|325:162|325:162|339:218|339:218|336:267,1,135,2|0,0:0|0:0,0:0:0:0:
385,307,48270,1,2,0:0:0:0:
245,271,48508,1,2,0:0:0:0:
372,183,48746,6,0,P|405:142|367:57,1,135,2|0,0:0|0:0,0:0:0:0:
317,40,49222,1,2,0:0:0:0:
191,110,49460,5,2,0:0:0:0:
382,225,49698,1,2,0:0:0:0:
178,294,49936,1,2,0:0:0:0:
233,105,50174,1,2,0:0:0:0:
306,319,50412,1,2,0:0:0:0:
397,186,50651,6,0,P|382:132|439:60,1,135,2|0,0:0|0:0,0:0:0:0:
493,64,51127,1,2,0:0:0:0:
303,202,51365,5,2,0:0:0:0:
479,280,51603,1,2,0:0:0:0:
460,78,51841,1,2,0:0:0:0:
369,288,52079,1,2,0:0:0:0:
286,157,52317,1,2,0:0:0:0:
229,289,52555,6,0,B|181:298|181:298|137:285,1,90,2|0,0:0|0:0,0:0:0:0:
93,232,52912,1,0,0:0:0:0:
93,232,53031,1,2,0:0:0:0:
183,119,53270,1,2,0:0:0:0:
347,286,53508,2,0,B|335:234|335:234|379:140,1,135,2|0,0:0|0:0,0:0:0:0:
431,123,53984,2,0,L|323:85,1,90,2|0,0:0|0:0,0:0:0:0:
170,194,54460,6,0,L|285:150,1,90,2|0,0:0|0:0,0:0:0:0:
276,93,54817,1,0,0:0:0:0:
276,93,54936,1,2,0:0:0:0:
353,214,55174,1,2,0:0:0:0:
465,31,55412,2,0,P|446:88|490:153,1,135,2|0,0:0|0:0,0:0:0:0:
481,221,55889,2,0,B|432:212|432:212|393:225,1,90,2|2,0:0|0:0,0:0:0:0:
132,334,56365,6,0,B|181:343|181:343|244:320,1,90,2|0,0:0|0:0,0:0:0:0:
260,270,56722,1,0,0:0:0:0:
260,270,56841,1,2,0:0:0:0:
183,148,57079,5,2,0:0:0:0:
389,103,57317,1,2,0:0:0:0:
160,60,57555,1,2,0:0:0:0:
283,237,57793,1,2,0:0:0:0:
334,23,58031,1,2,0:0:0:0:
189,195,58270,6,0,P|141:208|63:160,1,135,2|0,0:0|0:0,0:0:0:0:
50,100,58746,1,2,0:0:0:0:
39,307,58984,5,2,0:0:0:0:
219,361,59222,1,2,0:0:0:0:
145,125,59460,1,2,0:0:0:0:
134,329,59698,1,2,0:0:0:0:
45,186,59936,1,2,0:0:0:0:
257,268,60174,6,0,P|309:272|361:256,1,90,10|2,0:0|0:0,0:0:0:0:
384,124,60651,1,10,0:0:0:0:
482,229,60889,1,2,0:0:0:0:
288,163,61127,5,10,0:0:0:0:
443,63,61365,1,2,0:0:0:0:
485,276,61603,2,0,B|435:286|435:286|394:274,1,90,10|2,0:0|0:0,0:0:0:0:
190,141,62079,6,0,L|194:230,1,90,10|2,0:0|0:0,0:0:0:0:
382,131,62555,1,10,0:0:0:0:
288,309,62793,1,2,0:0:0:0:
87,327,63031,5,10,0:0:0:0:
282,226,63270,1,2,0:0:0:0:
101,144,63508,2,0,B|153:150|153:150|201:137,1,90,10|2,0:0|0:0,0:0:0:0:
283,30,63984,5,10,0:0:0:0:
379,209,64222,1,2,0:0:0:0:
458,46,64460,2,0,B|449:98|449:98|468:144,1,90,2|2,0:0|0:0,0:0:0:0:
508,269,64936,5,10,0:0:0:0:
285,327,65174,1,2,0:0:0:0:
348,113,65412,2,0,P|356:167|337:210,1,90,2|2,0:0|0:0,0:0:0:0:
203,232,65889,5,10,0:0:0:0:
401,304,66127,1,2,0:0:0:0:
350,88,66365,2,0,L|245:98,1,90,2|2,0:0|0:0,0:0:0:0:
124,50,66841,5,2,0:0:0:0:
162,294,67079,1,2,0:0:0:0:
388,106,67317,1,2,0:0:0:0:
146,177,67555,1,2,0:0:0:0:
432,251,67793,6,0,B|362:241|362:241|274:275,1,155.250002961159,6|0,0:0|0:0,0:0:0:0:
264,352,68270,1,10,0:0:0:0:
260,186,68508,1,2,0:0:0:0:
80,42,68746,2,0,P|97:100|31:169,1,155.250002961159,2|0,0:0|0:0,0:0:0:0:
39,249,69222,2,0,L|214:244,1,155.250002961159,10|0,0:0|0:0,0:0:0:0:
246,308,69698,6,0,B|224:237|224:237|251:137,1,155.250002961159,2|0,0:0|0:0,0:0:0:0:
326,142,70174,1,10,0:0:0:0:
176,71,70412,1,2,0:0:0:0:
64,276,70651,2,0,P|119:301|199:234,1,155.250002961159,2|0,0:0|0:0,0:0:0:0:
152,181,71127,1,10,0:0:0:0:
298,258,71365,1,2,0:0:0:0:
442,53,71603,6,0,B|405:135|405:135|442:228,1,155.250002961159,2|0,0:0|0:0,0:0:0:0:
487,253,72079,1,10,0:0:0:0:
338,326,72317,5,2,0:0:0:0:
501,297,72555,1,2,0:0:0:0:
309,127,72793,1,2,0:0:0:0:
168,313,73031,1,10,0:0:0:0:
309,127,73270,1,2,0:0:0:0:
146,79,73508,6,0,P|197:133|280:120,1,155.250002961159,2|0,0:0|0:0,0:0:0:0:
226,58,73984,1,10,0:0:0:0:
291,210,74222,5,2,0:0:0:0:
424,80,74460,1,2,0:0:0:0:
186,58,74698,1,2,0:0:0:0:
231,294,74936,1,10,0:0:0:0:
384,164,75174,1,2,0:0:0:0:
87,155,75412,6,0,B|63:223|63:223|91:324,1,155.250002961159,2|0,0:0|0:0,0:0:0:0:
159,341,75889,1,10,0:0:0:0:
317,294,76127,1,2,0:0:0:0:
228,54,76365,2,0,P|209:113|286:170,1,155.250002961159,2|0,0:0|0:0,0:0:0:0:
346,203,76841,2,0,L|214:243,1,103.500001974106,10|0,0:0|0:0,0:0:0:0:
110,326,77317,6,0,P|129:277|45:208,1,155.250002961159,2|0,0:0|0:0,0:0:0:0:
3,260,77793,1,10,0:0:0:0:
131,364,78031,1,2,0:0:0:0:
294,332,78270,2,0,B|315:237|315:237|300:181,1,155.250002961159,2|0,0:0|0:0,0:0:0:0:
223,148,78746,1,10,0:0:0:0:
384,112,78984,1,2,0:0:0:0:
149,58,79222,6,0,L|187:216,1,155.250002961159,2|0,0:0|0:0,0:0:0:0:
138,276,79698,1,10,0:0:0:0:
301,300,79936,5,2,0:0:0:0:
383,75,80174,1,2,0:0:0:0:
438,260,80412,1,2,0:0:0:0:
227,228,80651,1,10,0:0:0:0:
462,119,80889,1,2,0:0:0:0:
263,61,81127,6,0,B|203:79|203:79|96:55,1,155.250002961159,2|0,0:0|0:0,0:0:0:0:
41,16,81603,1,10,0:0:0:0:
68,179,81841,5,2,0:0:0:0:
182,298,82079,2,0,B|240:286|240:286|319:301,1,103.500001974106,2|2,0:0|0:0,0:0:0:0:
351,341,82436,1,0,0:0:0:0:
420,295,82555,2,0,L|425:230,1,51.7500009870529,10|0,0:0|0:0,0:0:0:0:
362,187,82793,2,0,L|355:132,1,51.7500009870529,2|0,0:0|0:0,0:0:0:0:
382,57,83031,6,0,P|339:90|267:58,1,103.500001974106,6|0,0:0|0:0,0:0:0:0:
222,39,83389,1,0,0:0:0:0:
222,39,83508,1,10,0:0:0:0:
108,159,83746,1,2,0:0:0:0:
331,283,83984,2,0,L|172:307,1,155.250002961159,2|0,0:0|0:0,0:0:0:0:
103,343,84460,2,0,P|96:289|132:237,1,103.500001974106,10|0,0:0|0:0,0:0:0:0:
246,141,84936,6,0,P|220:96|137:88,1,103.500001974106,2|0,0:0|0:0,0:0:0:0:
105,125,85293,1,0,0:0:0:0:
105,125,85412,1,10,0:0:0:0:
177,306,85651,1,2,0:0:0:0:
340,242,85889,2,0,B|324:157|324:157|363:76,1,155.250002961159,2|0,0:0|0:0,0:0:0:0:
431,65,86365,1,10,0:0:0:0:
266,81,86603,1,2,0:0:0:0:
427,284,86841,6,0,P|356:271|307:316,1,103.500001974106,2|0,0:0|0:0,0:0:0:0:
380,351,87198,1,0,0:0:0:0:
380,351,87317,1,10,0:0:0:0:
437,195,87555,5,2,0:0:0:0:
198,238,87793,1,2,0:0:0:0:
465,359,88031,1,2,0:0:0:0:
351,108,88270,1,10,0:0:0:0:
274,315,88508,1,2,0:0:0:0:
257,56,88746,6,0,B|203:77|203:77|110:69,1,103.500001974106,2|0,0:0|0:0,0:0:0:0:
92,21,89103,1,0,0:0:0:0:
92,21,89222,1,10,0:0:0:0:
13,188,89460,5,2,0:0:0:0:
175,33,89698,1,2,0:0:0:0:
231,275,89936,1,2,0:0:0:0:
156,73,90174,1,10,0:0:0:0:
106,342,90412,1,2,0:0:0:0:
279,103,90651,6,0,B|338:87|338:87|388:99,1,103.500001974106,0|2,1:0|0:0,0:0:0:0:
433,248,91127,1,10,0:0:0:0:
501,97,91365,1,2,0:0:0:0:
312,288,91603,6,0,L|202:282,1,103.500001974106,0|2,1:0|0:0,0:0:0:0:
112,147,92079,1,10,0:0:0:0:
70,307,92317,1,2,0:0:0:0:
54,84,92555,6,0,P|114:61|160:77,1,103.500001974106,0|2,1:0|0:0,0:0:0:0:
218,221,93031,1,10,0:0:0:0:
330,99,93270,1,2,0:0:0:0:
427,348,93508,6,0,B|418:298|418:298|440:244,1,103.500001974106,0|2,1:0|0:0,0:0:0:0:
288,176,93984,1,10,0:0:0:0:
450,146,94222,1,2,0:0:0:0:
152,64,94460,5,0,1:0:0:0:
170,112,94579,1,0,0:0:0:0:
176,163,94698,1,0,0:0:0:0:
172,214,94817,1,0,0:0:0:0:
146,259,94936,1,0,1:0:0:0:
102,286,95055,1,0,0:0:0:0:
51,297,95174,1,0,0:0:0:0:
10,264,95293,1,0,0:0:0:0:
24,214,95412,5,0,1:0:0:0:
65,183,95531,1,0,0:0:0:0:
116,172,95651,1,0,0:0:0:0:
167,179,95770,1,0,0:0:0:0:
216,193,95889,1,0,1:0:0:0:
264,211,96008,1,0,0:0:0:0:
315,217,96127,1,0,0:0:0:0:
360,192,96246,1,0,0:0:0:0:
383,146,96365,5,0,1:0:0:0:
426,170,96484,1,0,0:0:0:0:
440,219,96603,1,0,0:0:0:0:
432,270,96722,1,0,0:0:0:0:
393,304,96841,1,0,1:0:0:0:
341,306,96960,1,0,0:0:0:0:
293,284,97079,1,0,0:0:0:0:
241,285,97198,1,0,0:0:0:0:
193,304,97317,5,0,1:0:0:0:
130,267,97436,1,0,0:0:0:0:
97,202,97555,1,0,0:0:0:0:
100,129,97674,1,0,0:0:0:0:
140,68,97793,1,0,1:0:0:0:
208,43,97912,1,0,0:0:0:0:
279,50,98031,1,0,0:0:0:0:
336,95,98151,1,0,0:0:0:0:
256,192,98270,12,0,101603,0:0:0:0:
