osu file format v14

[General]
AudioFilename: Vicetone & Tony Igy - Astronomia 2014.mp3
AudioLeadIn: 0
PreviewTime: 66722
Countdown: 0
SampleSet: Soft
StackLeniency: 0.7
Mode: 0
LetterboxInBreaks: 0
WidescreenStoryboard: 0

[Editor]
Bookmarks: 98270
DistanceSpacing: 1.4
BeatDivisor: 4
GridSize: 4
TimelineZoom: 1

[Metadata]
Title:Astronomia 2014
TitleUnicode:Astronomia 2014
Artist:Vicetone & Tony Igy
ArtistUnicode:Vicetone & Tony Igy
Creator:Come[Back]Home
Version:Hard
Source:
Tags:cbh ruben den boer victor pool electro edm house
BeatmapID:791635
BeatmapSetID:360107

[Difficulty]
HPDrainRate:6
CircleSize:4
OverallDifficulty:6
ApproachRate:7
SliderMultiplier:1.6
SliderTickRate:1

[Events]
//Background and Video events
0,0,"17.jpg",0,0
//Break Periods
//Storyboard Layer 0 (Background)
//Storyboard Layer 1 (Fail)
//Storyboard Layer 2 (Pass)
//Storyboard Layer 3 (Foreground)
//Storyboard Sound Samples

[TimingPoints]
3032,476.190476190476,4,2,0,70,1,0
6841,-117.647058823529,4,2,0,70,0,0
35412,-117.647058823529,4,2,0,50,0,0
37317,-100,4,2,0,70,0,0
63984,-100,4,2,0,50,0,0
66841,-100,4,2,0,50,0,0
67793,-100,4,2,0,70,0,1
98270,-100,4,2,0,70,0,0
98746,-100,4,2,0,60,0,0
99222,-100,4,2,0,50,0,0
99698,-100,4,2,0,40,0,0
100174,-100,4,2,0,30,0,0
100651,-100,4,2,0,20,0,0
101127,-100,4,2,0,10,0,0

[Colours]
Combo1 : 128,64,64
Combo2 : 255,128,128
Combo3 : 0,128,128

[HitObjects]
128,310,6841,6,0,L|120:161,1,136.000002593994,2|2,0:0|0:0,0:0:0:0:
171,110,7555,1,0,0:0:0:0:
245,143,7793,2,0,B|309:149|309:149|392:131,1,136.000002593994,2|2,0:0|0:0,0:0:0:0:
358,295,8746,6,0,L|219:280,1,136.000002593994,2|2,0:0|0:0,0:0:0:0:
149,316,9460,1,0,0:0:0:0:
104,247,9698,1,2,0:0:0:0:
109,83,10174,1,2,0:0:0:0:
263,30,10651,6,0,L|398:39,1,136.000002593994,2|2,0:0|0:0,0:0:0:0:
427,115,11365,1,0,0:0:0:0:
364,166,11603,2,0,B|352:239|352:239|376:311,1,136.000002593994,2|2,0:0|0:0,0:0:0:0:
217,352,12555,6,0,L|59:342,1,136.000002593994,2|2,0:0|0:0,0:0:0:0:
28,281,13270,1,0,0:0:0:0:
84,220,13508,1,2,0:0:0:0:
85,56,13984,1,2,0:0:0:0:
247,45,14460,6,0,L|388:56,1,136.000002593994,2|2,0:0|0:0,0:0:0:0:
438,113,15174,1,0,0:0:0:0:
390,179,15412,2,0,B|299:172|299:172|254:203,1,136.000002593994,2|2,0:0|0:0,0:0:0:0:
173,335,16365,6,0,B|135:360|135:360|45:353,1,136.000002593994,2|2,0:0|0:0,0:0:0:0:
18,276,17079,1,0,0:0:0:0:
81,224,17317,1,2,0:0:0:0:
45,64,17793,1,2,0:0:0:0:
206,37,18270,6,0,P|188:81|227:158,1,136.000002593994,2|2,0:0|0:0,0:0:0:0:
305,160,18984,1,0,0:0:0:0:
263,230,19222,2,0,L|99:250,1,136.000002593994,2|2,0:0|0:0,0:0:0:0:
266,330,20174,6,0,L|415:337,1,136.000002593994,2|2,0:0|0:0,0:0:0:0:
473,297,20889,1,0,0:0:0:0:
432,226,21127,2,0,P|430:188|442:156,1,68.0000012969971,2|2,0:0|0:0,0:0:0:0:
482,90,21603,2,0,P|492:57|489:24,1,68.0000012969971,2|2,0:0|0:0,0:0:0:0:
411,48,22079,6,0,P|350:60|294:34,1,102.000001945496,0|0,1:0|0:0,0:0:0:0:
276,34,22555,1,0,1:0:0:0:
196,53,22793,2,0,L|188:146,1,68.0000012969971,2|0,0:0|1:0,0:0:0:0:
134,180,23270,1,0,0:0:0:0:
161,256,23508,1,0,1:0:0:0:
226,304,23746,1,2,0:0:0:0:
341,336,23984,6,0,B|328:280|328:280|350:228,1,102.000001945496,0|0,1:0|0:0,0:0:0:0:
380,218,24460,1,0,1:0:0:0:
346,143,24698,2,0,L|249:147,1,68.0000012969971,2|0,0:0|1:0,0:0:0:0:
230,211,25174,1,0,0:0:0:0:
202,134,25412,1,0,1:0:0:0:
145,192,25651,1,2,0:0:0:0:
72,43,25889,6,0,P|88:89|59:140,1,102.000001945496,0|0,1:0|0:0,0:0:0:0:
36,163,26365,1,0,1:0:0:0:
52,242,26603,2,0,L|144:252,1,68.0000012969971,2|0,0:0|1:0,0:0:0:0:
135,329,27079,1,0,0:0:0:0:
198,277,27317,1,0,1:0:0:0:
184,196,27555,1,2,0:0:0:0:
342,127,27793,6,0,L|347:235,1,102.000001945496,0|0,1:0|0:0,0:0:0:0:
378,254,28270,1,0,1:0:0:0:
363,334,28508,2,0,B|328:342|328:342|268:334,1,68.0000012969971,2|0,0:0|1:0,0:0:0:0:
217,359,28984,1,0,0:0:0:0:
232,279,29222,1,0,1:0:0:0:
153,302,29460,1,2,0:0:0:0:
64,233,29698,6,0,P|62:192|74:163,1,68.0000012969971,0|0,1:0|0:0,0:0:0:0:
145,132,30174,1,2,0:0:0:0:
145,132,30412,1,2,0:0:0:0:
213,177,30651,2,0,B|252:179|252:179|294:167,1,68.0000012969971,0|0,1:0|0:0,0:0:0:0:
311,95,31127,1,2,0:0:0:0:
311,95,31365,1,2,0:0:0:0:
436,199,31603,6,0,B|441:237|441:237|431:272,1,68.0000012969971,0|0,1:0|0:0,0:0:0:0:
369,316,32079,1,2,0:0:0:0:
291,290,32317,1,2,0:0:0:0:
229,343,32555,2,0,L|152:349,1,68.0000012969971,0|0,1:0|0:0,0:0:0:0:
102,291,33031,1,2,0:0:0:0:
78,369,33270,1,2,0:0:0:0:
38,168,33508,6,0,L|42:126,3,34.0000006484985,0|0|2|0,1:0|0:0|0:0|0:0,0:0:0:0:
115,124,33984,2,0,L|120:91,3,34.0000006484985,0|0|2|0,1:0|0:0|0:0|0:0,0:0:0:0:
178,193,34460,2,0,L|185:142,3,34.0000006484985,0|0|2|0,1:0|0:0|0:0|0:0,0:0:0:0:
259,146,34936,2,0,L|263:113,3,34.0000006484985,0|0|2|0,1:0|0:0|0:0|0:0,0:0:0:0:
256,192,35412,12,0,36365,0:0:0:0:
155,302,37317,6,0,B|248:310|248:310|301:299,1,120,2|0,0:0|0:0,0:0:0:0:
307,259,37793,1,2,0:0:0:0:
248,163,38031,1,2,0:0:0:0:
322,78,38270,2,0,B|371:88|371:88|446:68,1,120,2|0,0:0|0:0,0:0:0:0:
484,101,38746,2,0,P|470:138|505:191,1,80,2|0,0:0|0:0,0:0:0:0:
486,286,39222,6,0,L|364:300,1,120,2|0,0:0|0:0,0:0:0:0:
333,344,39698,1,2,0:0:0:0:
244,275,39936,1,2,0:0:0:0:
147,323,40174,2,0,P|135:279|172:192,1,120,2|0,0:0|0:0,0:0:0:0:
203,179,40651,1,2,0:0:0:0:
101,131,40889,1,2,0:0:0:0:
254,58,41127,6,0,B|298:63|298:63|341:55|341:55|411:60,1,120,2|0,0:0|0:0,0:0:0:0:
413,95,41603,1,2,0:0:0:0:
353,189,41841,6,0,P|348:232|365:268,1,80,2|2,0:0|0:0,0:0:0:0:
462,314,42317,1,2,0:0:0:0:
365,371,42555,1,2,0:0:0:0:
260,330,42793,1,2,0:0:0:0:
224,165,43031,6,0,P|216:208|122:229,1,120,2|0,0:0|0:0,0:0:0:0:
100,218,43508,1,2,0:0:0:0:
169,130,43746,6,0,L|266:116,1,80,2|2,0:0|0:0,0:0:0:0:
383,160,44222,1,2,0:0:0:0:
298,233,44460,1,2,0:0:0:0:
405,267,44698,1,2,0:0:0:0:
241,338,44936,6,0,B|185:343|185:343|97:325,1,120,2|0,0:0|0:0,0:0:0:0:
82,291,45412,1,2,0:0:0:0:
154,205,45651,1,2,0:0:0:0:
255,157,45889,2,0,P|308:151|374:194,1,120,2|0,0:0|0:0,0:0:0:0:
387,233,46365,2,0,P|389:279|364:325,1,80,2|0,0:0|0:0,0:0:0:0:
471,251,46841,6,0,L|477:121,1,120,2|0,0:0|0:0,0:0:0:0:
463,76,47317,1,2,0:0:0:0:
364,127,47555,1,2,0:0:0:0:
294,215,47793,2,0,P|255:219|183:157,1,120,2|0,0:0|0:0,0:0:0:0:
200,119,48270,1,2,0:0:0:0:
88,112,48508,1,2,0:0:0:0:
47,216,48746,6,0,P|78:263|51:336,1,120,2|0,0:0|0:0,0:0:0:0:
21,357,49222,1,2,0:0:0:0:
132,369,49460,6,0,L|220:365,1,80,2|2,0:0|0:0,0:0:0:0:
284,280,49936,1,2,0:0:0:0:
329,382,50174,1,2,0:0:0:0:
395,292,50412,1,2,0:0:0:0:
264,186,50651,6,0,L|131:195,1,120,2|0,0:0|0:0,0:0:0:0:
117,243,51127,1,2,0:0:0:0:
50,152,51365,6,0,P|41:111|53:60,1,80,2|2,0:0|0:0,0:0:0:0:
147,24,51841,1,2,0:0:0:0:
252,62,52079,1,2,0:0:0:0:
356,23,52317,1,2,0:0:0:0:
404,183,52555,6,0,P|398:229|416:264,1,80,2|0,0:0|0:0,0:0:0:0:
411,258,52912,1,0,0:0:0:0:
411,258,53031,1,2,0:0:0:0:
340,345,53270,1,2,0:0:0:0:
268,259,53508,2,0,B|229:257|229:257|186:267|186:267|113:264,1,120,2|0,0:0|0:0,0:0:0:0:
109,226,53984,2,0,P|122:187|102:130,1,80,2|0,0:0|0:0,0:0:0:0:
42,64,54460,6,0,L|147:32,1,80,2|0,0:0|0:0,0:0:0:0:
118,40,54817,1,0,0:0:0:0:
118,40,54936,1,2,0:0:0:0:
206,110,55174,1,2,0:0:0:0:
314,82,55412,2,0,B|306:131|306:131|324:203,1,120,2|0,0:0|0:0,0:0:0:0:
368,232,55889,1,2,0:0:0:0:
478,211,56127,1,2,0:0:0:0:
361,332,56365,6,0,L|220:328,1,120,2|0,0:0|0:0,0:0:0:0:
205,285,56841,1,2,0:0:0:0:
108,341,57079,6,0,P|93:297|100:252,1,80,2|2,0:0|0:0,0:0:0:0:
175,185,57555,1,2,0:0:0:0:
66,157,57793,1,2,0:0:0:0:
147,80,58031,1,2,0:0:0:0:
275,189,58270,6,0,B|316:197|316:197|400:178,1,120,2|0,0:0|0:0,0:0:0:0:
423,133,58746,1,2,0:0:0:0:
470,234,58984,6,0,L|461:324,1,80,2|2,0:0|0:0,0:0:0:0:
361,363,59460,1,2,0:0:0:0:
258,317,59698,1,2,0:0:0:0:
152,354,59936,1,2,0:0:0:0:
66,281,60174,6,0,L|74:183,3,80,10|2|10|2,0:0|0:0|0:0|0:0,0:0:0:0:
171,148,61127,2,0,B|166:198|166:198|184:238,3,80,10|2|10|2,0:0|0:0|0:0|0:0,0:0:0:0:
275,281,62079,5,10,0:0:0:0:
385,262,62317,1,2,0:0:0:0:
458,346,62555,1,10,0:0:0:0:
495,240,62793,1,2,0:0:0:0:
421,155,63031,2,0,P|422:103|441:74,3,80,10|2|10|2,0:0|0:0|0:0|0:0,0:0:0:0:
256,192,63984,12,0,66841,0:0:0:0:
109,340,67793,6,0,P|134:285|102:231,1,120,2|0,0:0|0:0,0:0:0:0:
56,212,68270,1,10,0:0:0:0:
142,140,68508,1,2,0:0:0:0:
251,162,68746,2,0,B|293:171|293:171|392:151,1,120,2|0,0:0|0:0,0:0:0:0:
406,114,69222,2,0,P|398:160|457:208,1,120,10|0,0:0|0:0,0:0:0:0:
459,261,69698,6,0,L|328:237,1,120,2|0,0:0|0:0,0:0:0:0:
293,268,70174,1,10,0:0:0:0:
199,329,70412,1,2,0:0:0:0:
88,309,70651,2,0,B|74:263|74:263|95:177,1,120,2|0,0:0|0:0,0:0:0:0:
143,174,71127,2,0,L|133:68,1,80,10|2,0:0|0:0,0:0:0:0:
287,25,71603,6,0,L|241:146,1,120,2|0,0:0|0:0,0:0:0:0:
265,188,72079,1,10,0:0:0:0:
345,265,72317,6,0,P|396:271|433:261,1,80,2|2,0:0|0:0,0:0:0:0:
486,172,72793,1,2,0:0:0:0:
445,67,73031,1,10,0:0:0:0:
342,19,73270,1,2,0:0:0:0:
227,141,73508,6,0,P|249:96|212:27,1,120,2|0,0:0|0:0,0:0:0:0:
169,20,73984,1,10,0:0:0:0:
82,91,74222,6,0,L|94:184,1,80,2|2,0:0|0:0,0:0:0:0:
45,272,74698,1,2,0:0:0:0:
154,294,74936,1,10,0:0:0:0:
250,237,75174,1,2,0:0:0:0:
388,331,75412,6,0,L|382:203,1,120,2|0,0:0|0:0,0:0:0:0:
330,189,75889,2,0,L|341:108,1,80,10|2,0:0|0:0,0:0:0:0:
243,54,76365,2,0,B|158:61|158:61|105:40,1,120,2|0,0:0|0:0,0:0:0:0:
81,13,76841,2,0,L|94:124,1,80,10|0,0:0|0:0,0:0:0:0:
53,198,77317,6,0,P|101:183|160:234,1,120,2|0,0:0|0:0,0:0:0:0:
179,270,77793,1,10,0:0:0:0:
99,348,78031,1,2,0:0:0:0:
210,358,78270,2,0,L|336:350,1,120,2|0,0:0|0:0,0:0:0:0:
374,317,78746,1,10,0:0:0:0:
411,211,78984,1,2,0:0:0:0:
280,107,79222,6,0,B|218:114|218:114|148:98,1,120,2|0,0:0|0:0,0:0:0:0:
126,57,79698,1,10,0:0:0:0:
54,143,79936,6,0,L|60:233,1,80,2|2,0:0|0:0,0:0:0:0:
147,291,80412,1,2,0:0:0:0:
254,257,80651,1,10,0:0:0:0:
352,310,80889,1,2,0:0:0:0:
470,191,81127,6,0,P|483:245|452:304,1,120,2|0,0:0|0:0,0:0:0:0:
406,326,81603,1,10,0:0:0:0:
316,258,81841,6,0,B|309:215|309:215|322:177,1,80,2|2,0:0|0:0,0:0:0:0:
409,112,82317,1,2,0:0:0:0:
310,59,82555,2,0,L|260:63,3,40,10|0|2|0,0:0|0:0|0:0|0:0,0:0:0:0:
256,116,83031,6,0,L|155:108,1,80,2|0,0:0|0:0,0:0:0:0:
176,109,83389,1,0,0:0:0:0:
176,109,83508,1,10,0:0:0:0:
86,176,83746,1,2,0:0:0:0:
153,265,83984,2,0,P|201:283|278:257,1,120,2|0,0:0|0:0,0:0:0:0:
311,298,84460,2,0,L|296:186,1,80,10|0,0:0|0:0,0:0:0:0:
321,108,84936,6,0,L|417:122,1,80,2|0,0:0|0:0,0:0:0:0:
400,119,85293,1,0,0:0:0:0:
400,119,85412,1,10,0:0:0:0:
435,225,85651,1,2,0:0:0:0:
384,324,85889,2,0,P|312:332|263:296,1,120,2|0,0:0|0:0,0:0:0:0:
251,257,86365,1,10,0:0:0:0:
269,146,86603,1,2,0:0:0:0:
128,239,86841,6,0,B|143:188|143:188|124:109,1,120,2|0,0:0|0:0,0:0:0:0:
79,94,87317,1,10,0:0:0:0:
174,35,87555,6,0,L|271:45,1,80,2|2,0:0|0:0,0:0:0:0:
365,36,88031,1,2,0:0:0:0:
308,133,88270,1,10,0:0:0:0:
411,175,88508,1,2,0:0:0:0:
447,325,88746,6,0,L|326:341,1,120,2|0,0:0|0:0,0:0:0:0:
277,317,89222,1,10,0:0:0:0:
188,248,89460,6,0,P|190:291|164:327,1,80,2|2,0:0|0:0,0:0:0:0:
62,348,89936,1,2,0:0:0:0:
96,241,90174,1,10,0:0:0:0:
49,138,90412,1,2,0:0:0:0:
116,48,90651,6,0,B|164:52|164:52|197:43,3,80,0|2|10|2,1:0|0:0|0:0|0:0,0:0:0:0:
214,153,91603,2,0,B|244:144|244:144|292:148,3,80,0|2|10|2,1:0|0:0|0:0|0:0,0:0:0:0:
363,235,92555,5,0,1:0:0:0:
406,131,92793,1,2,0:0:0:0:
336,43,93031,1,10,0:0:0:0:
292,148,93270,1,2,0:0:0:0:
363,235,93508,2,0,L|463:227,3,80,0|2|10|2,1:0|0:0|0:0|0:0,0:0:0:0:
256,192,94460,12,0,98151,0:0:0:0:
256,192,98270,12,0,101603,0:0:0:0:
