osu file format v14

[General]
AudioFilename: Vicetone & Tony Igy - Astronomia 2014.mp3
AudioLeadIn: 0
PreviewTime: 66722
Countdown: 0
SampleSet: Soft
StackLeniency: 0.7
Mode: 0
LetterboxInBreaks: 0
WidescreenStoryboard: 0

[Editor]
Bookmarks: 98270
DistanceSpacing: 1
BeatDivisor: 4
GridSize: 4
TimelineZoom: 1

[Metadata]
Title:Astronomia 2014
TitleUnicode:Astronomia 2014
Artist:Vicetone & Tony Igy
ArtistUnicode:Vicetone & Tony Igy
Creator:Come[Back]Home
Version:Easy
Source:
Tags:cbh ruben den boer victor pool electro edm house
BeatmapID:800263
BeatmapSetID:360107

[Difficulty]
HPDrainRate:3
CircleSize:3
OverallDifficulty:3
ApproachRate:4
SliderMultiplier:1
SliderTickRate:1

[Events]
//Background and Video events
0,0,"17.jpg",0,0
//Break Periods
//Storyboard Layer 0 (Background)
//Storyboard Layer 1 (Fail)
//Storyboard Layer 2 (Pass)
//Storyboard Layer 3 (Foreground)
//Storyboard Sound Samples

[TimingPoints]
3032,476.190476190476,4,2,0,70,1,0
6841,-100,4,2,0,70,0,0
33508,-100,4,2,0,50,0,0
37317,-100,4,2,0,70,0,0
66841,-100,4,2,0,70,0,0
67793,-100,4,2,0,70,0,1
98270,-100,4,2,0,70,0,0
98746,-100,4,2,0,60,0,0
99222,-100,4,2,0,50,0,0
99698,-100,4,2,0,40,0,0
100174,-100,4,2,0,30,0,0
100651,-100,4,2,0,20,0,0
101127,-100,4,2,0,10,0,0

[Colours]
Combo1 : 128,64,64
Combo2 : 255,128,128
Combo3 : 0,128,128

[HitObjects]
116,296,6841,6,0,L|328:288,1,200,2|2,0:0|0:0,0:0:0:0:
387,218,8270,1,2,0:0:0:0:
333,133,8746,2,0,B|234:154|234:154|134:126,1,200,2|2,0:0|0:0,0:0:0:0:
71,201,10174,1,2,0:0:0:0:
118,289,10651,6,0,B|170:293|210:265|210:265|274:281|326:241,1,200,2|2,0:0|0:0,0:0:0:0:
358,164,12079,1,2,0:0:0:0:
282,99,12555,2,0,P|214:127|114:43,1,200,2|2,0:0|0:0,0:0:0:0:
59,140,13984,1,2,0:0:0:0:
82,237,14460,6,0,B|138:233|138:233|234:245|234:245|298:237,1,200,2|2,0:0|0:0,0:0:0:0:
368,190,15889,1,2,0:0:0:0:
280,141,16365,2,0,P|276:97|404:65,1,200,2|2,0:0|0:0,0:0:0:0:
426,154,17793,1,2,0:0:0:0:
388,246,18270,6,0,B|268:270|268:270|188:230,1,200,2|2,0:0|0:0,0:0:0:0:
146,150,19698,1,2,0:0:0:0:
123,52,20174,2,0,L|331:60,1,200,2|2,0:0|0:0,0:0:0:0:
392,131,21603,1,2,0:0:0:0:
384,230,22079,6,0,L|268:225,1,100,0|0,1:0|1:0,0:0:0:0:
195,271,23031,2,0,P|183:231|202:171,1,100,0|0,1:0|1:0,0:0:0:0:
287,131,23984,2,0,P|302:84|290:36,1,100,0|0,1:0|1:0,0:0:0:0:
201,81,24936,2,0,L|96:85,1,100,0|0,1:0|1:0,0:0:0:0:
46,168,25889,5,0,1:0:0:0:
84,260,26365,1,0,1:0:0:0:
173,304,26841,2,0,B|227:295|227:295|272:305,1,100,0|0,1:0|1:0,0:0:0:0:
364,269,27793,2,0,L|359:166,1,100,0|0,1:0|1:0,0:0:0:0:
312,80,28746,1,0,1:0:0:0:
215,106,29222,1,0,1:0:0:0:
137,43,29698,6,0,B|109:86|114:126|129:151|129:151|113:188|152:250,1,200,0|0,1:0|1:0,0:0:0:0:
234,274,31127,1,2,0:0:0:0:
316,218,31603,2,0,P|356:212|416:234,2,100,0|0|0,1:0|0:0|1:0,0:0:0:0:
264,303,33031,1,2,0:0:0:0:
256,192,33508,12,0,35889,0:0:0:0:
97,306,37317,6,0,L|106:152,1,150,2|0,0:0|0:0,0:0:0:0:
141,120,38270,2,0,B|195:129|195:129|250:113,1,100,2|2,0:0|0:0,0:0:0:0:
323,63,39222,2,0,B|355:102|336:153|336:153|362:194|316:253,1,200,2|2,0:0|0:0,0:0:0:0:
230,296,40651,1,2,0:0:0:0:
138,255,41127,6,0,P|147:202|78:141,1,150,2|0,0:0|0:0,0:0:0:0:
48,104,42079,2,0,L|148:70,1,100,2|2,0:0|0:0,0:0:0:0:
229,120,43031,2,0,B|286:124|286:124|341:117|341:117|383:121,1,150,2|0,0:0|0:0,0:0:0:0:
415,153,43984,2,0,P|433:187|419:252,1,100,2|2,0:0|0:0,0:0:0:0:
338,299,44936,6,0,L|181:294,1,150,2|0,0:0|0:0,0:0:0:0:
151,260,45889,2,0,B|162:226|162:226|152:160,1,100,2|2,0:0|0:0,0:0:0:0:
57,131,46841,2,0,P|84:89|227:96,1,200,2|2,0:0|0:0,0:0:0:0:
278,170,48270,1,2,0:0:0:0:
237,261,48746,6,0,P|282:270|366:214,1,150,2|0,0:0|0:0,0:0:0:0:
364,166,49698,2,0,P|357:134|308:89,1,100,2|2,0:0|0:0,0:0:0:0:
227,147,50651,2,0,B|165:157|165:157|74:133,1,150,2|0,0:0|0:0,0:0:0:0:
36,158,51603,2,0,L|46:264,1,100,2|2,0:0|0:0,0:0:0:0:
127,313,52555,5,2,0:0:0:0:
221,280,53031,1,0,0:0:0:0:
286,355,53508,2,0,P|316:308|311:248,1,100,2|2,0:0|0:0,0:0:0:0:
259,182,54460,2,0,P|292:167|415:251,1,200,2|2,0:0|0:0,0:0:0:0:
316,265,55889,1,2,0:0:0:0:
221,298,56365,6,0,P|189:275|166:213,1,100,2|0,0:0|0:0,0:0:0:0:
220,136,57317,1,2,0:0:0:0:
120,130,57793,1,2,0:0:0:0:
174,46,58270,2,0,B|266:48|266:48|321:84|317:152,1,200,2|2,0:0|0:0,0:0:0:0:
256,216,59698,1,2,0:0:0:0:
316,298,60174,6,0,L|421:305,2,100,10|8|10,0:0|0:0|0:0,0:0:0:0:
256,216,61603,1,10,0:0:0:0:
196,296,62079,2,0,B|149:298|149:298|95:282,2,100,10|8|10,0:0|0:0|0:0,0:0:0:0:
159,204,63508,1,10,0:0:0:0:
103,120,63984,6,0,B|145:92|223:87|257:161|258:192|258:192|381:153|416:264,1,400,10|8,0:0|0:0,0:0:0:0:
396,360,66365,1,0,0:0:0:0:
308,316,66841,1,8,0:0:0:0:
132,209,67793,6,0,B|235:231|235:231|296:210,1,150,2|0,0:0|0:0,0:0:0:0:
308,177,68746,2,0,P|302:146|345:75,1,100,2|10,0:0|0:0,0:0:0:0:
408,152,69698,2,0,B|416:223|377:253|377:253|392:300|341:338,1,200,2|2,0:0|0:0,0:0:0:0:
249,345,71127,1,10,0:0:0:0:
160,299,71603,6,0,B|149:247|149:247|164:145,1,150,2|0,0:0|0:0,0:0:0:0:
198,116,72555,2,0,P|240:106|303:124,1,100,2|10,0:0|0:0,0:0:0:0:
359,194,73508,2,0,P|388:151|371:57,1,150,2|0,0:0|0:0,0:0:0:0:
340,20,74460,2,0,L|236:24,1,100,2|10,0:0|0:0,0:0:0:0:
149,67,75412,6,0,B|147:120|147:120|167:172|167:172|166:221,1,150,2|0,0:0|0:0,0:0:0:0:
165,263,76365,2,0,B|215:253|215:253|269:272,1,100,2|10,0:0|0:0,0:0:0:0:
341,328,77317,2,0,P|360:287|278:170,1,200,2|2,0:0|0:0,0:0:0:0:
183,177,78746,1,10,0:0:0:0:
99,232,79222,6,0,P|82:178|128:92,1,150,2|0,0:0|0:0,0:0:0:0:
165,80,80174,2,0,L|265:86,1,100,2|10,0:0|0:0,0:0:0:0:
318,170,81127,2,0,B|396:178|396:178|472:158,1,150,2|0,0:0|0:0,0:0:0:0:
504,191,82079,2,0,P|493:222|519:284,1,100,2|10,0:0|0:0,0:0:0:0:
436,342,83031,5,2,0:0:0:0:
337,325,83508,1,8,0:0:0:0:
241,354,83984,2,0,P|240:299|272:250,1,100,2|10,0:0|0:0,0:0:0:0:
357,234,84936,2,0,B|360:151|360:151|351:105|351:105|354:28,1,200,2|2,0:0|0:0,0:0:0:0:
256,11,86365,1,10,0:0:0:0:
210,100,86841,6,0,B|163:113|163:113|102:97,1,100,2|8,0:0|0:0,0:0:0:0:
46,174,87793,1,2,0:0:0:0:
80,268,88270,1,10,0:0:0:0:
160,326,88746,2,0,P|246:336|350:274,1,200,2|2,0:0|0:0,0:0:0:0:
362,185,90174,1,10,0:0:0:0:
287,117,90651,6,0,P|278:86|313:20,2,100,0|8|0,1:0|0:0|1:0,0:0:0:0:
220,192,92079,1,10,0:0:0:0:
287,267,92555,2,0,P|278:298|313:364,2,100,0|8|0,1:0|0:0|1:0,0:0:0:0:
351,190,93984,1,10,0:0:0:0:
445,157,94460,6,0,B|423:108|366:57|294:102|275:119|275:119|258:73|188:26|127:66|97:105,1,400,0|0,1:0|1:0,0:0:0:0:
184,157,96841,2,0,P|201:210|172:268,1,100,8|0,0:0|1:0,0:0:0:0:
104,305,97793,1,8,0:0:0:0:
256,192,98270,12,0,101603,0:0:0:0:
