osu file format v14

[General]
AudioFilename: audio.mp3
AudioLeadIn: 0
PreviewTime: 91903
Countdown: 0
SampleSet: Soft
StackLeniency: 0.7
Mode: 3
LetterboxInBreaks: 0
SpecialStyle: 0
WidescreenStoryboard: 0

[Editor]
DistanceSpacing: 0.85
BeatDivisor: 4
GridSize: 32
TimelineZoom: 2.5

[Metadata]
Title:Astronomia (USAO a.k.a Daily Mix)
TitleUnicode:Astronomia (美國空軍 a.k.a Daily Mix)
Artist:Vicetone & Tony Igy
ArtistUnicode:Vicetone & Tony Igy
Creator:Draftnell
Version:Coffin
Source:
Tags:hardcore dubstep frenchcore meme remix by daily天利 tianli Dynamite Cyaegha Miracle 5ympho X Coffin Dance Electronic Instrumental rhythm game Rhezie Famoss by-ad raediaufar
BeatmapID:2665565
BeatmapSetID:1283536

[Difficulty]
HPDrainRate:8
CircleSize:4
OverallDifficulty:8
ApproachRate:5
SliderMultiplier:1.4
SliderTickRate:1

[Events]
//Background and Video events
0,0,"BG.jpg",0,0
//Break Periods
//Storyboard Layer 0 (Background)
//Storyboard Layer 1 (Fail)
//Storyboard Layer 2 (Pass)
//Storyboard Layer 3 (Foreground)
//Storyboard Layer 4 (Overlay)
//Storyboard Sound Samples

[TimingPoints]
103,300,4,2,1,50,1,0
92503,-100,4,2,1,50,0,1
111703,-100,4,2,1,50,0,0

[HitObjects]
64,192,1303,5,2,0:0:0:0:
448,192,1303,1,4,0:0:0:0:
192,192,1603,1,0,0:0:0:0:
448,192,1753,1,0,0:0:0:0:
64,192,1903,1,0,0:0:0:0:
192,192,2203,1,0,0:0:0:0:
320,192,2503,1,0,0:0:0:0:
448,192,2803,1,0,0:0:0:0:
448,192,2953,1,0,0:0:0:0:
64,192,3103,1,0,0:0:0:0:
448,192,3403,1,0,0:0:0:0:
320,192,3553,1,0,0:0:0:0:
192,192,3703,1,0,0:0:0:0:
64,192,4003,1,0,0:0:0:0:
448,192,4153,1,0,0:0:0:0:
192,192,4303,1,0,0:0:0:0:
320,192,4603,1,0,0:0:0:0:
64,192,4903,1,0,0:0:0:0:
448,192,5203,1,0,0:0:0:0:
448,192,5353,1,0,0:0:0:0:
192,192,5503,1,0,0:0:0:0:
64,192,5803,1,2,0:0:0:0:
320,192,5803,1,0,0:0:0:0:
448,192,5953,1,0,0:0:0:0:
192,192,6103,1,2,0:0:0:0:
320,192,6103,1,0,0:0:0:0:
64,192,6403,1,0,0:0:0:0:
448,192,6403,1,0,0:0:0:0:
192,192,6478,1,0,0:0:0:0:
320,192,6553,1,0,0:0:0:0:
448,192,6628,1,0,0:0:0:0:
64,192,6703,1,0,0:0:0:0:
192,192,6778,1,0,0:0:0:0:
64,192,6853,1,0,0:0:0:0:
448,192,6853,1,0,0:0:0:0:
320,192,6928,1,0,0:0:0:0:
192,192,7003,1,0,0:0:0:0:
448,192,7003,1,0,0:0:0:0:
64,192,7078,1,0,0:0:0:0:
320,192,7153,1,0,0:0:0:0:
192,192,7228,1,0,0:0:0:0:
64,192,7303,1,0,0:0:0:0:
448,192,7303,1,0,0:0:0:0:
192,192,7603,1,0,0:0:0:0:
320,192,7603,1,0,0:0:0:0:
448,192,7678,1,0,0:0:0:0:
64,192,7753,1,0,0:0:0:0:
192,192,7828,1,0,0:0:0:0:
448,192,7903,1,0,0:0:0:0:
320,192,7978,1,0,0:0:0:0:
64,192,8053,1,0,0:0:0:0:
192,192,8053,1,0,0:0:0:0:
320,192,8128,1,0,0:0:0:0:
64,192,8203,1,0,0:0:0:0:
448,192,8203,1,0,0:0:0:0:
192,192,8278,1,0,0:0:0:0:
320,192,8353,1,0,0:0:0:0:
448,192,8428,1,0,0:0:0:0:
64,192,8503,1,2,0:0:0:0:
192,192,8503,1,0,0:0:0:0:
320,192,8803,1,0,0:0:0:0:
448,192,8803,1,0,0:0:0:0:
192,192,8878,1,0,0:0:0:0:
64,192,8953,1,0,0:0:0:0:
448,192,9028,1,0,0:0:0:0:
192,192,9103,1,0,0:0:0:0:
320,192,9178,1,0,0:0:0:0:
64,192,9253,1,0,0:0:0:0:
448,192,9253,1,0,0:0:0:0:
192,192,9328,1,0,0:0:0:0:
320,192,9403,1,0,0:0:0:0:
448,192,9403,1,0,0:0:0:0:
192,192,9478,1,0,0:0:0:0:
64,192,9553,1,0,0:0:0:0:
448,192,9628,1,0,0:0:0:0:
192,192,9703,1,2,0:0:0:0:
320,192,9703,1,0,0:0:0:0:
64,192,9853,128,0,10003:0:0:0:0:
448,192,10303,128,0,10903:0:0:0:0:
64,192,10603,1,2,0:0:0:0:
192,192,10903,1,2,0:0:0:0:
320,192,10903,1,4,0:0:0:0:
64,192,11090,128,0,11165:0:0:0:0:
64,192,11240,128,0,11315:0:0:0:0:
64,192,11390,128,0,11465:0:0:0:0:
192,192,11503,1,2,0:0:0:0:
320,192,11503,1,0,0:0:0:70:clap.wav
448,192,11503,1,0,0:0:0:0:
320,192,11690,128,0,11765:0:0:0:0:
320,192,11840,128,0,11915:0:0:0:0:
320,192,11990,128,0,12065:0:0:0:0:
64,192,12103,1,2,0:0:0:0:
448,192,12103,1,0,0:0:0:0:
192,192,12290,128,0,12365:0:0:0:0:
192,192,12440,128,0,12515:0:0:0:0:
192,192,12590,128,0,12665:0:0:0:0:
64,192,12703,1,2,0:0:0:0:
320,192,12703,1,0,0:0:0:70:clap.wav
448,192,12703,1,0,0:0:0:0:
448,192,12890,128,0,12965:0:0:0:0:
448,192,13040,128,0,13115:0:0:0:0:
448,192,13190,128,0,13265:0:0:0:0:
64,192,13303,1,2,0:0:0:0:
192,192,13303,1,0,0:0:0:0:
320,192,13490,128,0,13565:0:0:0:0:
320,192,13640,128,0,13715:0:0:0:0:
320,192,13790,128,0,13865:0:0:0:0:
64,192,13903,1,2,0:0:0:0:
192,192,13903,1,0,0:0:0:70:clap.wav
448,192,13903,1,0,0:0:0:0:
192,192,14090,128,0,14165:0:0:0:0:
192,192,14240,128,0,14315:0:0:0:0:
192,192,14390,128,0,14465:0:0:0:0:
320,192,14503,1,2,0:0:0:0:
448,192,14503,1,0,0:0:0:0:
64,192,14690,128,0,14765:0:0:0:0:
64,192,14840,128,0,14915:0:0:0:0:
64,192,14990,128,0,15065:0:0:0:0:
192,192,15103,1,2,0:0:0:0:
320,192,15103,1,0,0:0:0:70:clap.wav
448,192,15103,1,0,0:0:0:0:
448,192,15290,128,0,15365:0:0:0:0:
448,192,15440,128,0,15515:0:0:0:0:
448,192,15590,128,0,15665:0:0:0:0:
64,192,15703,1,4,0:0:0:0:
192,192,15703,1,2,0:0:0:0:
320,192,15703,1,0,0:0:0:0:
448,192,15853,128,0,16003:0:0:0:0:
192,192,16003,1,2,0:0:0:0:
320,192,16003,1,0,0:0:0:70:clap.wav
64,192,16153,128,0,16303:0:0:0:0:
448,192,16303,1,2,0:0:0:0:
192,192,16453,128,0,16603:0:0:0:0:
64,192,16603,1,2,0:0:0:0:
320,192,16603,1,0,0:0:0:70:clap.wav
448,192,16753,128,0,16903:0:0:0:0:
64,192,16903,1,4,0:0:0:0:
192,192,16903,1,2,0:0:0:0:
320,192,17053,128,0,17203:0:0:0:0:
192,192,17203,1,2,0:0:0:0:
448,192,17203,1,0,0:0:0:70:clap.wav
64,192,17353,128,0,17503:0:0:0:0:
320,192,17503,1,2,0:0:0:0:
448,192,17653,128,0,17803:0:0:0:0:
64,192,17803,1,2,0:0:0:0:
320,192,17803,1,0,0:0:0:70:clap.wav
192,192,17953,128,0,18103:0:0:0:0:
64,192,18103,1,2,0:0:0:0:
448,192,18103,1,4,0:0:0:0:
192,192,18253,1,2,0:0:0:0:
64,192,18253,1,0,0:0:0:0:
320,192,18403,1,6,0:0:0:0:
448,192,18403,1,0,0:0:0:70:clap.wav
64,192,18553,1,2,0:0:0:0:
192,192,18553,1,0,0:0:0:0:
320,192,18628,1,2,0:0:0:0:
448,192,18628,1,0,0:0:0:0:
64,192,18703,1,2,0:0:0:0:
192,192,18703,1,4,0:0:0:0:
64,192,18853,1,2,0:0:0:0:
448,192,18853,1,0,0:0:0:0:
192,192,18928,1,2,0:0:0:0:
320,192,18928,1,0,0:0:0:0:
64,192,19003,1,6,0:0:0:0:
448,192,19003,1,0,0:0:0:70:clap.wav
320,192,19153,1,2,0:0:0:0:
448,192,19153,1,0,0:0:0:0:
64,192,19228,1,2,0:0:0:0:
192,192,19228,1,0,0:0:0:0:
320,192,19303,1,2,0:0:0:0:
448,192,19303,1,0,0:0:0:0:
192,192,19453,128,0,19603:0:0:0:0:
64,192,19903,128,0,20353:0:0:0:0:
320,192,20353,1,2,0:0:0:0:
448,192,20353,1,0,0:0:0:0:
64,192,20428,1,2,0:0:0:0:
192,192,20428,1,0,0:0:0:0:
320,192,20503,1,2,0:0:0:0:
448,192,20503,1,4,0:0:0:0:
192,192,20653,1,0,0:0:0:0:
64,192,20803,1,2,0:0:0:0:
448,192,20803,1,0,0:0:0:0:
320,192,20878,1,0,0:0:0:0:
192,192,20953,1,0,0:0:0:0:
64,192,21103,1,2,0:0:0:0:
320,192,21103,1,0,0:0:0:0:
448,192,21253,1,0,0:0:0:0:
64,192,21403,1,2,0:0:0:0:
192,192,21403,1,0,0:0:0:0:
320,192,21478,1,0,0:0:0:0:
448,192,21553,1,0,0:0:0:0:
192,192,21703,1,2,0:0:0:0:
320,192,21703,1,0,0:0:0:0:
64,192,21853,1,0,0:0:0:0:
320,192,22003,1,2,0:0:0:0:
448,192,22003,1,0,0:0:0:0:
192,192,22078,1,0,0:0:0:0:
64,192,22153,1,0,0:0:0:0:
192,192,22303,1,2,0:0:0:0:
320,192,22303,1,0,0:0:0:0:
64,192,22453,1,0,0:0:0:0:
320,192,22603,1,2,0:0:0:0:
448,192,22603,1,0,0:0:0:0:
64,192,22678,1,0,0:0:0:0:
192,192,22753,1,0,0:0:0:0:
64,192,22903,1,2,0:0:0:0:
320,192,22903,1,0,0:0:0:0:
448,192,23053,1,0,0:0:0:0:
192,192,23203,1,2,0:0:0:0:
320,192,23203,1,0,0:0:0:0:
448,192,23278,1,0,0:0:0:0:
64,192,23353,1,0,0:0:0:0:
448,192,23503,1,2,0:0:0:0:
192,192,23503,1,0,0:0:0:0:
320,192,23653,1,0,0:0:0:0:
64,192,23803,1,2,0:0:0:0:
448,192,23803,1,0,0:0:0:0:
192,192,23878,1,0,0:0:0:0:
320,192,23953,1,0,0:0:0:0:
192,192,24103,1,2,0:0:0:0:
448,192,24103,1,0,0:0:0:0:
64,192,24253,1,0,0:0:0:0:
320,192,24403,1,2,0:0:0:0:
448,192,24403,1,0,0:0:0:0:
192,192,24478,1,0,0:0:0:0:
64,192,24553,1,0,0:0:0:0:
192,192,24703,1,2,0:0:0:0:
448,192,24703,1,0,0:0:0:0:
320,192,24853,1,0,0:0:0:0:
64,192,25003,1,2,0:0:0:0:
192,192,25003,1,8,0:0:0:0:
448,192,25003,128,0,25303:0:0:0:0:
320,192,25303,1,2,0:0:0:0:
64,192,25453,1,2,0:0:0:0:
192,192,25453,1,0,0:0:0:0:
320,192,25528,1,2,0:0:0:0:
448,192,25528,1,0,0:0:0:0:
64,192,25603,1,2,0:0:0:0:
192,192,25603,1,8,0:0:0:0:
320,192,25753,1,0,0:0:0:0:
64,192,25903,1,2,0:0:0:0:
448,192,25903,1,0,0:0:0:0:
192,192,26053,1,0,0:0:0:0:
64,192,26203,1,2,0:0:0:0:
320,192,26203,1,8,0:0:0:0:
448,192,26203,1,0,0:0:0:0:
192,192,26353,1,0,0:0:0:0:
448,192,26503,1,2,0:0:0:0:
320,192,26503,128,0,26653:0:0:0:0:
192,192,26653,1,0,0:0:0:0:
320,192,26728,1,0,0:0:0:0:
64,192,26803,1,2,0:0:0:0:
192,192,26803,1,8,0:0:0:0:
448,192,26803,1,0,0:0:0:0:
320,192,26953,1,0,0:0:0:0:
64,192,27103,1,2,0:0:0:0:
192,192,27103,1,0,0:0:0:0:
448,192,27253,1,0,0:0:0:0:
64,192,27403,1,2,0:0:0:0:
192,192,27403,1,8,0:0:0:0:
320,192,27403,1,0,0:0:0:0:
64,192,27553,1,8,0:0:0:0:
320,192,27553,1,0,0:0:0:0:
448,192,27553,1,0,0:0:0:0:
192,192,27703,1,2,0:0:0:0:
448,192,27703,1,0,0:0:0:0:
192,192,27853,1,0,0:0:0:0:
192,192,28003,1,2,0:0:0:0:
320,192,28003,1,8,0:0:0:0:
448,192,28003,1,0,0:0:0:0:
448,192,28153,1,0,0:0:0:0:
64,192,28303,1,2,0:0:0:0:
448,192,28303,1,0,0:0:0:0:
64,192,28453,1,0,0:0:0:0:
64,192,28603,1,2,0:0:0:0:
320,192,28603,1,8,0:0:0:0:
448,192,28603,1,0,0:0:0:0:
320,192,28753,1,0,0:0:0:0:
64,192,28903,128,2,29203:0:0:0:0:
192,192,28903,1,0,0:0:0:0:
192,192,29203,1,2,0:0:0:0:
320,192,29203,1,8,0:0:0:0:
448,192,29203,128,0,29503:0:0:0:0:
64,192,29353,1,2,0:0:0:0:
320,192,29353,1,0,0:0:0:0:
64,192,29503,1,2,0:0:0:0:
192,192,29503,128,0,29803:0:0:0:0:
320,192,29803,128,2,30103:0:0:0:0:
448,192,29803,1,0,0:0:0:0:
64,192,30103,1,2,0:0:0:0:
192,192,30103,1,4,0:0:0:0:
448,192,30103,1,0,0:0:0:0:
320,192,30253,1,0,0:0:0:0:
192,192,30403,1,8,0:0:0:0:
448,192,30403,1,0,0:0:0:0:
64,192,30403,1,2,0:0:0:0:
320,192,30553,128,0,30703:0:0:0:0:
64,192,30703,128,2,30853:0:0:0:0:
192,192,30703,1,0,0:0:0:0:
320,192,30853,1,0,0:0:0:0:
64,192,31003,1,2,0:0:0:0:
192,192,31003,128,8,31153:0:0:0:0:
448,192,31003,1,0,0:0:0:0:
320,192,31153,1,0,0:0:0:0:
64,192,31303,1,2,0:0:0:0:
192,192,31303,1,0,0:0:0:0:
320,192,31453,1,2,0:0:0:0:
448,192,31453,1,0,0:0:0:0:
192,192,31528,1,0,0:0:0:0:
64,192,31603,1,2,0:0:0:0:
320,192,31603,1,8,0:0:0:0:
448,192,31603,1,0,0:0:0:0:
192,192,31753,1,0,0:0:0:0:
64,192,31903,1,2,0:0:0:0:
448,192,31903,1,0,0:0:0:0:
320,192,32053,1,0,0:0:0:0:
64,192,32203,1,2,0:0:0:0:
192,192,32203,1,8,0:0:0:0:
448,192,32203,1,0,0:0:0:0:
320,192,32353,1,0,0:0:0:0:
64,192,32503,1,2,0:0:0:0:
448,192,32503,128,0,32653:0:0:0:0:
192,192,32653,1,0,0:0:0:0:
64,192,32803,1,2,0:0:0:0:
320,192,32803,1,8,0:0:0:0:
448,192,32803,1,0,0:0:0:0:
192,192,32953,128,0,33103:0:0:0:0:
64,192,33103,1,2,0:0:0:0:
448,192,33103,128,0,33253:0:0:0:0:
192,192,33253,1,0,0:0:0:0:
64,192,33403,1,2,0:0:0:0:
320,192,33403,128,8,33553:0:0:0:0:
448,192,33403,1,0,0:0:0:0:
192,192,33553,1,0,0:0:0:0:
64,192,33703,128,2,33853:0:0:0:0:
448,192,33703,1,0,0:0:0:0:
192,192,33853,1,0,0:0:0:0:
64,192,34003,1,2,0:0:0:0:
320,192,34003,1,8,0:0:0:0:
448,192,34003,1,0,0:0:0:0:
192,192,34153,128,0,34303:0:0:0:0:
64,192,34303,1,2,0:0:0:0:
320,192,34303,128,0,34453:0:0:0:0:
448,192,34453,1,0,0:0:0:0:
64,192,34603,1,2,0:0:0:0:
320,192,34603,1,8,0:0:0:0:
64,192,34753,1,2,0:0:0:0:
320,192,34753,1,0,0:0:0:0:
64,192,34903,1,2,0:0:0:0:
192,192,34903,1,4,0:0:0:0:
448,192,34903,1,0,0:0:0:0:
320,192,35053,1,2,0:0:0:0:
448,192,35053,1,0,0:0:0:0:
64,192,35128,1,2,0:0:0:0:
192,192,35128,1,0,0:0:0:0:
320,192,35203,1,2,0:0:0:0:
448,192,35203,1,8,0:0:0:0:
64,192,35353,128,0,35503:0:0:0:0:
192,192,35353,1,0,0:0:0:0:
320,192,35503,1,2,0:0:0:0:
448,192,35503,128,0,35653:0:0:0:0:
64,192,35653,1,0,0:0:0:0:
192,192,35803,128,2,35953:0:0:0:0:
320,192,35803,1,8,0:0:0:0:
448,192,35803,1,0,0:0:0:0:
64,192,35953,1,0,0:0:0:0:
320,192,36103,1,2,0:0:0:0:
448,192,36103,128,0,36253:0:0:0:0:
64,192,36253,1,2,0:0:0:0:
192,192,36253,1,0,0:0:0:0:
320,192,36328,1,2,0:0:0:0:
448,192,36328,1,0,0:0:0:0:
64,192,36403,1,8,0:0:0:0:
192,192,36403,1,2,0:0:0:0:
320,192,36553,1,0,0:0:0:0:
64,192,36703,1,2,0:0:0:0:
448,192,36703,1,0,0:0:0:0:
192,192,36853,1,0,0:0:0:0:
64,192,37003,128,2,37153:0:0:0:0:
320,192,37003,1,8,0:0:0:0:
448,192,37003,1,0,0:0:0:0:
192,192,37153,128,0,37303:0:0:0:0:
320,192,37303,1,2,0:0:0:0:
448,192,37303,128,4,37378:0:0:0:0:
64,192,37453,1,0,0:0:0:0:
448,192,37453,128,0,37528:0:0:0:0:
192,192,37603,1,2,0:0:0:0:
320,192,37603,1,8,0:0:0:0:
448,192,37603,128,0,37678:0:0:0:0:
64,192,37753,1,0,0:0:0:0:
448,192,37753,128,0,37828:0:0:0:0:
192,192,37903,1,2,0:0:0:0:
320,192,37903,1,0,0:0:0:0:
448,192,37903,128,0,37978:0:0:0:0:
64,192,38053,1,2,0:0:0:0:
192,192,38053,1,0,0:0:0:0:
448,192,38053,128,0,38128:0:0:0:0:
64,192,38203,1,2,0:0:0:0:
320,192,38203,1,8,0:0:0:0:
448,192,38203,128,0,38278:0:0:0:0:
192,192,38353,1,0,0:0:0:0:
448,192,38353,128,0,38428:0:0:0:0:
320,192,38503,1,2,0:0:0:0:
64,192,38503,1,0,0:0:0:0:
448,192,38653,1,2,0:0:0:0:
192,192,38653,1,0,0:0:0:0:
64,192,38803,1,2,0:0:0:0:
320,192,38803,1,8,0:0:0:0:
448,192,38803,1,0,0:0:0:0:
192,192,38953,1,2,0:0:0:0:
320,192,38953,1,0,0:0:0:0:
64,192,39103,128,0,39253:0:0:0:70:LR4_SnareBPDT.wav
320,192,39103,1,0,0:0:0:0:
448,192,39103,1,0,0:0:0:0:
192,192,39253,128,0,39403:0:0:0:0:
64,192,39403,1,2,0:0:0:0:
320,192,39403,128,8,39553:0:0:0:0:
448,192,39403,1,0,0:0:0:0:
192,192,39553,128,0,39703:0:0:0:0:
64,192,39703,1,2,0:0:0:0:
320,192,39703,1,4,0:0:0:0:
448,192,39703,128,0,39853:0:0:0:0:
192,192,39853,1,0,0:0:0:0:
64,192,40003,128,2,40153:0:0:0:0:
320,192,40003,1,8,0:0:0:0:
448,192,40003,1,0,0:0:0:0:
192,192,40153,1,0,0:0:0:0:
448,192,40153,128,0,40303:0:0:0:0:
64,192,40303,1,2,0:0:0:0:
320,192,40303,128,0,40453:0:0:0:0:
448,192,40453,1,0,0:0:0:0:
64,192,40603,1,2,0:0:0:0:
192,192,40603,128,8,40753:0:0:0:0:
320,192,40603,1,0,0:0:0:0:
448,192,40753,1,0,0:0:0:0:
64,192,40903,128,2,41053:0:0:0:0:
192,192,40903,1,0,0:0:0:0:
320,192,41053,1,0,0:0:0:0:
64,192,41203,1,2,0:0:0:0:
192,192,41203,1,8,0:0:0:0:
448,192,41203,128,0,41278:0:0:0:0:
320,192,41353,1,0,0:0:0:0:
448,192,41353,128,0,41428:0:0:0:0:
64,192,41503,1,2,0:0:0:0:
192,192,41503,128,0,41653:0:0:0:0:
448,192,41653,1,0,0:0:0:0:
64,192,41803,128,2,41953:0:0:0:0:
320,192,41803,1,8,0:0:0:0:
448,192,41803,1,0,0:0:0:0:
192,192,41953,128,0,42103:0:0:0:0:
64,192,42103,1,2,0:0:0:0:
320,192,42103,128,0,42253:0:0:0:0:
448,192,42103,1,0,0:0:0:0:
64,192,42253,1,2,0:0:0:0:
448,192,42253,1,0,0:0:0:0:
64,192,42403,1,2,0:0:0:0:
192,192,42403,1,8,0:0:0:0:
320,192,42403,1,0,0:0:0:0:
320,192,42553,1,0,0:0:0:0:
448,192,42553,128,0,42703:0:0:0:0:
64,192,42703,128,2,42853:0:0:0:0:
192,192,42703,1,0,0:0:0:0:
320,192,42853,128,0,43003:0:0:0:0:
448,192,42853,1,0,0:0:0:0:
64,192,43003,128,2,43153:0:0:0:0:
192,192,43003,1,8,0:0:0:0:
320,192,43153,1,0,0:0:0:0:
448,192,43153,128,0,43303:0:0:0:0:
64,192,43303,1,2,0:0:0:0:
192,192,43303,128,0,43453:0:0:0:0:
320,192,43453,1,0,0:0:0:0:
64,192,43603,1,2,0:0:0:0:
192,192,43603,1,8,0:0:0:0:
448,192,43603,1,0,0:0:0:0:
320,192,43753,128,0,43903:0:0:0:0:
64,192,43903,128,2,44053:0:0:0:0:
448,192,43903,1,0,0:0:0:0:
192,192,44053,128,2,44203:0:0:0:0:
448,192,44053,1,0,0:0:0:0:
64,192,44203,128,2,44353:0:0:0:0:
320,192,44203,1,8,0:0:0:0:
320,192,44353,1,2,0:0:0:0:
448,192,44353,1,0,0:0:0:0:
192,192,44428,1,2,0:0:0:0:
64,192,44503,1,4,0:0:0:0:
320,192,44503,1,2,0:0:0:0:
448,192,44503,1,0,0:0:0:0:
192,192,44653,1,0,0:0:0:0:
64,192,44803,1,8,0:0:0:0:
192,192,44803,1,2,0:0:0:0:
448,192,44803,128,0,44953:0:0:0:0:
64,192,44953,128,0,45103:0:0:0:0:
320,192,44953,1,0,0:0:0:0:
192,192,45103,128,2,45253:0:0:0:0:
448,192,45103,1,0,0:0:0:0:
64,192,45253,1,0,0:0:0:0:
192,192,45403,1,8,0:0:0:0:
320,192,45403,128,2,45553:0:0:0:0:
448,192,45403,1,0,0:0:0:0:
64,192,45553,1,0,0:0:0:0:
192,192,45703,1,2,0:0:0:0:
448,192,45703,128,0,45853:0:0:0:0:
320,192,45853,1,0,0:0:0:0:
64,192,46003,128,8,46078:0:0:0:0:
448,192,46003,1,2,0:0:0:0:
192,192,46003,1,0,0:0:0:0:
64,192,46153,128,0,46228:0:0:0:0:
320,192,46153,1,0,0:0:0:0:
192,192,46303,1,2,0:0:0:0:
320,192,46303,128,0,46453:0:0:0:0:
448,192,46453,1,0,0:0:0:0:
64,192,46603,1,8,0:0:0:0:
192,192,46603,1,2,0:0:0:0:
448,192,46603,128,0,46753:0:0:0:0:
320,192,46753,128,0,46903:0:0:0:0:
64,192,46903,1,0,0:0:0:0:
192,192,46903,128,2,47053:0:0:0:0:
448,192,46903,1,0,0:0:0:0:
320,192,47053,1,2,0:0:0:0:
64,192,47053,1,0,0:0:0:0:
64,192,47203,1,8,0:0:0:0:
192,192,47203,1,2,0:0:0:0:
448,192,47203,1,0,0:0:0:0:
320,192,47353,128,0,47503:0:0:0:0:
448,192,47353,1,0,0:0:0:0:
64,192,47503,128,2,47653:0:0:0:0:
192,192,47503,1,0,0:0:0:0:
320,192,47653,1,0,0:0:0:0:
448,192,47653,128,0,47803:0:0:0:0:
64,192,47803,1,8,0:0:0:0:
192,192,47803,128,2,47953:0:0:0:0:
320,192,47953,1,0,0:0:0:0:
448,192,47953,128,0,48103:0:0:0:0:
64,192,48103,128,2,48253:0:0:0:0:
192,192,48103,1,0,0:0:0:0:
448,192,48253,1,0,0:0:0:0:
64,192,48403,1,8,0:0:0:0:
192,192,48403,1,2,0:0:0:0:
320,192,48403,1,0,0:0:0:0:
448,192,48553,1,0,0:0:0:0:
320,192,48703,1,2,0:0:0:0:
192,192,48703,1,0,0:0:0:0:
192,192,48853,1,2,0:0:0:0:
320,192,48853,1,0,0:0:0:0:
64,192,49003,1,8,0:0:0:0:
320,192,49003,1,2,0:0:0:0:
448,192,49003,1,0,0:0:0:0:
192,192,49153,1,2,0:0:0:0:
64,192,49153,1,0,0:0:0:0:
448,192,49228,1,2,0:0:0:0:
320,192,49228,1,0,0:0:0:0:
192,192,49303,1,2,0:0:0:0:
64,192,49303,128,4,49903:0:0:0:0:
448,192,49603,128,0,49903:0:0:0:0:
192,192,49903,128,2,49978:0:0:0:0:
320,192,49903,1,0,0:0:0:0:
192,192,50053,128,0,50128:0:0:0:0:
192,192,50203,128,0,50278:0:0:0:0:
192,192,50353,128,0,50428:0:0:0:0:
448,192,50503,1,2,0:0:0:0:
320,192,50540,1,0,0:0:0:0:
192,192,50578,1,0,0:0:0:0:
64,192,50615,1,0,0:0:0:0:
448,192,50653,1,0,0:0:0:0:
320,192,50690,1,0,0:0:0:0:
192,192,50728,1,0,0:0:0:0:
64,192,50765,1,0,0:0:0:0:
448,192,50803,128,0,51403:0:0:0:0:
64,192,51103,128,2,51403:0:0:0:0:
192,192,51103,1,8,0:0:0:0:
320,192,51253,128,0,51403:0:0:0:0:
192,192,51403,1,2,0:0:0:0:
192,192,51553,128,0,51703:0:0:0:0:
320,192,51553,128,0,51703:0:0:0:0:
64,192,51703,1,2,0:0:0:0:
448,192,51703,1,4,0:0:0:0:
192,192,51853,1,0,0:0:0:0:
448,192,51853,1,0,0:0:0:0:
64,192,52003,1,0,0:0:0:0:
320,192,52003,1,0,0:0:0:0:
320,192,52153,1,2,0:0:0:0:
448,192,52153,1,0,0:0:0:0:
64,192,52303,128,0,52378:0:0:0:70:LR4_SnareBPDT.wav
192,192,52303,128,0,52378:0:0:0:0:
448,192,52303,1,0,0:0:0:0:
64,192,52453,128,0,52528:0:0:0:0:
192,192,52453,128,0,52528:0:0:0:0:
64,192,52603,128,0,52678:0:0:0:0:
192,192,52603,128,0,52678:0:0:0:0:
320,192,52603,1,0,0:0:0:0:
64,192,52903,128,0,53503:0:0:0:0:
448,192,52903,128,0,53053:0:0:0:0:
320,192,53053,128,0,53203:0:0:0:0:
192,192,53203,128,2,53353:0:0:0:0:
448,192,53203,1,0,0:0:0:0:
320,192,53503,1,0,0:0:0:70:LR4_SnareBPDT.wav
448,192,53503,1,0,0:0:0:0:
192,192,53653,1,0,0:0:0:0:
64,192,53803,128,0,53953:0:0:0:0:
320,192,53803,1,0,0:0:0:0:
192,192,53953,128,0,54103:0:0:0:0:
448,192,53953,1,0,0:0:0:0:
64,192,54103,1,2,0:0:0:0:
320,192,54103,1,0,0:0:0:0:
192,192,54253,1,0,0:0:0:0:
448,192,54253,1,0,0:0:0:0:
64,192,54403,1,2,0:0:0:0:
448,192,54403,1,0,0:0:0:0:
192,192,54553,1,0,0:0:0:0:
320,192,54553,1,0,0:0:0:0:
64,192,54703,1,0,0:0:0:70:LR4_SnareBPDT.wav
448,192,54703,1,0,0:0:0:0:
192,192,54740,1,0,0:0:0:0:
320,192,54778,1,0,0:0:0:0:
448,192,54815,1,0,0:0:0:0:
64,192,54853,1,0,0:0:0:0:
192,192,54890,1,0,0:0:0:0:
448,192,54928,1,0,0:0:0:0:
320,192,54965,1,0,0:0:0:0:
64,192,55003,1,0,0:0:0:0:
192,192,55003,1,0,0:0:0:0:
320,192,55153,1,0,0:0:0:0:
64,192,55303,1,0,0:0:0:0:
448,192,55303,128,0,55528:0:0:0:0:
192,192,55603,1,2,0:0:0:0:
320,192,55603,128,0,55828:0:0:0:0:
64,192,55903,1,0,0:0:0:70:LR4_SnareBPDT.wav
192,192,55903,1,0,0:0:0:0:
448,192,55903,1,0,0:0:0:0:
192,192,56053,1,2,0:0:0:0:
320,192,56053,1,0,0:0:0:0:
64,192,56203,1,0,0:0:0:70:LR4_SnareBPDT.wav
320,192,56203,1,0,0:0:0:0:
448,192,56203,1,0,0:0:0:0:
64,192,56503,1,4,0:0:0:0:
192,192,56503,1,2,0:0:0:0:
64,192,56653,1,0,0:0:0:0:
448,192,56653,1,0,0:0:0:0:
320,192,56803,1,0,0:0:0:0:
448,192,56803,1,0,0:0:0:0:
64,192,56953,1,2,0:0:0:0:
192,192,56953,1,0,0:0:0:0:
320,192,57028,1,2,0:0:0:0:
448,192,57028,1,0,0:0:0:0:
64,192,57103,1,0,0:0:0:70:LR4_SnareBPDT.wav
192,192,57103,1,0,0:0:0:0:
320,192,57253,128,0,57328:0:0:0:0:
448,192,57253,128,0,57328:0:0:0:0:
320,192,57403,128,0,57478:0:0:0:0:
448,192,57403,128,0,57478:0:0:0:0:
64,192,57553,128,0,57703:0:0:0:0:
192,192,57553,128,0,57703:0:0:0:0:
320,192,57703,1,0,0:0:0:0:
448,192,57703,128,0,58003:0:0:0:0:
64,192,58003,128,2,58303:0:0:0:0:
192,192,58003,1,0,0:0:0:0:
192,192,58303,128,0,58603:0:0:0:70:LR4_SnareBPDT.wav
320,192,58303,1,0,0:0:0:0:
448,192,58303,1,0,0:0:0:0:
448,192,58603,128,0,58903:0:0:0:0:
320,192,58678,128,0,58903:0:0:0:0:
64,192,58753,128,0,58903:0:0:0:0:
192,192,58903,1,2,0:0:0:0:
448,192,59053,128,0,59203:0:0:0:0:
320,192,59128,128,0,59203:0:0:0:0:
64,192,59203,128,0,59353:0:0:0:0:
192,192,59278,128,0,59353:0:0:0:0:
192,192,59503,1,0,0:0:0:70:LR4_SnareBPDT.wav
320,192,59503,1,0,0:0:0:0:
448,192,59503,1,0,0:0:0:0:
64,192,59653,1,0,0:0:0:0:
192,192,59690,1,0,0:0:0:0:
320,192,59728,1,0,0:0:0:0:
448,192,59765,1,0,0:0:0:0:
64,192,59803,1,2,0:0:0:0:
192,192,59840,1,0,0:0:0:0:
448,192,59878,1,0,0:0:0:0:
320,192,59915,1,0,0:0:0:0:
64,192,59953,1,0,0:0:0:0:
192,192,59990,1,0,0:0:0:0:
448,192,60028,1,0,0:0:0:0:
320,192,60065,1,0,0:0:0:0:
64,192,60103,128,0,60178:0:0:0:0:
192,192,60103,128,0,60178:0:0:0:0:
64,192,60253,128,0,60328:0:0:0:0:
192,192,60253,128,0,60328:0:0:0:0:
320,192,60403,1,2,0:0:0:0:
448,192,60403,128,0,60703:0:0:0:0:
64,192,60703,1,0,0:0:0:70:LR4_SnareBPDT.wav
192,192,60703,1,0,0:0:0:0:
192,192,60853,1,2,0:0:0:0:
320,192,60853,1,0,0:0:0:0:
64,192,61003,1,0,0:0:0:70:LR4_SnareBPDT.wav
320,192,61003,1,0,0:0:0:0:
448,192,61003,1,0,0:0:0:0:
192,192,61303,1,2,0:0:0:0:
320,192,61303,1,4,0:0:0:0:
448,192,61603,128,0,61903:0:0:0:0:
320,192,61678,128,0,61903:0:0:0:0:
192,192,61753,128,0,61903:0:0:0:0:
64,192,61903,1,2,0:0:0:0:
192,192,62203,128,0,62278:0:0:0:0:
192,192,62353,128,0,62428:0:0:0:0:
448,192,62503,1,2,0:0:0:0:
320,192,62540,1,0,0:0:0:0:
192,192,62578,1,0,0:0:0:0:
64,192,62615,1,0,0:0:0:0:
448,192,62653,1,0,0:0:0:0:
320,192,62690,1,0,0:0:0:0:
64,192,62728,1,0,0:0:0:0:
192,192,62765,1,0,0:0:0:0:
448,192,62803,1,0,0:0:0:0:
320,192,62840,1,0,0:0:0:0:
64,192,62878,1,0,0:0:0:0:
192,192,62915,1,0,0:0:0:0:
320,192,62953,1,0,0:0:0:0:
448,192,62990,1,0,0:0:0:0:
64,192,63028,1,0,0:0:0:0:
192,192,63065,1,0,0:0:0:0:
320,192,63103,128,2,63178:0:0:0:0:
448,192,63103,128,8,63178:0:0:0:0:
320,192,63253,128,0,63328:0:0:0:0:
448,192,63253,128,0,63328:0:0:0:0:
64,192,63403,1,2,0:0:0:0:
192,192,63403,1,0,0:0:0:0:
320,192,63553,128,0,63703:0:0:0:0:
64,192,63703,1,2,0:0:0:0:
448,192,63703,1,4,0:0:0:0:
192,192,63853,1,0,0:0:0:0:
64,192,64003,1,8,0:0:0:0:
320,192,64003,1,2,0:0:0:0:
448,192,64003,1,0,0:0:0:0:
192,192,64153,1,0,0:0:0:0:
320,192,64303,128,2,64378:0:0:0:0:
448,192,64303,1,0,0:0:0:0:
64,192,64453,1,0,0:0:0:0:
320,192,64453,128,0,64528:0:0:0:0:
64,192,64603,128,8,64678:0:0:0:0:
448,192,64603,1,2,0:0:0:0:
192,192,64603,1,0,0:0:0:0:
320,192,64753,1,0,0:0:0:0:
64,192,64903,1,2,0:0:0:0:
192,192,64903,1,0,0:0:0:0:
320,192,65053,1,0,0:0:0:0:
64,192,65203,1,2,0:0:0:0:
192,192,65203,1,8,0:0:0:0:
448,192,65203,1,0,0:0:0:0:
320,192,65353,1,0,0:0:0:0:
448,192,65503,128,2,65803:0:0:0:0:
320,192,65578,128,0,65803:0:0:0:0:
192,192,65653,128,0,65803:0:0:0:0:
64,192,65803,1,10,0:0:0:0:
64,192,65953,1,2,0:0:0:0:
192,192,65953,1,0,0:0:0:0:
320,192,66028,1,2,0:0:0:0:
448,192,66028,1,0,0:0:0:0:
64,192,66103,1,2,0:0:0:0:
192,192,66103,1,0,0:0:0:0:
320,192,66253,1,0,0:0:0:0:
64,192,66403,1,2,0:0:0:0:
192,192,66403,1,8,0:0:0:0:
448,192,66403,1,0,0:0:0:0:
320,192,66553,1,0,0:0:0:0:
64,192,66703,1,2,0:0:0:0:
448,192,66703,1,0,0:0:0:0:
192,192,66740,1,0,0:0:0:0:
320,192,66778,1,0,0:0:0:0:
448,192,66815,1,0,0:0:0:0:
64,192,66853,1,0,0:0:0:0:
192,192,66890,1,0,0:0:0:0:
320,192,66928,1,0,0:0:0:0:
448,192,66965,1,0,0:0:0:0:
64,192,67003,1,2,0:0:0:0:
192,192,67003,1,8,0:0:0:0:
320,192,67153,128,0,67303:0:0:0:0:
448,192,67153,1,0,0:0:0:0:
64,192,67303,1,2,0:0:0:0:
192,192,67303,128,0,67453:0:0:0:0:
320,192,67453,1,0,0:0:0:0:
64,192,67603,1,8,0:0:0:0:
192,192,67603,1,2,0:0:0:0:
448,192,67603,1,0,0:0:0:0:
320,192,67753,128,0,67903:0:0:0:0:
64,192,67903,128,2,68053:0:0:0:0:
192,192,67903,1,0,0:0:0:0:
320,192,68053,1,0,0:0:0:0:
64,192,68203,1,2,0:0:0:0:
192,192,68203,1,8,0:0:0:0:
448,192,68203,128,0,68353:0:0:0:0:
320,192,68353,1,0,0:0:0:0:
64,192,68503,1,2,0:0:0:0:
192,192,68503,1,4,0:0:0:0:
448,192,68503,1,0,0:0:0:0:
192,192,68653,1,2,0:0:0:0:
320,192,68653,1,0,0:0:0:0:
64,192,68803,1,8,0:0:0:0:
320,192,68803,1,2,0:0:0:0:
448,192,68803,1,0,0:0:0:0:
192,192,68953,1,0,0:0:0:0:
448,192,69103,128,2,69178:0:0:0:0:
320,192,69103,1,0,0:0:0:0:
448,192,69253,128,0,69328:0:0:0:0:
64,192,69253,1,0,0:0:0:0:
448,192,69403,1,8,0:0:0:0:
320,192,69403,1,2,0:0:0:0:
192,192,69403,128,0,69478:0:0:0:0:
64,192,69553,1,0,0:0:0:0:
192,192,69703,1,2,0:0:0:0:
320,192,69703,1,0,0:0:0:0:
192,192,69853,1,0,0:0:0:0:
64,192,70003,1,2,0:0:0:0:
320,192,70003,1,8,0:0:0:0:
448,192,70003,1,0,0:0:0:0:
320,192,70153,1,0,0:0:0:0:
64,192,70303,1,2,0:0:0:0:
192,192,70303,1,0,0:0:0:0:
64,192,70453,1,0,0:0:0:0:
192,192,70603,1,8,0:0:0:0:
320,192,70603,1,2,0:0:0:0:
448,192,70603,1,0,0:0:0:0:
64,192,70753,1,2,0:0:0:0:
192,192,70753,1,0,0:0:0:0:
320,192,70828,1,2,0:0:0:0:
448,192,70828,1,0,0:0:0:0:
64,192,70903,1,2,0:0:0:0:
192,192,70903,1,0,0:0:0:0:
64,192,71053,1,2,0:0:0:0:
448,192,71053,1,0,0:0:0:0:
192,192,71128,1,2,0:0:0:0:
320,192,71128,1,0,0:0:0:0:
64,192,71203,1,8,0:0:0:0:
448,192,71203,1,2,0:0:0:0:
320,192,71353,1,2,0:0:0:0:
448,192,71353,1,0,0:0:0:0:
64,192,71428,1,2,0:0:0:0:
192,192,71428,1,0,0:0:0:0:
320,192,71503,1,2,0:0:0:0:
448,192,71503,1,0,0:0:0:0:
192,192,71653,1,2,0:0:0:0:
320,192,71653,1,0,0:0:0:0:
64,192,71803,1,8,0:0:0:0:
192,192,71803,1,2,0:0:0:0:
320,192,71878,1,2,0:0:0:0:
448,192,71878,1,0,0:0:0:0:
64,192,71953,1,2,0:0:0:0:
192,192,71953,1,0,0:0:0:0:
320,192,72028,1,2,0:0:0:0:
64,192,72103,1,2,0:0:0:0:
192,192,72103,1,4,0:0:0:0:
448,192,72103,1,0,0:0:0:0:
320,192,72253,1,0,0:0:0:0:
64,192,72403,128,0,72703:0:0:0:0:
192,192,72553,128,0,72703:0:0:0:0:
320,192,72703,1,0,0:0:0:0:
448,192,72778,128,0,72853:0:0:0:0:
320,192,72928,128,0,73003:0:0:0:0:
192,192,73003,1,0,0:0:0:0:
320,192,73153,1,0,0:0:0:0:
64,192,73303,128,4,74503:0:0:0:0:
192,192,73303,1,2,0:0:0:0:
448,192,73303,128,0,73603:0:0:0:0:
320,192,73603,128,0,73903:0:0:0:0:
192,192,73903,128,0,74203:0:0:0:100:CLAP_D-CEPTOR_GuessWhat.wav
448,192,73903,1,0,0:0:0:0:
448,192,74203,128,0,74503:0:0:0:0:
192,192,74503,128,0,74803:0:0:0:0:
320,192,74503,128,0,75703:0:0:0:0:
64,192,74803,128,0,75103:0:0:0:0:
192,192,75103,1,0,0:0:0:100:CLAP_D-CEPTOR_GuessWhat.wav
448,192,75103,128,0,75403:0:0:0:0:
192,192,75403,128,0,75703:0:0:0:0:
64,192,75703,128,0,76903:0:0:0:0:
448,192,75703,128,0,76003:0:0:0:0:
320,192,76003,128,0,76303:0:0:0:0:
192,192,76303,128,0,76603:0:0:0:100:CLAP_D-CEPTOR_GuessWhat.wav
448,192,76303,1,0,0:0:0:0:
320,192,76603,128,0,76903:0:0:0:0:
192,192,76903,128,0,77203:0:0:0:0:
448,192,76903,128,0,78103:0:0:0:0:
64,192,77203,128,0,77503:0:0:0:0:
192,192,77503,128,0,77803:0:0:0:100:CLAP_D-CEPTOR_GuessWhat.wav
320,192,77503,1,0,0:0:0:0:
320,192,77803,128,0,78103:0:0:0:0:
64,192,78103,128,0,79303:0:0:0:0:
192,192,78103,128,0,78403:0:0:0:0:
448,192,78403,128,0,78703:0:0:0:0:
192,192,78703,1,0,0:0:0:100:CLAP_D-CEPTOR_GuessWhat.wav
320,192,78703,128,0,79003:0:0:0:0:
192,192,79003,128,0,79303:0:0:0:0:
320,192,79303,128,0,79603:0:0:0:0:
448,192,79303,128,0,80503:0:0:0:0:
64,192,79603,128,0,79903:0:0:0:0:
192,192,79903,128,0,80203:0:0:0:100:CLAP_D-CEPTOR_GuessWhat.wav
320,192,79903,1,0,0:0:0:0:
64,192,80203,128,0,80503:0:0:0:0:
192,192,80503,128,0,80803:0:0:0:0:
320,192,80503,128,0,81703:0:0:0:0:
448,192,80803,128,0,81103:0:0:0:0:
64,192,81103,128,0,81403:0:0:0:100:CLAP_D-CEPTOR_GuessWhat.wav
192,192,81103,1,0,0:0:0:0:
448,192,81403,128,0,81703:0:0:0:0:
64,192,81703,128,0,82003:0:0:0:0:
192,192,81703,128,0,82903:0:0:0:0:
448,192,82003,128,0,82303:0:0:0:0:
64,192,82303,1,0,0:0:0:100:CLAP_D-CEPTOR_GuessWhat.wav
320,192,82303,128,0,82603:0:0:0:0:
64,192,82603,128,0,82903:0:0:0:0:
320,192,82903,1,2,0:0:0:0:
448,192,82903,128,4,83353:0:0:0:0:
64,192,83053,1,0,0:0:0:0:
192,192,83203,1,0,0:0:0:0:
64,192,83353,128,0,83503:0:0:0:0:
320,192,83353,1,0,0:0:0:0:
192,192,83503,128,0,83803:0:0:0:0:
448,192,83503,1,0,0:0:0:0:
64,192,83653,1,0,0:0:0:0:
320,192,83803,128,0,84103:0:0:0:0:
448,192,83803,1,0,0:0:0:0:
192,192,83953,1,0,0:0:0:0:
64,192,84103,128,0,84553:0:0:0:0:
448,192,84103,1,0,0:0:0:0:
192,192,84253,1,0,0:0:0:0:
448,192,84403,1,0,0:0:0:0:
192,192,84553,1,0,0:0:0:0:
320,192,84553,128,0,84703:0:0:0:0:
64,192,84703,1,0,0:0:0:0:
448,192,84703,128,0,85303:0:0:0:0:
320,192,84853,1,0,0:0:0:0:
64,192,85003,1,0,0:0:0:0:
192,192,85153,1,0,0:0:0:0:
64,192,85303,1,0,0:0:0:0:
320,192,85303,128,0,85753:0:0:0:0:
192,192,85453,1,0,0:0:0:0:
64,192,85603,1,0,0:0:0:0:
192,192,85753,128,0,85903:0:0:0:0:
448,192,85753,1,0,0:0:0:0:
64,192,85903,128,0,86203:0:0:0:0:
320,192,85903,1,0,0:0:0:0:
192,192,86053,1,0,0:0:0:0:
320,192,86203,1,0,0:0:0:0:
448,192,86203,128,0,86503:0:0:0:0:
64,192,86353,1,0,0:0:0:0:
192,192,86503,1,0,0:0:0:0:
320,192,86503,128,0,86803:0:0:0:0:
448,192,86653,1,0,0:0:0:0:
64,192,86803,128,0,87103:0:0:0:0:
192,192,86803,1,0,0:0:0:0:
320,192,86953,1,0,0:0:0:0:
192,192,87103,128,0,87403:0:0:0:0:
448,192,87103,1,0,0:0:0:0:
320,192,87253,1,0,0:0:0:0:
64,192,87403,1,0,0:0:0:0:
448,192,87403,128,0,87553:0:0:0:0:
192,192,87553,1,0,0:0:0:0:
320,192,87553,128,0,87703:0:0:0:0:
64,192,87703,128,4,87853:0:0:0:0:
448,192,87703,1,0,0:0:0:0:
64,192,88003,128,0,88153:0:0:0:0:
192,192,88003,1,0,0:0:0:0:
320,192,88003,1,0,0:0:0:0:
320,192,88303,1,0,0:0:0:0:
448,192,88303,128,0,88453:0:0:0:0:
64,192,88603,1,0,0:0:0:0:
192,192,88603,1,0,0:0:0:0:
448,192,88603,128,0,88753:0:0:0:0:
192,192,88903,128,0,89053:0:0:0:0:
320,192,88903,1,0,0:0:0:0:
64,192,89203,1,0,0:0:0:0:
192,192,89203,128,0,89353:0:0:0:0:
448,192,89203,1,0,0:0:0:0:
192,192,89503,1,2,0:0:0:0:
320,192,89503,128,0,89653:0:0:0:0:
64,192,89803,1,2,0:0:0:0:
320,192,89803,128,0,89953:0:0:0:0:
448,192,89803,1,0,0:0:0:0:
64,192,90103,128,2,90253:0:0:0:0:
192,192,90103,1,0,0:0:0:0:
448,192,90253,1,0,0:0:0:0:
64,192,90403,128,0,90553:0:0:0:0:
320,192,90403,1,0,0:0:0:0:
448,192,90553,1,0,0:0:0:0:
64,192,90703,128,0,90853:0:0:0:0:
192,192,90703,1,0,0:0:0:0:
320,192,90853,1,0,0:0:0:0:
64,192,91003,128,0,91153:0:0:0:0:
192,192,91003,1,0,0:0:0:0:
448,192,91153,1,0,0:0:0:0:
64,192,91303,128,0,91453:0:0:0:0:
320,192,91303,1,0,0:0:0:0:
192,192,91453,1,0,0:0:0:0:
448,192,91603,1,0,0:0:0:0:
320,192,91603,1,0,0:0:0:0:
192,192,91678,1,2,0:0:0:0:
64,192,91678,1,0,0:0:0:0:
448,192,91753,1,2,0:0:0:0:
320,192,91753,1,0,0:0:0:0:
64,192,91828,1,2,0:0:0:0:
192,192,91828,1,0,0:0:0:0:
448,192,91903,128,0,92053:0:0:0:0:
320,192,92053,128,0,92203:0:0:0:0:
64,192,92203,1,0,0:0:0:100:LR4_SnareBPDT.wav
448,192,92203,1,0,0:0:0:0:
192,192,92203,128,0,92353:0:0:0:0:
320,192,92353,128,0,92503:0:0:0:0:
192,192,92503,1,2,0:0:0:0:
448,192,92503,1,4,0:0:0:0:
64,192,92503,128,0,92653:0:0:0:0:
320,192,92653,1,0,0:0:0:0:
192,192,92803,128,8,92953:0:0:0:0:
64,192,92803,1,2,0:0:0:0:
448,192,92803,1,0,0:0:0:0:
320,192,92953,1,0,0:0:0:0:
448,192,92953,128,0,93103:0:0:0:0:
192,192,93103,1,2,0:0:0:0:
64,192,93103,128,0,93253:0:0:0:0:
448,192,93253,1,0,0:0:0:0:
64,192,93403,1,8,0:0:0:0:
192,192,93403,128,2,93553:0:0:0:0:
320,192,93403,1,0,0:0:0:0:
448,192,93553,1,0,0:0:0:0:
64,192,93703,128,2,93853:0:0:0:0:
192,192,93703,1,0,0:0:0:0:
320,192,93853,1,0,0:0:0:0:
64,192,94003,1,2,0:0:0:0:
192,192,94003,1,8,0:0:0:0:
448,192,94003,128,0,94078:0:0:0:0:
320,192,94153,1,0,0:0:0:0:
448,192,94153,128,0,94228:0:0:0:0:
64,192,94303,1,2,0:0:0:0:
192,192,94303,128,0,94453:0:0:0:0:
448,192,94453,1,0,0:0:0:0:
64,192,94603,128,8,94753:0:0:0:0:
320,192,94603,1,2,0:0:0:0:
448,192,94603,1,0,0:0:0:0:
192,192,94753,128,0,94903:0:0:0:0:
64,192,94903,1,2,0:0:0:0:
320,192,94903,128,0,95053:0:0:0:0:
448,192,94903,1,0,0:0:0:0:
64,192,95053,1,2,0:0:0:0:
448,192,95053,1,0,0:0:0:0:
64,192,95203,1,2,0:0:0:0:
192,192,95203,1,8,0:0:0:0:
320,192,95203,1,0,0:0:0:0:
320,192,95353,1,0,0:0:0:0:
448,192,95353,128,0,95503:0:0:0:0:
64,192,95503,128,2,95653:0:0:0:0:
192,192,95503,1,0,0:0:0:0:
320,192,95653,128,0,95803:0:0:0:0:
448,192,95653,1,0,0:0:0:0:
64,192,95803,128,2,95953:0:0:0:0:
192,192,95803,1,8,0:0:0:0:
320,192,95953,1,0,0:0:0:0:
448,192,95953,128,0,96103:0:0:0:0:
64,192,96103,1,2,0:0:0:0:
192,192,96103,128,0,96253:0:0:0:0:
320,192,96253,1,0,0:0:0:0:
64,192,96403,1,8,0:0:0:0:
192,192,96403,1,2,0:0:0:0:
448,192,96403,1,0,0:0:0:0:
320,192,96553,128,0,96703:0:0:0:0:
64,192,96703,128,2,96853:0:0:0:0:
448,192,96703,1,0,0:0:0:0:
192,192,96853,128,2,97003:0:0:0:0:
448,192,96853,1,0,0:0:0:0:
64,192,97003,128,2,97153:0:0:0:0:
320,192,97003,1,8,0:0:0:0:
320,192,97153,1,2,0:0:0:0:
448,192,97153,1,0,0:0:0:0:
192,192,97228,1,2,0:0:0:0:
64,192,97303,1,2,0:0:0:0:
320,192,97303,1,4,0:0:0:0:
448,192,97303,1,0,0:0:0:0:
192,192,97453,1,0,0:0:0:0:
64,192,97603,1,8,0:0:0:0:
192,192,97603,1,2,0:0:0:0:
448,192,97603,128,0,97753:0:0:0:0:
64,192,97753,128,0,97903:0:0:0:0:
320,192,97753,1,0,0:0:0:0:
192,192,97903,128,2,98053:0:0:0:0:
448,192,97903,1,0,0:0:0:0:
64,192,98053,1,0,0:0:0:0:
192,192,98203,1,8,0:0:0:0:
320,192,98203,128,2,98353:0:0:0:0:
448,192,98203,1,0,0:0:0:0:
64,192,98353,1,0,0:0:0:0:
192,192,98503,1,2,0:0:0:0:
320,192,98503,1,0,0:0:0:0:
448,192,98503,128,0,98653:0:0:0:0:
320,192,98653,1,2,0:0:0:0:
192,192,98653,1,0,0:0:0:0:
64,192,98803,128,2,98878:0:0:0:0:
320,192,98803,1,8,0:0:0:0:
448,192,98803,1,0,0:0:0:0:
64,192,98953,128,0,99028:0:0:0:0:
192,192,98953,1,0,0:0:0:0:
448,192,99103,1,2,0:0:0:0:
320,192,99103,128,0,99253:0:0:0:0:
192,192,99253,1,0,0:0:0:0:
64,192,99403,1,8,0:0:0:0:
192,192,99403,1,2,0:0:0:0:
448,192,99403,128,0,99553:0:0:0:0:
64,192,99553,1,0,0:0:0:0:
320,192,99553,128,0,99703:0:0:0:0:
192,192,99703,128,2,99853:0:0:0:0:
448,192,99703,1,0,0:0:0:0:
320,192,99853,1,0,0:0:0:0:
64,192,100003,1,2,0:0:0:0:
192,192,100003,1,8,0:0:0:0:
448,192,100003,1,0,0:0:0:0:
320,192,100153,128,0,100303:0:0:0:0:
448,192,100153,1,0,0:0:0:0:
64,192,100303,128,2,100453:0:0:0:0:
192,192,100303,1,0,0:0:0:0:
320,192,100453,1,0,0:0:0:0:
448,192,100453,128,0,100603:0:0:0:0:
64,192,100603,1,2,0:0:0:0:
192,192,100603,128,8,100753:0:0:0:0:
320,192,100753,1,0,0:0:0:0:
448,192,100753,128,0,100903:0:0:0:0:
64,192,100903,128,2,101053:0:0:0:0:
192,192,100903,1,0,0:0:0:0:
320,192,101053,1,0,0:0:0:0:
64,192,101203,1,8,0:0:0:0:
192,192,101203,1,2,0:0:0:0:
448,192,101203,1,0,0:0:0:0:
320,192,101353,1,0,0:0:0:0:
64,192,101503,128,2,101653:0:0:0:0:
448,192,101503,1,0,0:0:0:0:
320,192,101653,128,0,101803:0:0:0:0:
64,192,101803,1,2,0:0:0:0:
192,192,101803,128,8,101953:0:0:0:0:
448,192,101803,1,0,0:0:0:0:
320,192,101953,1,2,0:0:0:0:
448,192,101953,1,0,0:0:0:0:
64,192,102103,128,2,102253:0:0:0:0:
192,192,102103,1,4,0:0:0:0:
64,192,102403,1,0,0:0:0:0:
320,192,102403,128,0,102553:0:0:0:0:
192,192,102553,128,0,102703:0:0:0:0:
64,192,102703,1,8,0:0:0:0:
320,192,102703,1,2,0:0:0:0:
448,192,102703,128,0,103003:0:0:0:0:
64,192,103003,128,0,103228:0:0:0:0:
320,192,103303,128,2,103603:0:0:0:0:
448,192,103303,1,0,0:0:0:0:
192,192,103603,128,0,103678:0:0:0:0:
192,192,103753,128,0,103828:0:0:0:0:
64,192,103903,1,8,0:0:0:0:
320,192,103903,1,2,0:0:0:0:
448,192,103903,128,0,104203:0:0:0:0:
320,192,104203,128,0,104353:0:0:0:0:
192,192,104353,128,2,104503:0:0:0:0:
448,192,104353,1,0,0:0:0:0:
64,192,104503,128,2,104953:0:0:0:0:
320,192,104503,1,0,0:0:0:0:
448,192,104953,128,0,105028:0:0:0:0:
192,192,105028,128,0,105103:0:0:0:0:
320,192,105103,1,8,0:0:0:0:
448,192,105103,128,2,105178:0:0:0:0:
64,192,105178,128,0,105253:0:0:0:0:
320,192,105253,128,0,105328:0:0:0:0:
64,192,105328,128,0,105403:0:0:0:0:
448,192,105403,128,0,105478:0:0:0:0:
192,192,105478,128,0,105553:0:0:0:0:
320,192,105553,128,0,105628:0:0:0:0:
64,192,105628,128,0,105703:0:0:0:0:
192,192,105703,1,2,0:0:0:0:
448,192,105703,128,0,106153:0:0:0:0:
64,192,106153,128,0,106303:0:0:0:0:
192,192,106303,128,8,106453:0:0:0:0:
320,192,106303,1,2,0:0:0:0:
448,192,106303,1,0,0:0:0:0:
64,192,106453,128,2,106603:0:0:0:0:
320,192,106453,1,0,0:0:0:0:
448,192,106453,1,0,0:0:0:0:
192,192,106603,128,2,106753:0:0:0:0:
320,192,106603,1,0,0:0:0:0:
448,192,106603,1,0,0:0:0:0:
64,192,106753,128,2,106903:0:0:0:0:
320,192,106753,1,0,0:0:0:0:
448,192,106753,1,0,0:0:0:0:
192,192,106903,1,2,0:0:0:0:
448,192,106903,128,4,107053:0:0:0:0:
320,192,107053,1,0,0:0:0:0:
64,192,107203,1,8,0:0:0:0:
192,192,107203,1,2,0:0:0:0:
448,192,107203,128,0,107353:0:0:0:0:
320,192,107353,1,0,0:0:0:0:
64,192,107503,128,2,107653:0:0:0:0:
192,192,107503,1,0,0:0:0:0:
448,192,107653,1,0,0:0:0:0:
64,192,107803,128,8,107953:0:0:0:0:
192,192,107803,1,2,0:0:0:0:
320,192,107803,1,0,0:0:0:0:
448,192,107953,1,0,0:0:0:0:
64,192,108103,1,2,0:0:0:0:
320,192,108103,128,0,108253:0:0:0:0:
448,192,108253,1,0,0:0:0:0:
64,192,108403,1,2,0:0:0:0:
192,192,108403,1,8,0:0:0:0:
320,192,108403,128,0,108553:0:0:0:0:
448,192,108553,1,0,0:0:0:0:
64,192,108703,1,2,0:0:0:0:
192,192,108703,128,0,108853:0:0:0:0:
448,192,108853,1,0,0:0:0:0:
64,192,109003,1,8,0:0:0:0:
192,192,109003,128,2,109153:0:0:0:0:
320,192,109003,1,0,0:0:0:0:
64,192,109303,1,2,0:0:0:0:
192,192,109303,1,0,0:0:0:0:
448,192,109303,128,0,109453:0:0:0:0:
64,192,109453,1,2,0:0:0:0:
192,192,109453,1,0,0:0:0:0:
192,192,109603,1,2,0:0:0:0:
320,192,109603,1,8,0:0:0:0:
448,192,109603,128,0,109753:0:0:0:0:
64,192,109753,1,0,0:0:0:0:
320,192,109903,1,2,0:0:0:0:
448,192,109903,128,0,110053:0:0:0:0:
64,192,110053,1,0,0:0:0:0:
192,192,110203,1,2,0:0:0:0:
320,192,110203,1,8,0:0:0:0:
448,192,110203,128,0,110353:0:0:0:0:
64,192,110353,1,0,0:0:0:0:
192,192,110503,1,2,0:0:0:0:
448,192,110503,128,0,110653:0:0:0:0:
64,192,110653,1,0,0:0:0:0:
192,192,110803,1,8,0:0:0:0:
320,192,110803,1,2,0:0:0:0:
448,192,110803,128,0,110953:0:0:0:0:
64,192,110953,1,0,0:0:0:0:
192,192,111103,128,2,111253:0:0:0:0:
320,192,111103,1,0,0:0:0:0:
64,192,111253,128,0,111403:0:0:0:0:
192,192,111403,128,0,111553:0:0:0:0:
320,192,111553,128,0,111703:0:0:0:0:
64,192,111703,1,4,0:0:0:0:
448,192,111703,1,2,0:0:0:0:
192,192,112003,1,0,0:0:0:0:
448,192,112153,1,0,0:0:0:0:
64,192,112303,1,0,0:0:0:100:CLAP_D-CEPTOR_GuessWhat.wav
320,192,112303,1,0,0:0:0:0:
192,192,112603,1,0,0:0:0:0:
320,192,112903,1,0,0:0:0:0:
448,192,113203,1,0,0:0:0:0:
448,192,113353,1,0,0:0:0:0:
192,192,113503,1,0,0:0:0:100:CLAP_D-CEPTOR_GuessWhat.wav
320,192,113503,1,0,0:0:0:0:
64,192,113803,1,0,0:0:0:0:
192,192,113953,1,0,0:0:0:0:
320,192,114103,1,0,0:0:0:0:
448,192,114103,1,0,0:0:0:0:
64,192,117028,1,0,0:0:0:0:
192,192,117065,1,0,0:0:0:0:
320,192,117103,1,0,0:0:0:0:
448,192,117403,1,0,0:0:0:0:
320,192,117478,1,0,0:0:0:0:
192,192,117515,1,0,0:0:0:0:
64,192,117553,1,0,0:0:0:0:
64,192,118303,128,0,118903:0:0:0:0:
320,192,118903,1,0,0:0:0:70:000N Miracle 5ympho X.wav
448,192,118903,1,0,0:0:0:0:
64,192,118978,1,0,0:0:0:70:000N Miracle 5ympho X.wav
192,192,118978,1,0,0:0:0:0:
320,192,119053,1,0,0:0:0:70:000N Miracle 5ympho X.wav
448,192,119053,1,0,0:0:0:0:
64,192,119128,1,0,0:0:0:70:000N Miracle 5ympho X.wav
192,192,119128,1,0,0:0:0:0:
320,192,119203,1,0,0:0:0:70:000N Miracle 5ympho X.wav
448,192,119203,1,0,0:0:0:0:
64,192,119278,1,0,0:0:0:70:000N Miracle 5ympho X.wav
192,192,119278,1,0,0:0:0:0:
320,192,119353,1,0,0:0:0:70:000N Miracle 5ympho X.wav
448,192,119353,1,0,0:0:0:0:
64,192,119428,1,0,0:0:0:70:000N Miracle 5ympho X.wav
192,192,119428,1,0,0:0:0:0:
320,192,119503,1,0,0:0:0:70:000N Miracle 5ympho X.wav
448,192,119503,1,0,0:0:0:0:
64,192,119578,1,0,0:0:0:70:000N Miracle 5ympho X.wav
192,192,119578,1,0,0:0:0:0:
320,192,119653,1,0,0:0:0:70:000N Miracle 5ympho X.wav
448,192,119653,1,0,0:0:0:0:
64,192,119728,1,0,0:0:0:70:000N Miracle 5ympho X.wav
192,192,119728,1,0,0:0:0:0:
320,192,119803,1,0,0:0:0:70:000N Miracle 5ympho X.wav
448,192,119803,1,0,0:0:0:0:
64,192,119878,1,0,0:0:0:70:000N Miracle 5ympho X.wav
192,192,119878,1,0,0:0:0:0:
320,192,119953,1,0,0:0:0:70:000N Miracle 5ympho X.wav
448,192,119953,1,0,0:0:0:0:
64,192,120028,1,0,0:0:0:70:000N Miracle 5ympho X.wav
192,192,120028,1,0,0:0:0:0:
320,192,120103,1,0,0:0:0:70:000N Miracle 5ympho X.wav
448,192,120103,1,0,0:0:0:0:
64,192,120178,1,0,0:0:0:70:000N Miracle 5ympho X.wav
192,192,120178,1,0,0:0:0:0:
320,192,120253,1,0,0:0:0:70:000N Miracle 5ympho X.wav
448,192,120253,1,0,0:0:0:0:
64,192,120328,1,0,0:0:0:70:000N Miracle 5ympho X.wav
192,192,120328,1,0,0:0:0:0:
320,192,120403,1,0,0:0:0:70:000N Miracle 5ympho X.wav
448,192,120403,1,0,0:0:0:0:
64,192,120478,1,0,0:0:0:70:000N Miracle 5ympho X.wav
192,192,120478,1,0,0:0:0:0:
320,192,120553,1,0,0:0:0:70:000N Miracle 5ympho X.wav
448,192,120553,1,0,0:0:0:0:
64,192,120628,1,0,0:0:0:70:000N Miracle 5ympho X.wav
192,192,120628,1,0,0:0:0:0:
320,192,120703,1,0,0:0:0:70:000N Miracle 5ympho X.wav
448,192,120703,1,0,0:0:0:0:
192,192,120928,1,0,0:0:0:70:000N Miracle 5ympho X.wav
320,192,120928,1,0,0:0:0:0:
64,192,121153,1,0,0:0:0:70:000N Miracle 5ympho X.wav
192,192,121153,1,0,0:0:0:0:
320,192,121303,1,0,0:0:0:70:000N Miracle 5ympho X.wav
448,192,121303,1,0,0:0:0:0:
64,192,121378,1,0,0:0:0:70:000N Miracle 5ympho X.wav
192,192,121378,1,0,0:0:0:0:
320,192,121453,1,0,0:0:0:70:000N Miracle 5ympho X.wav
448,192,121453,1,0,0:0:0:0:
64,192,121528,1,0,0:0:0:70:000N Miracle 5ympho X.wav
192,192,121528,1,0,0:0:0:0:
320,192,121603,1,0,0:0:0:70:000N Miracle 5ympho X.wav
448,192,121603,1,0,0:0:0:0:
64,192,121678,1,0,0:0:0:70:000N Miracle 5ympho X.wav
192,192,121678,1,0,0:0:0:0:
320,192,121753,1,0,0:0:0:70:000N Miracle 5ympho X.wav
448,192,121753,1,0,0:0:0:0:
64,192,121828,1,0,0:0:0:70:000N Miracle 5ympho X.wav
192,192,121828,1,0,0:0:0:0:
320,192,121903,1,0,0:0:0:70:000N Miracle 5ympho X.wav
448,192,121903,1,0,0:0:0:0:
64,192,121978,1,0,0:0:0:70:000N Miracle 5ympho X.wav
192,192,121978,1,0,0:0:0:0:
320,192,122053,1,0,0:0:0:70:000N Miracle 5ympho X.wav
448,192,122053,1,0,0:0:0:0:
64,192,122128,1,0,0:0:0:70:000N Miracle 5ympho X.wav
192,192,122128,1,0,0:0:0:0:
320,192,122203,1,0,0:0:0:70:000N Miracle 5ympho X.wav
448,192,122203,1,0,0:0:0:0:
64,192,122278,1,0,0:0:0:70:000N Miracle 5ympho X.wav
192,192,122278,1,0,0:0:0:0:
320,192,122353,1,0,0:0:0:70:000N Miracle 5ympho X.wav
448,192,122353,1,0,0:0:0:0:
64,192,122428,1,0,0:0:0:70:000N Miracle 5ympho X.wav
192,192,122428,1,0,0:0:0:0:
320,192,122503,1,0,0:0:0:70:000N Miracle 5ympho X.wav
448,192,122503,1,0,0:0:0:0:
192,192,122803,1,0,0:0:0:70:000N Miracle 5ympho X.wav
320,192,122803,1,0,0:0:0:0:
64,192,123103,1,0,0:0:0:70:000N Miracle 5ympho X.wav
448,192,123103,1,0,0:0:0:0:
192,192,123253,1,0,0:0:0:70:000N Miracle 5ympho X.wav
320,192,123253,1,0,0:0:0:0:
64,192,123403,1,0,0:0:0:70:000N Miracle 5ympho X.wav
448,192,123403,1,0,0:0:0:0:
320,192,123478,1,0,0:0:0:70:000N Miracle 5ympho X.wav
192,192,123478,1,0,0:0:0:0:
64,192,123553,1,0,0:0:0:70:000N Miracle 5ympho X.wav
448,192,123553,1,0,0:0:0:0:
320,192,123628,1,0,0:0:0:70:000N Miracle 5ympho X.wav
192,192,123628,1,0,0:0:0:0:
64,192,123703,1,2,0:0:0:0:
448,192,123703,1,4,0:0:0:0:
448,192,124003,1,0,0:0:0:0:
320,192,124303,1,0,0:0:0:0:
64,192,124603,1,0,0:0:0:0:
192,192,124753,1,0,0:0:0:0:
64,192,124903,1,0,0:0:0:0:
448,192,124903,1,0,0:0:0:0:
320,192,125053,1,0,0:0:0:0:
192,192,125353,1,0,0:0:0:0:
448,192,125653,1,0,0:0:0:0:
64,192,125803,1,0,0:0:0:0:
320,192,125953,1,0,0:0:0:0:
192,192,126103,1,0,0:0:0:0:
448,192,126103,128,0,128203:0:0:0:0:
64,192,127303,128,0,128203:0:0:0:0:
192,192,128203,1,2,0:0:0:0:
320,192,128203,1,0,0:0:0:0:
64,192,128503,1,2,0:0:0:0:
192,192,128503,1,0,0:0:0:0:
448,192,128503,1,0,0:0:0:0:
320,192,128653,128,0,128803:0:0:0:0:
