osu file format v14

[General]
AudioFilename: audio.mp3
AudioLeadIn: 0
PreviewTime: 54405
Countdown: 0
SampleSet: Soft
StackLeniency: 0.7
Mode: 3
LetterboxInBreaks: 0
SpecialStyle: 0
WidescreenStoryboard: 0

[Editor]
DistanceSpacing: 1
BeatDivisor: 4
GridSize: 8
TimelineZoom: 2.5

[Metadata]
Title:Bisane Mung Nyawang (Nofin Asia Remix)
TitleUnicode:Bisane Mung Nyawang (Nofin Asia Remix)
Artist:Via Vallen
ArtistUnicode:Via Vallen
Creator:Draftnell
Version:Geleng Geleng
Source:
Tags:
BeatmapID:1986881
BeatmapSetID:951371

[Difficulty]
HPDrainRate:7
CircleSize:4
OverallDifficulty:7
ApproachRate:5
SliderMultiplier:1.4
SliderTickRate:1

[Events]
//Background and Video events
0,0,"BG.jpg",0,0
//Break Periods
//Storyboard Layer 0 (Background)
//Storyboard Layer 1 (Fail)
//Storyboard Layer 2 (Pass)
//Storyboard Layer 3 (Foreground)
//Storyboard Sound Samples

[TimingPoints]
274,375.91629597143,4,2,0,5,1,0
54405,-100,4,2,0,5,0,1
78464,-100,4,2,0,5,0,1
105530,-100,4,2,0,5,0,0
162669,-100,4,2,0,5,0,1
186728,-100,4,2,0,5,0,1
213794,-100,4,2,0,5,0,0

[HitObjects]
64,192,3281,5,0,0:0:0:0:
192,192,3281,1,0,0:0:0:0:
448,192,3657,1,0,0:0:0:0:
64,192,4033,1,0,0:0:0:0:
320,192,4409,1,0,0:0:0:0:
192,192,4784,128,0,5536:0:0:0:0:
64,192,4784,1,0,0:0:0:0:
320,192,5348,1,0,0:0:0:0:
448,192,5536,128,0,6288:0:0:0:0:
64,192,5536,1,0,0:0:0:0:
64,192,5912,128,0,6288:0:0:0:0:
320,192,5912,1,0,0:0:0:0:
192,192,6288,1,0,0:0:0:0:
320,192,6288,1,0,0:0:0:0:
448,192,6476,1,0,0:0:0:0:
192,192,6664,1,0,0:0:0:0:
64,192,6664,1,0,0:0:0:0:
320,192,6664,1,0,0:0:0:0:
448,192,6852,1,0,0:0:0:0:
64,192,6852,1,0,0:0:0:0:
192,192,7040,1,0,0:0:0:0:
320,192,7228,1,0,0:0:0:0:
448,192,7228,1,0,0:0:0:0:
64,192,7416,1,0,0:0:0:0:
448,192,7416,1,0,0:0:0:0:
192,192,7416,128,0,7792:0:0:0:0:
320,192,7604,1,0,0:0:0:0:
320,192,7792,1,0,0:0:0:0:
448,192,7792,1,0,0:0:0:0:
64,192,7980,1,0,0:0:0:0:
192,192,8168,1,0,0:0:0:0:
320,192,8168,1,0,0:0:0:0:
448,192,8168,1,0,0:0:0:0:
64,192,8356,1,0,0:0:0:0:
320,192,8356,1,0,0:0:0:0:
192,192,8544,1,0,0:0:0:0:
448,192,8732,1,0,0:0:0:0:
320,192,8920,1,0,0:0:0:0:
192,192,8920,1,0,0:0:0:0:
64,192,8920,128,0,9295:0:0:0:0:
448,192,9108,1,0,0:0:0:0:
320,192,9295,1,0,0:0:0:0:
448,192,9295,1,0,0:0:0:0:
192,192,9483,1,0,0:0:0:0:
320,192,9671,128,0,10047:0:0:0:0:
64,192,9671,1,0,0:0:0:0:
448,192,9671,1,0,0:0:0:0:
192,192,9859,1,0,0:0:0:0:
448,192,10047,128,0,10423:0:0:0:0:
64,192,10047,1,0,0:0:0:0:
192,192,10235,1,0,0:0:0:0:
192,192,10423,128,0,10799:0:0:0:0:
64,192,10423,1,0,0:0:0:0:
320,192,10423,1,0,0:0:0:0:
448,192,10611,1,0,0:0:0:0:
64,192,10799,128,0,11551:0:0:0:0:
320,192,10799,1,0,0:0:0:0:
192,192,10987,1,0,0:0:0:0:
448,192,11175,1,0,0:0:0:0:
320,192,11175,1,0,0:0:0:0:
192,192,11363,1,0,0:0:0:0:
448,192,11551,128,0,11927:0:0:0:0:
320,192,11551,1,0,0:0:0:0:
64,192,11739,1,0,0:0:0:0:
192,192,11927,1,0,0:0:0:0:
320,192,11927,1,0,0:0:0:0:
448,192,12115,1,0,0:0:0:0:
192,192,12303,128,0,14558:0:0:0:0:
320,192,12303,1,0,0:0:0:0:
64,192,12303,1,0,0:0:0:0:
448,192,12491,1,0,0:0:0:0:
448,192,12679,1,0,0:0:0:0:
320,192,12679,1,0,0:0:0:0:
64,192,12867,1,0,0:0:0:0:
448,192,13055,1,0,0:0:0:0:
320,192,13243,1,0,0:0:0:0:
64,192,13431,1,0,0:0:0:0:
448,192,13431,1,0,0:0:0:0:
320,192,13806,1,0,0:0:0:0:
448,192,13806,1,0,0:0:0:0:
448,192,13994,1,0,0:0:0:0:
320,192,14182,1,0,0:0:0:0:
64,192,14182,1,0,0:0:0:0:
64,192,14370,1,0,0:0:0:0:
320,192,14558,1,0,0:0:0:0:
192,192,14746,1,0,0:0:0:0:
448,192,14746,1,0,0:0:0:0:
320,192,14934,1,0,0:0:0:0:
64,192,14934,1,0,0:0:0:0:
192,192,14934,1,0,0:0:0:0:
320,192,15310,1,0,0:0:0:0:
448,192,15310,1,0,0:0:0:0:
64,192,15310,1,0,0:0:0:0:
192,192,15310,1,0,0:0:0:0:
64,192,15498,1,0,0:0:0:0:
320,192,15686,1,0,0:0:0:0:
192,192,15686,1,0,0:0:0:0:
448,192,15686,1,0,0:0:0:0:
64,192,15874,1,0,0:0:0:0:
448,192,15874,1,0,0:0:0:0:
192,192,16062,1,0,0:0:0:0:
64,192,16062,1,0,0:0:0:0:
320,192,16062,1,0,0:0:0:0:
320,192,16250,1,0,0:0:0:0:
64,192,16438,1,0,0:0:0:0:
192,192,16438,1,0,0:0:0:0:
448,192,16438,1,0,0:0:0:0:
192,192,16814,1,0,0:0:0:0:
320,192,16814,1,0,0:0:0:0:
448,192,16814,1,0,0:0:0:0:
64,192,16814,1,0,0:0:0:0:
64,192,17002,1,0,0:0:0:0:
320,192,17002,1,0,0:0:0:0:
448,192,17002,1,0,0:0:0:0:
64,192,17190,1,0,0:0:0:0:
448,192,17190,1,0,0:0:0:0:
192,192,17190,1,0,0:0:0:0:
320,192,17378,1,0,0:0:0:0:
448,192,17378,1,0,0:0:0:0:
192,192,17566,1,0,0:0:0:0:
64,192,17566,1,0,0:0:0:0:
320,192,17566,1,0,0:0:0:0:
192,192,17754,1,0,0:0:0:0:
448,192,17754,1,0,0:0:0:0:
64,192,17942,1,0,0:0:0:0:
320,192,17942,1,0,0:0:0:0:
448,192,17942,1,0,0:0:0:0:
64,192,18317,1,0,0:0:0:0:
192,192,18317,1,0,0:0:0:0:
448,192,18317,1,0,0:0:0:0:
320,192,18317,1,0,0:0:0:0:
64,192,18505,1,0,0:0:0:0:
320,192,18693,1,0,0:0:0:0:
448,192,18693,1,0,0:0:0:0:
192,192,18693,1,0,0:0:0:0:
64,192,18881,1,0,0:0:0:0:
320,192,18881,1,0,0:0:0:0:
192,192,19069,1,0,0:0:0:0:
64,192,19257,1,0,0:0:0:0:
448,192,19257,1,0,0:0:0:0:
192,192,19445,1,0,0:0:0:0:
64,192,19445,1,0,0:0:0:0:
320,192,19445,128,0,19821:0:0:0:0:
448,192,19633,1,0,0:0:0:0:
448,192,19821,1,0,0:0:0:0:
64,192,19821,128,0,20197:0:0:0:0:
192,192,20009,1,0,0:0:0:0:
192,192,20197,128,0,20385:0:0:0:0:
448,192,20197,1,0,0:0:0:0:
320,192,20197,1,0,0:0:0:0:
448,192,20385,128,0,20573:0:0:0:0:
64,192,20385,1,0,0:0:0:0:
64,192,20573,128,0,20761:0:0:0:0:
192,192,20573,1,0,0:0:0:0:
448,192,20761,128,0,20949:0:0:0:0:
320,192,20761,1,0,0:0:0:0:
192,192,20949,128,0,21137:0:0:0:0:
64,192,20949,1,0,0:0:0:0:
320,192,21137,128,0,21325:0:0:0:0:
448,192,21137,1,0,0:0:0:0:
64,192,21325,128,0,22828:0:0:0:0:
192,192,21325,1,0,0:0:0:0:
448,192,21513,1,0,0:0:0:0:
320,192,21701,1,0,0:0:0:0:
192,192,21701,1,0,0:0:0:0:
448,192,21889,1,0,0:0:0:0:
192,192,22077,1,0,0:0:0:0:
320,192,22265,1,0,0:0:0:0:
192,192,22453,1,0,0:0:0:0:
448,192,22453,1,0,0:0:0:0:
320,192,22828,1,0,0:0:0:0:
448,192,22828,1,0,0:0:0:0:
192,192,23016,1,0,0:0:0:0:
64,192,23204,1,0,0:0:0:0:
448,192,23204,1,0,0:0:0:0:
320,192,23204,1,0,0:0:0:0:
192,192,23392,1,0,0:0:0:0:
320,192,23392,1,0,0:0:0:0:
64,192,23580,1,0,0:0:0:0:
448,192,23768,1,0,0:0:0:0:
320,192,23768,1,0,0:0:0:0:
64,192,23956,1,0,0:0:0:0:
320,192,23956,1,0,0:0:0:0:
192,192,23956,128,0,24332:0:0:0:0:
448,192,24144,1,0,0:0:0:0:
320,192,24332,1,0,0:0:0:0:
448,192,24332,1,0,0:0:0:0:
64,192,24520,1,0,0:0:0:0:
192,192,24708,1,0,0:0:0:0:
320,192,24708,1,0,0:0:0:0:
448,192,24708,1,0,0:0:0:0:
64,192,24896,1,0,0:0:0:0:
448,192,24896,1,0,0:0:0:0:
192,192,25084,1,0,0:0:0:0:
320,192,25272,1,0,0:0:0:0:
448,192,25272,1,0,0:0:0:0:
192,192,25460,1,0,0:0:0:0:
448,192,25460,1,0,0:0:0:0:
64,192,25460,128,0,25836:0:0:0:0:
320,192,25648,1,0,0:0:0:0:
320,192,25836,1,0,0:0:0:0:
448,192,25836,1,0,0:0:0:0:
192,192,26024,1,0,0:0:0:0:
64,192,26212,1,0,0:0:0:0:
320,192,26212,1,0,0:0:0:0:
448,192,26212,1,0,0:0:0:0:
192,192,26400,1,0,0:0:0:0:
320,192,26588,1,0,0:0:0:0:
64,192,26776,1,0,0:0:0:0:
448,192,26776,1,0,0:0:0:0:
320,192,26964,1,0,0:0:0:0:
448,192,26964,1,0,0:0:0:0:
192,192,26964,1,0,0:0:0:0:
64,192,27339,1,0,0:0:0:0:
192,192,27339,1,0,0:0:0:0:
448,192,27339,1,0,0:0:0:0:
320,192,27339,1,0,0:0:0:0:
192,192,27527,1,0,0:0:0:0:
320,192,27715,1,0,0:0:0:0:
448,192,27715,1,0,0:0:0:0:
64,192,27715,1,0,0:0:0:0:
192,192,27903,1,0,0:0:0:0:
320,192,27903,1,0,0:0:0:0:
192,192,28091,1,0,0:0:0:0:
448,192,28091,1,0,0:0:0:0:
64,192,28091,128,0,28467:0:0:0:0:
320,192,28467,1,0,0:0:0:0:
448,192,28467,1,0,0:0:0:0:
192,192,28467,1,0,0:0:0:0:
64,192,28843,1,0,0:0:0:0:
192,192,28843,1,0,0:0:0:0:
320,192,28843,1,0,0:0:0:0:
448,192,28843,1,0,0:0:0:0:
320,192,29031,1,0,0:0:0:0:
448,192,29031,1,0,0:0:0:0:
64,192,29031,1,0,0:0:0:0:
192,192,29219,1,0,0:0:0:0:
64,192,29219,1,0,0:0:0:0:
448,192,29219,1,0,0:0:0:0:
320,192,29407,1,0,0:0:0:0:
192,192,29407,1,0,0:0:0:0:
64,192,29595,1,0,0:0:0:0:
320,192,29595,1,0,0:0:0:0:
448,192,29595,1,0,0:0:0:0:
192,192,29783,1,0,0:0:0:0:
64,192,29783,1,0,0:0:0:0:
448,192,29971,1,0,0:0:0:0:
64,192,29971,1,0,0:0:0:0:
320,192,29971,128,0,30347:0:0:0:0:
192,192,30347,1,0,0:0:0:0:
64,192,30347,1,0,0:0:0:0:
448,192,30347,1,0,0:0:0:0:
320,192,30535,1,0,0:0:0:0:
192,192,30723,1,0,0:0:0:0:
64,192,30723,1,0,0:0:0:0:
448,192,30723,1,0,0:0:0:0:
448,192,30911,1,0,0:0:0:0:
320,192,30911,1,0,0:0:0:0:
64,192,31099,1,0,0:0:0:0:
192,192,31287,1,0,0:0:0:0:
448,192,31287,1,0,0:0:0:0:
64,192,31475,1,0,0:0:0:0:
448,192,31475,1,0,0:0:0:0:
320,192,31475,128,0,31850:0:0:0:0:
192,192,31663,1,0,0:0:0:0:
192,192,31850,1,0,0:0:0:0:
448,192,31850,1,0,0:0:0:0:
64,192,32038,1,0,0:0:0:0:
192,192,32226,1,0,0:0:0:0:
448,192,32226,1,0,0:0:0:0:
320,192,32226,1,0,0:0:0:0:
64,192,32414,1,0,0:0:0:0:
448,192,32414,1,0,0:0:0:0:
320,192,32602,1,0,0:0:0:0:
192,192,32790,1,0,0:0:0:0:
448,192,32790,1,0,0:0:0:0:
320,192,32978,1,0,0:0:0:0:
192,192,32978,1,0,0:0:0:0:
64,192,32978,128,0,33354:0:0:0:0:
448,192,33166,1,0,0:0:0:0:
192,192,33354,1,0,0:0:0:0:
448,192,33354,1,0,0:0:0:0:
320,192,33542,1,0,0:0:0:0:
192,192,33730,1,0,0:0:0:0:
64,192,33730,1,0,0:0:0:0:
448,192,33730,1,0,0:0:0:0:
320,192,33918,1,0,0:0:0:0:
192,192,33918,1,0,0:0:0:0:
64,192,34106,1,0,0:0:0:0:
448,192,34294,1,0,0:0:0:0:
192,192,34294,1,0,0:0:0:0:
64,192,34482,1,0,0:0:0:0:
320,192,34482,1,0,0:0:0:0:
448,192,34482,128,0,34858:0:0:0:0:
192,192,34670,1,0,0:0:0:0:
192,192,34858,1,0,0:0:0:0:
320,192,34858,1,0,0:0:0:0:
64,192,35046,1,0,0:0:0:0:
448,192,35234,1,0,0:0:0:0:
192,192,35234,1,0,0:0:0:0:
320,192,35234,1,0,0:0:0:0:
64,192,35422,1,0,0:0:0:0:
320,192,35422,1,0,0:0:0:0:
448,192,35610,1,0,0:0:0:0:
192,192,35798,1,0,0:0:0:0:
64,192,35798,1,0,0:0:0:0:
320,192,35986,1,0,0:0:0:0:
448,192,35986,1,0,0:0:0:0:
64,192,35986,1,0,0:0:0:0:
192,192,36174,1,0,0:0:0:0:
64,192,36361,1,0,0:0:0:0:
192,192,36361,1,0,0:0:0:0:
448,192,36361,1,0,0:0:0:0:
320,192,36361,1,0,0:0:0:0:
320,192,36549,1,0,0:0:0:0:
192,192,36737,1,0,0:0:0:0:
64,192,36737,1,0,0:0:0:0:
448,192,36737,1,0,0:0:0:0:
320,192,36925,1,0,0:0:0:0:
448,192,36925,1,0,0:0:0:0:
64,192,37113,1,0,0:0:0:0:
192,192,37301,1,0,0:0:0:0:
320,192,37301,1,0,0:0:0:0:
320,192,37489,1,0,0:0:0:0:
448,192,37489,1,0,0:0:0:0:
64,192,37489,128,0,37865:0:0:0:0:
192,192,37677,1,0,0:0:0:0:
192,192,37865,1,0,0:0:0:0:
320,192,37865,1,0,0:0:0:0:
448,192,38053,1,0,0:0:0:0:
64,192,38241,1,0,0:0:0:0:
192,192,38241,1,0,0:0:0:0:
320,192,38241,1,0,0:0:0:0:
448,192,38429,1,0,0:0:0:0:
64,192,38429,1,0,0:0:0:0:
192,192,38617,1,0,0:0:0:0:
320,192,38805,1,0,0:0:0:0:
64,192,38805,1,0,0:0:0:0:
192,192,38993,1,0,0:0:0:0:
320,192,38993,1,0,0:0:0:0:
448,192,38993,128,0,39369:0:0:0:0:
64,192,39181,1,0,0:0:0:0:
64,192,39369,1,0,0:0:0:0:
320,192,39369,1,0,0:0:0:0:
192,192,39369,1,0,0:0:0:0:
192,192,39557,1,0,0:0:0:0:
448,192,39745,1,0,0:0:0:0:
64,192,39745,1,0,0:0:0:0:
320,192,39745,1,0,0:0:0:0:
192,192,39933,1,0,0:0:0:0:
320,192,39933,1,0,0:0:0:0:
64,192,40121,1,0,0:0:0:0:
192,192,40121,1,0,0:0:0:0:
320,192,40121,1,0,0:0:0:0:
448,192,40121,1,0,0:0:0:0:
64,192,40497,1,0,0:0:0:0:
192,192,40497,1,0,0:0:0:0:
448,192,40497,1,0,0:0:0:0:
320,192,40872,1,0,0:0:0:0:
448,192,40872,1,0,0:0:0:0:
64,192,40872,1,0,0:0:0:0:
192,192,40872,1,0,0:0:0:0:
320,192,41060,1,0,0:0:0:0:
448,192,41060,1,0,0:0:0:0:
64,192,41060,1,0,0:0:0:0:
192,192,41248,1,0,0:0:0:0:
64,192,41248,1,0,0:0:0:0:
320,192,41248,1,0,0:0:0:0:
448,192,41436,1,0,0:0:0:0:
320,192,41436,1,0,0:0:0:0:
64,192,41436,1,0,0:0:0:0:
192,192,41436,1,0,0:0:0:0:
192,192,41624,1,0,0:0:0:0:
320,192,41624,1,0,0:0:0:0:
448,192,41624,1,0,0:0:0:0:
64,192,41812,1,0,0:0:0:0:
192,192,41812,1,0,0:0:0:0:
320,192,41812,1,0,0:0:0:0:
448,192,41812,1,0,0:0:0:0:
192,192,42000,1,0,0:0:0:0:
320,192,42000,1,0,0:0:0:0:
64,192,42000,1,0,0:0:0:0:
64,192,42376,1,0,0:0:0:0:
448,192,42376,1,0,0:0:0:0:
192,192,42376,1,0,0:0:0:0:
320,192,42376,1,0,0:0:0:0:
448,192,42564,1,0,0:0:0:0:
320,192,42752,1,0,0:0:0:0:
64,192,42752,1,0,0:0:0:0:
192,192,42752,1,0,0:0:0:0:
448,192,42940,1,0,0:0:0:0:
192,192,42940,1,0,0:0:0:0:
64,192,43128,1,0,0:0:0:0:
320,192,43316,1,0,0:0:0:0:
448,192,43316,1,0,0:0:0:0:
64,192,43504,1,0,0:0:0:0:
448,192,43504,1,0,0:0:0:0:
192,192,43504,128,0,43880:0:0:0:0:
320,192,43692,1,0,0:0:0:0:
448,192,43880,128,0,44256:0:0:0:0:
64,192,43880,1,0,0:0:0:0:
192,192,44068,1,0,0:0:0:0:
64,192,44256,1,0,0:0:0:0:
320,192,44256,1,0,0:0:0:0:
192,192,44444,1,0,0:0:0:0:
320,192,44444,1,0,0:0:0:0:
64,192,44632,1,0,0:0:0:0:
448,192,44820,1,0,0:0:0:0:
320,192,44820,1,0,0:0:0:0:
192,192,45008,1,0,0:0:0:0:
64,192,45008,1,0,0:0:0:0:
448,192,45008,1,0,0:0:0:0:
320,192,45195,1,0,0:0:0:0:
64,192,45383,1,0,0:0:0:0:
448,192,45383,1,0,0:0:0:0:
192,192,45571,1,0,0:0:0:0:
320,192,45759,128,0,46135:0:0:0:0:
448,192,45759,1,0,0:0:0:0:
64,192,45759,1,0,0:0:0:0:
192,192,45947,1,0,0:0:0:0:
64,192,46135,128,0,46511:0:0:0:0:
448,192,46135,1,0,0:0:0:0:
320,192,46323,1,0,0:0:0:0:
448,192,46511,128,0,46887:0:0:0:0:
192,192,46511,1,0,0:0:0:0:
320,192,46511,1,0,0:0:0:0:
64,192,46699,1,0,0:0:0:0:
192,192,46887,128,0,47639:0:0:0:0:
320,192,46887,1,0,0:0:0:0:
64,192,47075,1,0,0:0:0:0:
448,192,47263,1,0,0:0:0:0:
320,192,47263,1,0,0:0:0:0:
64,192,47451,1,0,0:0:0:0:
320,192,47639,128,0,48015:0:0:0:0:
448,192,47639,1,0,0:0:0:0:
64,192,47827,1,0,0:0:0:0:
64,192,48015,128,0,48391:0:0:0:0:
192,192,48015,1,0,0:0:0:0:
448,192,48015,1,0,0:0:0:0:
320,192,48203,1,0,0:0:0:0:
448,192,48391,128,0,50646:0:0:0:0:
192,192,48391,1,0,0:0:0:0:
320,192,48579,1,0,0:0:0:0:
64,192,48767,1,0,0:0:0:0:
192,192,48767,1,0,0:0:0:0:
320,192,48955,1,0,0:0:0:0:
64,192,49143,1,0,0:0:0:0:
192,192,49331,1,0,0:0:0:0:
64,192,49519,1,0,0:0:0:0:
320,192,49519,1,0,0:0:0:0:
192,192,49706,1,0,0:0:0:0:
64,192,49894,1,0,0:0:0:0:
320,192,50082,1,0,0:0:0:0:
192,192,50270,1,0,0:0:0:0:
64,192,50270,1,0,0:0:0:0:
320,192,50458,1,0,0:0:0:0:
64,192,50646,1,0,0:0:0:0:
192,192,50834,1,0,0:0:0:0:
320,192,50834,1,0,0:0:0:0:
448,192,51022,1,0,0:0:0:0:
64,192,51022,1,0,0:0:0:0:
192,192,51022,1,0,0:0:0:0:
320,192,51210,1,0,0:0:0:0:
192,192,51398,1,0,0:0:0:0:
320,192,51398,1,0,0:0:0:0:
448,192,51398,1,0,0:0:0:0:
64,192,51398,1,0,0:0:0:0:
192,192,51586,1,0,0:0:0:0:
64,192,51774,1,0,0:0:0:0:
320,192,51774,1,0,0:0:0:0:
448,192,51774,1,0,0:0:0:0:
192,192,51962,1,0,0:0:0:0:
64,192,51962,1,0,0:0:0:0:
320,192,52150,1,0,0:0:0:0:
448,192,52150,1,0,0:0:0:0:
64,192,52338,1,0,0:0:0:0:
320,192,52526,1,0,0:0:0:0:
192,192,52526,1,0,0:0:0:0:
448,192,52526,1,0,0:0:0:0:
64,192,52902,1,0,0:0:0:0:
192,192,52902,1,0,0:0:0:0:
448,192,52902,1,0,0:0:0:0:
320,192,53090,1,0,0:0:0:0:
448,192,53090,1,0,0:0:0:0:
64,192,53090,1,0,0:0:0:0:
192,192,53278,1,0,0:0:0:0:
64,192,53278,1,0,0:0:0:0:
320,192,53278,1,0,0:0:0:0:
448,192,53466,1,0,0:0:0:0:
192,192,53466,1,0,0:0:0:0:
320,192,53466,1,0,0:0:0:0:
64,192,53654,1,0,0:0:0:0:
192,192,53654,1,0,0:0:0:0:
448,192,53654,1,0,0:0:0:0:
320,192,53842,1,0,0:0:0:0:
448,192,53842,1,0,0:0:0:0:
64,192,54030,1,0,0:0:0:0:
192,192,54030,1,0,0:0:0:0:
448,192,54405,128,0,54593:0:0:0:0:
64,192,54405,1,0,0:0:0:0:
192,192,54405,1,0,0:0:0:0:
320,192,54593,128,0,54687:0:0:0:0:
192,192,54687,128,0,54781:0:0:0:0:
64,192,54781,128,0,54969:0:0:0:0:
448,192,54781,1,0,0:0:0:0:
192,192,54969,128,0,55063:0:0:0:0:
320,192,55063,128,0,55157:0:0:0:0:
448,192,55157,128,0,55533:0:0:0:0:
64,192,55345,128,0,55721:0:0:0:0:
320,192,55533,128,0,55909:0:0:0:0:
192,192,55533,1,0,0:0:0:0:
192,192,55721,128,0,55909:0:0:0:0:
448,192,55909,128,0,56097:0:0:0:0:
320,192,56097,128,0,56191:0:0:0:0:
192,192,56191,128,0,56285:0:0:0:0:
64,192,56285,128,0,56473:0:0:0:0:
448,192,56285,1,0,0:0:0:0:
192,192,56473,128,0,56567:0:0:0:0:
320,192,56567,128,0,56661:0:0:0:0:
448,192,56661,128,0,57225:0:0:0:0:
192,192,56849,1,0,0:0:0:0:
64,192,57037,128,0,57413:0:0:0:0:
320,192,57037,1,0,0:0:0:0:
192,192,57225,128,0,57413:0:0:0:0:
320,192,57413,128,0,57601:0:0:0:0:
448,192,57601,128,0,57695:0:0:0:0:
64,192,57695,128,0,57789:0:0:0:0:
192,192,57789,128,0,57977:0:0:0:0:
320,192,57789,1,0,0:0:0:0:
64,192,57977,128,0,58071:0:0:0:0:
448,192,58071,128,0,58165:0:0:0:0:
320,192,58165,128,0,58541:0:0:0:0:
64,192,58353,128,0,58916:0:0:0:0:
448,192,58541,128,0,58728:0:0:0:0:
192,192,58541,1,0,0:0:0:0:
192,192,58728,128,0,58916:0:0:0:0:
320,192,58916,128,0,59104:0:0:0:0:
192,192,59104,128,0,59198:0:0:0:0:
64,192,59198,128,0,59292:0:0:0:0:
448,192,59292,128,0,59480:0:0:0:0:
320,192,59292,1,0,0:0:0:0:
192,192,59480,128,0,59668:0:0:0:0:
320,192,59668,128,0,60420:0:0:0:0:
64,192,59668,1,0,0:0:0:0:
448,192,59856,1,0,0:0:0:0:
64,192,60044,1,0,0:0:0:0:
192,192,60232,1,0,0:0:0:0:
64,192,60420,128,0,60608:0:0:0:0:
448,192,60420,1,0,0:0:0:0:
192,192,60608,128,0,60702:0:0:0:0:
320,192,60702,128,0,60796:0:0:0:0:
448,192,60796,128,0,60984:0:0:0:0:
64,192,60796,1,0,0:0:0:0:
320,192,60984,128,0,61078:0:0:0:0:
192,192,61078,128,0,61172:0:0:0:0:
64,192,61172,128,0,61548:0:0:0:0:
448,192,61360,128,0,61736:0:0:0:0:
192,192,61548,128,0,61924:0:0:0:0:
320,192,61548,1,0,0:0:0:0:
320,192,61736,128,0,61924:0:0:0:0:
64,192,61924,128,0,62112:0:0:0:0:
192,192,62112,128,0,62206:0:0:0:0:
320,192,62206,128,0,62300:0:0:0:0:
448,192,62300,128,0,62488:0:0:0:0:
64,192,62300,1,0,0:0:0:0:
320,192,62488,128,0,62582:0:0:0:0:
192,192,62582,128,0,62676:0:0:0:0:
64,192,62676,128,0,63239:0:0:0:0:
320,192,63052,128,0,63427:0:0:0:0:
448,192,63052,1,0,0:0:0:0:
192,192,63239,128,0,63427:0:0:0:0:
448,192,63427,128,0,63615:0:0:0:0:
320,192,63615,128,0,63709:0:0:0:0:
192,192,63709,128,0,63803:0:0:0:0:
64,192,63803,128,0,63991:0:0:0:0:
448,192,63803,1,0,0:0:0:0:
192,192,63991,128,0,64085:0:0:0:0:
320,192,64085,128,0,64179:0:0:0:0:
448,192,64179,128,0,64367:0:0:0:0:
64,192,64367,128,0,64743:0:0:0:0:
448,192,64555,128,0,64931:0:0:0:0:
320,192,64555,1,0,0:0:0:0:
192,192,64743,128,0,64931:0:0:0:0:
320,192,64931,128,0,65119:0:0:0:0:
64,192,64931,1,0,0:0:0:0:
64,192,65119,128,0,65213:0:0:0:0:
448,192,65213,128,0,65307:0:0:0:0:
192,192,65307,128,0,65495:0:0:0:0:
320,192,65307,1,0,0:0:0:0:
320,192,65495,128,0,65683:0:0:0:0:
64,192,65683,128,0,66435:0:0:0:0:
448,192,65683,1,0,0:0:0:0:
192,192,65871,1,0,0:0:0:0:
320,192,66059,128,0,66435:0:0:0:0:
448,192,66059,1,0,0:0:0:0:
448,192,66435,128,0,66623:0:0:0:0:
192,192,66435,1,0,0:0:0:0:
320,192,66623,128,0,66717:0:0:0:0:
192,192,66717,128,0,66811:0:0:0:0:
64,192,66811,128,0,66999:0:0:0:0:
320,192,66811,1,0,0:0:0:0:
192,192,66999,128,0,67093:0:0:0:0:
448,192,66999,1,0,0:0:0:0:
320,192,67093,128,0,67187:0:0:0:0:
448,192,67187,128,0,67563:0:0:0:0:
64,192,67375,128,0,67750:0:0:0:0:
320,192,67375,1,0,0:0:0:0:
320,192,67563,128,0,67938:0:0:0:0:
192,192,67563,1,0,0:0:0:0:
192,192,67750,128,0,67938:0:0:0:0:
448,192,67938,128,0,68126:0:0:0:0:
64,192,67938,1,0,0:0:0:0:
320,192,68126,128,0,68220:0:0:0:0:
192,192,68220,128,0,68314:0:0:0:0:
64,192,68314,128,0,68502:0:0:0:0:
320,192,68314,1,0,0:0:0:0:
192,192,68502,128,0,68596:0:0:0:0:
448,192,68502,1,0,0:0:0:0:
320,192,68596,128,0,68690:0:0:0:0:
448,192,68690,128,0,69254:0:0:0:0:
192,192,68878,1,0,0:0:0:0:
64,192,69066,128,0,69442:0:0:0:0:
320,192,69066,1,0,0:0:0:0:
192,192,69254,128,0,69442:0:0:0:0:
320,192,69442,128,0,69630:0:0:0:0:
448,192,69442,1,0,0:0:0:0:
448,192,69630,128,0,69724:0:0:0:0:
64,192,69724,128,0,69818:0:0:0:0:
192,192,69818,128,0,70006:0:0:0:0:
448,192,69818,1,0,0:0:0:0:
448,192,70006,128,0,70100:0:0:0:0:
320,192,70006,1,0,0:0:0:0:
64,192,70100,128,0,70194:0:0:0:0:
320,192,70194,128,0,70570:0:0:0:0:
64,192,70382,128,0,70758:0:0:0:0:
448,192,70382,1,0,0:0:0:0:
448,192,70570,128,0,70946:0:0:0:0:
192,192,70570,1,0,0:0:0:0:
192,192,70758,128,0,70946:0:0:0:0:
320,192,70946,128,0,71134:0:0:0:0:
64,192,70946,1,0,0:0:0:0:
192,192,71134,128,0,71228:0:0:0:0:
64,192,71228,128,0,71322:0:0:0:0:
448,192,71322,128,0,71510:0:0:0:0:
320,192,71322,1,0,0:0:0:0:
192,192,71510,128,0,71698:0:0:0:0:
64,192,71510,1,0,0:0:0:0:
320,192,71698,128,0,72449:0:0:0:0:
448,192,71886,1,0,0:0:0:0:
64,192,72074,1,0,0:0:0:0:
192,192,72261,1,0,0:0:0:0:
64,192,72449,128,0,72637:0:0:0:0:
448,192,72449,1,0,0:0:0:0:
192,192,72637,128,0,72731:0:0:0:0:
320,192,72731,128,0,72825:0:0:0:0:
448,192,72825,128,0,73013:0:0:0:0:
192,192,72825,1,0,0:0:0:0:
320,192,73013,128,0,73107:0:0:0:0:
64,192,73013,1,0,0:0:0:0:
192,192,73107,128,0,73201:0:0:0:0:
64,192,73201,128,0,73577:0:0:0:0:
448,192,73389,128,0,73765:0:0:0:0:
192,192,73389,1,0,0:0:0:0:
192,192,73577,128,0,73953:0:0:0:0:
320,192,73577,1,0,0:0:0:0:
320,192,73765,128,0,73953:0:0:0:0:
64,192,73953,128,0,74141:0:0:0:0:
448,192,73953,1,0,0:0:0:0:
192,192,74141,128,0,74235:0:0:0:0:
320,192,74235,128,0,74329:0:0:0:0:
448,192,74329,128,0,74517:0:0:0:0:
192,192,74329,1,0,0:0:0:0:
320,192,74517,128,0,74611:0:0:0:0:
64,192,74517,1,0,0:0:0:0:
192,192,74611,128,0,74705:0:0:0:0:
64,192,74705,128,0,75269:0:0:0:0:
192,192,74893,1,0,0:0:0:0:
320,192,75081,128,0,75457:0:0:0:0:
448,192,75081,1,0,0:0:0:0:
192,192,75269,128,0,75457:0:0:0:0:
448,192,75457,128,0,75645:0:0:0:0:
64,192,75457,1,0,0:0:0:0:
320,192,75645,128,0,75739:0:0:0:0:
192,192,75739,128,0,75833:0:0:0:0:
64,192,75833,128,0,76021:0:0:0:0:
320,192,75833,1,0,0:0:0:0:
192,192,76021,128,0,76115:0:0:0:0:
448,192,76021,1,0,0:0:0:0:
320,192,76115,128,0,76209:0:0:0:0:
448,192,76209,128,0,76397:0:0:0:0:
64,192,76397,128,0,76772:0:0:0:0:
192,192,76397,1,0,0:0:0:0:
448,192,76585,128,0,76960:0:0:0:0:
320,192,76585,1,0,0:0:0:0:
192,192,76772,128,0,76960:0:0:0:0:
320,192,76960,128,0,77148:0:0:0:0:
64,192,76960,1,0,0:0:0:0:
64,192,77148,128,0,77242:0:0:0:0:
448,192,77242,128,0,77336:0:0:0:0:
192,192,77336,128,0,77524:0:0:0:0:
320,192,77336,1,0,0:0:0:0:
448,192,77524,128,0,77712:0:0:0:0:
64,192,77712,128,0,78464:0:0:0:0:
320,192,77712,1,0,0:0:0:0:
192,192,77900,1,0,0:0:0:0:
448,192,77900,1,0,0:0:0:0:
320,192,78088,1,0,0:0:0:0:
448,192,78464,1,0,0:0:0:0:
192,192,78652,1,0,0:0:0:0:
320,192,78840,1,0,0:0:0:0:
64,192,79028,1,0,0:0:0:0:
448,192,79216,1,0,0:0:0:0:
192,192,79404,1,0,0:0:0:0:
320,192,79592,1,0,0:0:0:0:
64,192,79780,1,0,0:0:0:0:
448,192,79968,1,0,0:0:0:0:
320,192,80062,1,0,0:0:0:0:
64,192,80156,1,0,0:0:0:0:
192,192,80250,1,0,0:0:0:0:
448,192,80344,1,0,0:0:0:0:
320,192,80438,1,0,0:0:0:0:
192,192,80532,1,0,0:0:0:0:
320,192,80626,1,0,0:0:0:0:
448,192,80720,1,0,0:0:0:0:
64,192,80767,1,0,0:0:0:0:
192,192,80814,1,0,0:0:0:0:
320,192,80861,1,0,0:0:0:0:
448,192,80908,1,0,0:0:0:0:
192,192,81096,128,0,81471:0:0:0:0:
320,192,81096,128,0,81471:0:0:0:0:
64,192,81096,1,0,0:0:0:0:
448,192,81471,1,0,0:0:0:0:
64,192,81471,1,0,0:0:0:0:
320,192,81659,1,0,0:0:0:0:
192,192,81659,1,0,0:0:0:0:
192,192,81847,1,0,0:0:0:0:
64,192,81847,1,0,0:0:0:0:
448,192,81847,1,0,0:0:0:0:
320,192,82035,1,0,0:0:0:0:
448,192,82035,1,0,0:0:0:0:
64,192,82223,1,0,0:0:0:0:
192,192,82223,1,0,0:0:0:0:
448,192,82411,128,0,82599:0:0:0:0:
320,192,82411,1,0,0:0:0:0:
192,192,82599,128,0,82787:0:0:0:0:
64,192,82599,1,0,0:0:0:0:
448,192,82787,128,0,82975:0:0:0:0:
320,192,82787,1,0,0:0:0:0:
64,192,82975,128,0,83163:0:0:0:0:
192,192,82975,1,0,0:0:0:0:
320,192,83163,128,0,83351:0:0:0:0:
448,192,83163,1,0,0:0:0:0:
64,192,83351,128,0,83539:0:0:0:0:
192,192,83351,1,0,0:0:0:0:
448,192,83539,128,0,83727:0:0:0:0:
320,192,83539,1,0,0:0:0:0:
192,192,83727,128,0,83915:0:0:0:0:
64,192,83727,1,0,0:0:0:0:
320,192,83915,1,0,0:0:0:0:
448,192,83915,1,0,0:0:0:0:
192,192,84103,1,0,0:0:0:0:
448,192,84103,1,0,0:0:0:0:
64,192,84103,1,0,0:0:0:0:
320,192,84291,1,0,0:0:0:0:
192,192,84291,1,0,0:0:0:0:
64,192,84479,1,0,0:0:0:0:
448,192,84479,1,0,0:0:0:0:
320,192,84667,1,0,0:0:0:0:
448,192,84855,1,0,0:0:0:0:
192,192,84855,1,0,0:0:0:0:
64,192,84855,1,0,0:0:0:0:
320,192,85043,1,0,0:0:0:0:
192,192,85043,1,0,0:0:0:0:
320,192,85231,1,0,0:0:0:0:
448,192,85231,1,0,0:0:0:0:
64,192,85419,128,0,85606:0:0:0:0:
192,192,85419,1,0,0:0:0:0:
320,192,85606,128,0,85794:0:0:0:0:
448,192,85606,1,0,0:0:0:0:
64,192,85794,128,0,85982:0:0:0:0:
192,192,85794,1,0,0:0:0:0:
448,192,85982,128,0,86170:0:0:0:0:
320,192,85982,1,0,0:0:0:0:
192,192,86170,128,0,86358:0:0:0:0:
64,192,86170,1,0,0:0:0:0:
448,192,86358,128,0,86546:0:0:0:0:
320,192,86358,1,0,0:0:0:0:
64,192,86546,128,0,86734:0:0:0:0:
192,192,86546,1,0,0:0:0:0:
320,192,86734,128,0,86922:0:0:0:0:
448,192,86734,1,0,0:0:0:0:
192,192,86922,1,0,0:0:0:0:
64,192,87110,1,0,0:0:0:0:
448,192,87110,1,0,0:0:0:0:
320,192,87110,1,0,0:0:0:0:
192,192,87298,1,0,0:0:0:0:
64,192,87298,1,0,0:0:0:0:
192,192,87486,1,0,0:0:0:0:
320,192,87486,1,0,0:0:0:0:
448,192,87674,1,0,0:0:0:0:
64,192,87862,1,0,0:0:0:0:
320,192,87862,1,0,0:0:0:0:
192,192,87862,1,0,0:0:0:0:
448,192,88050,1,0,0:0:0:0:
64,192,88050,1,0,0:0:0:0:
320,192,88238,1,0,0:0:0:0:
448,192,88238,1,0,0:0:0:0:
192,192,88426,128,0,88614:0:0:0:0:
64,192,88426,1,0,0:0:0:0:
448,192,88614,128,0,88802:0:0:0:0:
320,192,88614,1,0,0:0:0:0:
64,192,88802,128,0,88990:0:0:0:0:
192,192,88802,1,0,0:0:0:0:
320,192,88990,128,0,89178:0:0:0:0:
448,192,88990,1,0,0:0:0:0:
192,192,89178,128,0,89366:0:0:0:0:
64,192,89178,1,0,0:0:0:0:
448,192,89366,128,0,89554:0:0:0:0:
320,192,89366,1,0,0:0:0:0:
64,192,89554,128,0,89742:0:0:0:0:
192,192,89554,1,0,0:0:0:0:
320,192,89742,1,0,0:0:0:0:
448,192,89930,1,0,0:0:0:0:
192,192,89930,1,0,0:0:0:0:
320,192,90117,1,0,0:0:0:0:
64,192,90117,1,0,0:0:0:0:
192,192,90117,1,0,0:0:0:0:
448,192,90305,1,0,0:0:0:0:
64,192,90305,1,0,0:0:0:0:
192,192,90493,1,0,0:0:0:0:
448,192,90493,1,0,0:0:0:0:
320,192,90681,1,0,0:0:0:0:
448,192,90869,1,0,0:0:0:0:
192,192,90869,1,0,0:0:0:0:
64,192,90869,1,0,0:0:0:0:
192,192,91057,1,0,0:0:0:0:
320,192,91057,1,0,0:0:0:0:
448,192,91245,1,0,0:0:0:0:
320,192,91245,1,0,0:0:0:0:
64,192,91433,128,0,91621:0:0:0:0:
192,192,91433,1,0,0:0:0:0:
448,192,91621,128,0,91809:0:0:0:0:
320,192,91621,1,0,0:0:0:0:
192,192,91809,128,0,91997:0:0:0:0:
320,192,91997,128,0,92185:0:0:0:0:
64,192,91997,1,0,0:0:0:0:
448,192,91997,1,0,0:0:0:0:
64,192,92185,128,0,92373:0:0:0:0:
448,192,92373,128,0,92561:0:0:0:0:
192,192,92373,1,0,0:0:0:0:
320,192,92373,1,0,0:0:0:0:
192,192,92561,128,0,92749:0:0:0:0:
320,192,92749,128,0,92937:0:0:0:0:
64,192,92749,1,0,0:0:0:0:
448,192,92749,1,0,0:0:0:0:
192,192,92937,1,0,0:0:0:0:
448,192,93125,1,0,0:0:0:0:
448,192,93313,1,0,0:0:0:0:
64,192,93501,1,0,0:0:0:0:
192,192,93501,1,0,0:0:0:0:
320,192,93501,1,0,0:0:0:0:
448,192,93689,1,0,0:0:0:0:
192,192,93689,1,0,0:0:0:0:
320,192,93877,1,0,0:0:0:0:
448,192,93877,1,0,0:0:0:0:
64,192,93877,1,0,0:0:0:0:
192,192,94065,1,0,0:0:0:0:
64,192,94065,1,0,0:0:0:0:
320,192,94253,128,0,94347:0:0:0:0:
448,192,94253,128,0,94347:0:0:0:0:
320,192,94441,128,0,94535:0:0:0:0:
448,192,94441,128,0,94535:0:0:0:0:
64,192,94628,1,0,0:0:0:0:
192,192,94628,128,0,94722:0:0:0:0:
448,192,94628,128,0,94722:0:0:0:0:
320,192,94816,128,0,94910:0:0:0:0:
64,192,94816,128,0,94910:0:0:0:0:
192,192,95004,1,0,0:0:0:0:
448,192,95004,1,0,0:0:0:0:
448,192,95192,1,0,0:0:0:0:
64,192,95192,1,0,0:0:0:0:
64,192,95380,1,0,0:0:0:0:
192,192,95380,1,0,0:0:0:0:
320,192,95380,1,0,0:0:0:0:
448,192,95568,1,0,0:0:0:0:
320,192,95568,1,0,0:0:0:0:
64,192,95756,1,0,0:0:0:0:
448,192,95756,1,0,0:0:0:0:
448,192,95944,1,0,0:0:0:0:
192,192,95944,1,0,0:0:0:0:
320,192,96038,1,0,0:0:0:0:
448,192,96132,1,0,0:0:0:0:
64,192,96132,1,0,0:0:0:0:
192,192,96226,1,0,0:0:0:0:
64,192,96320,1,0,0:0:0:0:
448,192,96320,1,0,0:0:0:0:
320,192,96414,1,0,0:0:0:0:
192,192,96508,1,0,0:0:0:0:
64,192,96508,1,0,0:0:0:0:
448,192,96696,1,0,0:0:0:0:
192,192,96696,1,0,0:0:0:0:
320,192,96884,1,0,0:0:0:0:
448,192,96884,1,0,0:0:0:0:
64,192,96884,1,0,0:0:0:0:
192,192,97072,1,0,0:0:0:0:
320,192,97072,1,0,0:0:0:0:
64,192,97260,128,0,97354:0:0:0:0:
192,192,97260,128,0,97354:0:0:0:0:
64,192,97448,128,0,97542:0:0:0:0:
192,192,97448,128,0,97542:0:0:0:0:
192,192,97636,128,0,97730:0:0:0:0:
320,192,97636,128,0,97730:0:0:0:0:
448,192,97636,1,0,0:0:0:0:
320,192,97824,128,0,97918:0:0:0:0:
448,192,97824,128,0,97918:0:0:0:0:
64,192,98012,1,0,0:0:0:0:
192,192,98012,1,0,0:0:0:0:
448,192,98200,1,0,0:0:0:0:
192,192,98200,1,0,0:0:0:0:
448,192,98388,1,0,0:0:0:0:
64,192,98388,1,0,0:0:0:0:
320,192,98388,1,0,0:0:0:0:
192,192,98576,1,0,0:0:0:0:
320,192,98576,1,0,0:0:0:0:
320,192,98764,128,0,98858:0:0:0:0:
448,192,98764,128,0,98858:0:0:0:0:
320,192,98952,128,0,99046:0:0:0:0:
448,192,98952,128,0,99046:0:0:0:0:
448,192,99139,128,0,99233:0:0:0:0:
320,192,99139,128,0,99233:0:0:0:0:
64,192,99139,1,0,0:0:0:0:
64,192,99327,128,0,99421:0:0:0:0:
192,192,99327,128,0,99421:0:0:0:0:
448,192,99515,1,0,0:0:0:0:
320,192,99515,1,0,0:0:0:0:
192,192,99703,1,0,0:0:0:0:
320,192,99703,1,0,0:0:0:0:
64,192,99891,1,0,0:0:0:0:
192,192,99891,1,0,0:0:0:0:
448,192,99891,1,0,0:0:0:0:
320,192,100079,1,0,0:0:0:0:
448,192,100079,1,0,0:0:0:0:
192,192,100267,128,0,100361:0:0:0:0:
64,192,100267,128,0,100361:0:0:0:0:
64,192,100455,128,0,100549:0:0:0:0:
192,192,100455,128,0,100549:0:0:0:0:
448,192,100643,128,0,100737:0:0:0:0:
320,192,100643,128,0,100737:0:0:0:0:
64,192,100643,1,0,0:0:0:0:
192,192,100831,128,0,100925:0:0:0:0:
320,192,100831,128,0,100925:0:0:0:0:
64,192,101019,1,0,0:0:0:0:
448,192,101019,1,0,0:0:0:0:
192,192,101207,1,0,0:0:0:0:
448,192,101207,1,0,0:0:0:0:
320,192,101395,1,0,0:0:0:0:
192,192,101395,1,0,0:0:0:0:
64,192,101395,1,0,0:0:0:0:
448,192,101583,1,0,0:0:0:0:
64,192,101583,1,0,0:0:0:0:
320,192,101771,1,0,0:0:0:0:
448,192,101771,1,0,0:0:0:0:
64,192,101959,1,0,0:0:0:0:
448,192,101959,1,0,0:0:0:0:
192,192,102053,1,0,0:0:0:0:
320,192,102147,1,0,0:0:0:0:
448,192,102147,1,0,0:0:0:0:
192,192,102241,1,0,0:0:0:0:
64,192,102335,1,0,0:0:0:0:
448,192,102335,1,0,0:0:0:0:
320,192,102429,1,0,0:0:0:0:
192,192,102523,1,0,0:0:0:0:
64,192,102523,1,0,0:0:0:0:
448,192,102711,1,0,0:0:0:0:
192,192,102711,1,0,0:0:0:0:
448,192,102899,1,0,0:0:0:0:
64,192,102899,1,0,0:0:0:0:
320,192,102899,1,0,0:0:0:0:
64,192,103087,1,0,0:0:0:0:
192,192,103087,1,0,0:0:0:0:
320,192,103275,128,0,103369:0:0:0:0:
448,192,103275,128,0,103369:0:0:0:0:
320,192,103463,128,0,103557:0:0:0:0:
448,192,103463,128,0,103557:0:0:0:0:
192,192,103650,128,0,103744:0:0:0:0:
320,192,103650,128,0,103744:0:0:0:0:
64,192,103650,1,0,0:0:0:0:
192,192,103838,128,0,103932:0:0:0:0:
64,192,103838,128,0,103932:0:0:0:0:
448,192,104026,1,0,0:0:0:0:
64,192,104026,1,0,0:0:0:0:
192,192,104026,1,0,0:0:0:0:
320,192,104214,1,0,0:0:0:0:
192,192,104402,1,0,0:0:0:0:
64,192,104402,1,0,0:0:0:0:
320,192,104402,1,0,0:0:0:0:
64,192,104590,1,0,0:0:0:0:
192,192,104778,1,0,0:0:0:0:
320,192,104778,1,0,0:0:0:0:
448,192,104778,1,0,0:0:0:0:
64,192,104966,1,0,0:0:0:0:
320,192,104966,1,0,0:0:0:0:
192,192,105154,1,0,0:0:0:0:
448,192,105154,128,0,105530:0:0:0:0:
64,192,105530,1,0,0:0:0:0:
192,192,105530,1,0,0:0:0:0:
320,192,105530,1,0,0:0:0:0:
448,192,105718,1,0,0:0:0:0:
320,192,105906,128,0,106282:0:0:0:0:
64,192,105906,1,0,0:0:0:0:
192,192,105906,1,0,0:0:0:0:
448,192,106094,1,0,0:0:0:0:
64,192,106282,128,0,106658:0:0:0:0:
192,192,106282,1,0,0:0:0:0:
448,192,106470,1,0,0:0:0:0:
448,192,106658,128,0,107034:0:0:0:0:
192,192,106658,1,0,0:0:0:0:
320,192,106658,1,0,0:0:0:0:
192,192,106846,1,0,0:0:0:0:
320,192,107034,128,0,107410:0:0:0:0:
64,192,107034,1,0,0:0:0:0:
192,192,107222,1,0,0:0:0:0:
192,192,107410,128,0,107786:0:0:0:0:
64,192,107410,1,0,0:0:0:0:
448,192,107410,1,0,0:0:0:0:
320,192,107598,1,0,0:0:0:0:
64,192,107786,128,0,108161:0:0:0:0:
448,192,107786,1,0,0:0:0:0:
320,192,107974,1,0,0:0:0:0:
448,192,108161,128,0,108537:0:0:0:0:
320,192,108161,1,0,0:0:0:0:
192,192,108161,1,0,0:0:0:0:
64,192,108349,1,0,0:0:0:0:
192,192,108537,1,0,0:0:0:0:
320,192,108725,1,0,0:0:0:0:
192,192,108913,1,0,0:0:0:0:
448,192,108913,1,0,0:0:0:0:
64,192,108913,128,0,109289:0:0:0:0:
320,192,109101,1,0,0:0:0:0:
320,192,109289,128,0,109665:0:0:0:0:
448,192,109289,1,0,0:0:0:0:
192,192,109477,1,0,0:0:0:0:
192,192,109665,128,0,110041:0:0:0:0:
64,192,109665,1,0,0:0:0:0:
448,192,109665,1,0,0:0:0:0:
320,192,109853,1,0,0:0:0:0:
448,192,110041,128,0,110793:0:0:0:0:
64,192,110041,1,0,0:0:0:0:
320,192,110041,1,0,0:0:0:0:
192,192,110229,1,0,0:0:0:0:
64,192,110229,1,0,0:0:0:0:
192,192,110417,1,0,0:0:0:0:
320,192,110417,1,0,0:0:0:0:
320,192,110605,1,0,0:0:0:0:
192,192,110605,1,0,0:0:0:0:
64,192,110793,128,0,111545:0:0:0:0:
192,192,110793,1,0,0:0:0:0:
320,192,110981,1,0,0:0:0:0:
448,192,111169,1,0,0:0:0:0:
320,192,111545,128,0,112672:0:0:0:0:
192,192,111545,1,0,0:0:0:0:
448,192,111545,1,0,0:0:0:0:
64,192,111733,1,0,0:0:0:0:
448,192,111921,1,0,0:0:0:0:
192,192,111921,1,0,0:0:0:0:
448,192,112109,1,0,0:0:0:0:
64,192,112297,1,0,0:0:0:0:
192,192,112485,1,0,0:0:0:0:
192,192,112672,128,0,113048:0:0:0:0:
64,192,112672,1,0,0:0:0:0:
448,192,112672,1,0,0:0:0:0:
320,192,112860,1,0,0:0:0:0:
448,192,113048,128,0,114552:0:0:0:0:
64,192,113048,1,0,0:0:0:0:
192,192,113236,1,0,0:0:0:0:
64,192,113424,1,0,0:0:0:0:
320,192,113424,1,0,0:0:0:0:
192,192,113612,1,0,0:0:0:0:
320,192,113800,1,0,0:0:0:0:
64,192,113988,1,0,0:0:0:0:
192,192,114176,1,0,0:0:0:0:
320,192,114176,1,0,0:0:0:0:
64,192,114364,1,0,0:0:0:0:
320,192,114552,1,0,0:0:0:0:
192,192,114740,1,0,0:0:0:0:
64,192,114928,128,0,115304:0:0:0:0:
448,192,114928,1,0,0:0:0:0:
320,192,114928,1,0,0:0:0:0:
192,192,115116,1,0,0:0:0:0:
448,192,115304,128,0,115680:0:0:0:0:
320,192,115304,1,0,0:0:0:0:
192,192,115492,1,0,0:0:0:0:
192,192,115680,128,0,116056:0:0:0:0:
64,192,115680,1,0,0:0:0:0:
320,192,115680,1,0,0:0:0:0:
448,192,115868,1,0,0:0:0:0:
320,192,116056,128,0,116432:0:0:0:0:
64,192,116056,1,0,0:0:0:0:
192,192,116244,1,0,0:0:0:0:
192,192,116432,128,0,116808:0:0:0:0:
64,192,116432,1,0,0:0:0:0:
448,192,116432,1,0,0:0:0:0:
320,192,116620,1,0,0:0:0:0:
64,192,116808,128,0,117183:0:0:0:0:
448,192,116808,1,0,0:0:0:0:
320,192,116996,1,0,0:0:0:0:
448,192,117183,128,0,117559:0:0:0:0:
192,192,117183,1,0,0:0:0:0:
320,192,117183,1,0,0:0:0:0:
64,192,117371,1,0,0:0:0:0:
192,192,117559,1,0,0:0:0:0:
64,192,117559,1,0,0:0:0:0:
448,192,117747,1,0,0:0:0:0:
64,192,117935,128,0,118311:0:0:0:0:
192,192,117935,1,0,0:0:0:0:
320,192,117935,1,0,0:0:0:0:
448,192,118123,1,0,0:0:0:0:
320,192,118311,128,0,118687:0:0:0:0:
192,192,118311,1,0,0:0:0:0:
64,192,118499,1,0,0:0:0:0:
192,192,118687,128,0,119063:0:0:0:0:
448,192,118687,1,0,0:0:0:0:
64,192,118687,1,0,0:0:0:0:
320,192,118875,1,0,0:0:0:0:
448,192,119063,128,0,119439:0:0:0:0:
64,192,119063,1,0,0:0:0:0:
320,192,119251,1,0,0:0:0:0:
320,192,119439,128,0,119815:0:0:0:0:
64,192,119439,1,0,0:0:0:0:
192,192,119439,1,0,0:0:0:0:
448,192,119627,1,0,0:0:0:0:
192,192,119815,128,0,120191:0:0:0:0:
64,192,119815,1,0,0:0:0:0:
448,192,120003,1,0,0:0:0:0:
64,192,120191,128,0,120567:0:0:0:0:
320,192,120191,1,0,0:0:0:0:
448,192,120191,1,0,0:0:0:0:
192,192,120379,1,0,0:0:0:0:
320,192,120567,1,0,0:0:0:0:
448,192,120567,1,0,0:0:0:0:
192,192,120755,1,0,0:0:0:0:
64,192,120943,1,0,0:0:0:0:
448,192,120943,1,0,0:0:0:0:
320,192,120943,1,0,0:0:0:0:
192,192,121131,1,0,0:0:0:0:
64,192,121131,1,0,0:0:0:0:
320,192,121319,1,0,0:0:0:0:
64,192,121507,1,0,0:0:0:0:
448,192,121507,1,0,0:0:0:0:
192,192,121694,1,0,0:0:0:0:
320,192,121694,1,0,0:0:0:0:
448,192,121694,1,0,0:0:0:0:
64,192,121882,1,0,0:0:0:0:
320,192,122070,1,0,0:0:0:0:
448,192,122070,1,0,0:0:0:0:
192,192,122258,1,0,0:0:0:0:
64,192,122446,1,0,0:0:0:0:
320,192,122446,1,0,0:0:0:0:
448,192,122446,1,0,0:0:0:0:
192,192,122634,1,0,0:0:0:0:
320,192,122634,1,0,0:0:0:0:
64,192,122822,1,0,0:0:0:0:
320,192,123010,1,0,0:0:0:0:
448,192,123010,1,0,0:0:0:0:
192,192,123198,1,0,0:0:0:0:
64,192,123198,1,0,0:0:0:0:
320,192,123198,1,0,0:0:0:0:
448,192,123386,1,0,0:0:0:0:
64,192,123574,1,0,0:0:0:0:
320,192,123574,1,0,0:0:0:0:
192,192,123762,1,0,0:0:0:0:
320,192,123950,1,0,0:0:0:0:
448,192,123950,1,0,0:0:0:0:
64,192,123950,1,0,0:0:0:0:
192,192,124138,1,0,0:0:0:0:
320,192,124138,1,0,0:0:0:0:
64,192,124326,1,0,0:0:0:0:
320,192,124514,1,0,0:0:0:0:
448,192,124514,1,0,0:0:0:0:
192,192,124702,1,0,0:0:0:0:
64,192,124702,1,0,0:0:0:0:
320,192,124702,1,0,0:0:0:0:
448,192,124890,1,0,0:0:0:0:
192,192,125078,1,0,0:0:0:0:
320,192,125078,1,0,0:0:0:0:
64,192,125266,1,0,0:0:0:0:
192,192,125454,1,0,0:0:0:0:
320,192,125454,1,0,0:0:0:0:
448,192,125454,1,0,0:0:0:0:
64,192,125642,1,0,0:0:0:0:
320,192,125642,1,0,0:0:0:0:
192,192,125830,1,0,0:0:0:0:
64,192,126018,1,0,0:0:0:0:
448,192,126018,1,0,0:0:0:0:
320,192,126205,1,0,0:0:0:0:
192,192,126205,1,0,0:0:0:0:
64,192,126205,1,0,0:0:0:0:
192,192,126581,1,0,0:0:0:0:
448,192,126581,1,0,0:0:0:0:
64,192,126581,1,0,0:0:0:0:
320,192,126769,1,0,0:0:0:0:
192,192,126957,128,0,127333:0:0:0:0:
448,192,126957,1,0,0:0:0:0:
320,192,126957,1,0,0:0:0:0:
64,192,127145,1,0,0:0:0:0:
448,192,127333,128,0,127709:0:0:0:0:
320,192,127333,1,0,0:0:0:0:
64,192,127521,1,0,0:0:0:0:
64,192,127709,128,0,128085:0:0:0:0:
320,192,127709,1,0,0:0:0:0:
192,192,127709,1,0,0:0:0:0:
320,192,127897,1,0,0:0:0:0:
192,192,128085,128,0,128461:0:0:0:0:
448,192,128085,1,0,0:0:0:0:
320,192,128273,1,0,0:0:0:0:
320,192,128461,128,0,128837:0:0:0:0:
448,192,128461,1,0,0:0:0:0:
64,192,128461,1,0,0:0:0:0:
192,192,128649,1,0,0:0:0:0:
448,192,128837,128,0,129213:0:0:0:0:
64,192,128837,1,0,0:0:0:0:
192,192,129025,1,0,0:0:0:0:
64,192,129213,128,0,129589:0:0:0:0:
192,192,129213,1,0,0:0:0:0:
320,192,129213,1,0,0:0:0:0:
448,192,129401,1,0,0:0:0:0:
320,192,129589,1,0,0:0:0:0:
192,192,129777,1,0,0:0:0:0:
320,192,129965,1,0,0:0:0:0:
64,192,129965,1,0,0:0:0:0:
448,192,129965,128,0,130341:0:0:0:0:
192,192,130153,1,0,0:0:0:0:
192,192,130341,128,0,130716:0:0:0:0:
64,192,130341,1,0,0:0:0:0:
320,192,130528,1,0,0:0:0:0:
320,192,130716,128,0,131092:0:0:0:0:
448,192,130716,1,0,0:0:0:0:
64,192,130716,1,0,0:0:0:0:
192,192,130904,1,0,0:0:0:0:
64,192,131092,128,0,131844:0:0:0:0:
448,192,131092,1,0,0:0:0:0:
192,192,131092,1,0,0:0:0:0:
320,192,131280,1,0,0:0:0:0:
448,192,131280,1,0,0:0:0:0:
320,192,131468,1,0,0:0:0:0:
192,192,131468,1,0,0:0:0:0:
192,192,131656,1,0,0:0:0:0:
320,192,131656,1,0,0:0:0:0:
448,192,131844,128,0,132596:0:0:0:0:
320,192,131844,1,0,0:0:0:0:
192,192,132032,1,0,0:0:0:0:
64,192,132220,1,0,0:0:0:0:
192,192,132596,128,0,133724:0:0:0:0:
320,192,132596,1,0,0:0:0:0:
64,192,132596,1,0,0:0:0:0:
448,192,132784,1,0,0:0:0:0:
64,192,132972,1,0,0:0:0:0:
320,192,132972,1,0,0:0:0:0:
64,192,133160,1,0,0:0:0:0:
448,192,133348,1,0,0:0:0:0:
320,192,133536,1,0,0:0:0:0:
320,192,133724,128,0,134100:0:0:0:0:
448,192,133724,1,0,0:0:0:0:
64,192,133724,1,0,0:0:0:0:
192,192,133912,1,0,0:0:0:0:
64,192,134100,128,0,135603:0:0:0:0:
448,192,134100,1,0,0:0:0:0:
320,192,134288,1,0,0:0:0:0:
448,192,134476,1,0,0:0:0:0:
192,192,134476,1,0,0:0:0:0:
320,192,134664,1,0,0:0:0:0:
192,192,134852,1,0,0:0:0:0:
448,192,135039,1,0,0:0:0:0:
320,192,135227,1,0,0:0:0:0:
192,192,135227,1,0,0:0:0:0:
448,192,135415,1,0,0:0:0:0:
192,192,135603,1,0,0:0:0:0:
320,192,135791,1,0,0:0:0:0:
448,192,135979,128,0,136355:0:0:0:0:
64,192,135979,1,0,0:0:0:0:
192,192,135979,1,0,0:0:0:0:
320,192,136167,1,0,0:0:0:0:
64,192,136355,128,0,136731:0:0:0:0:
192,192,136355,1,0,0:0:0:0:
320,192,136543,1,0,0:0:0:0:
320,192,136731,128,0,137107:0:0:0:0:
448,192,136731,1,0,0:0:0:0:
192,192,136731,1,0,0:0:0:0:
64,192,136919,1,0,0:0:0:0:
192,192,137107,128,0,137483:0:0:0:0:
448,192,137107,1,0,0:0:0:0:
320,192,137295,1,0,0:0:0:0:
320,192,137483,128,0,137859:0:0:0:0:
448,192,137483,1,0,0:0:0:0:
64,192,137483,1,0,0:0:0:0:
192,192,137671,1,0,0:0:0:0:
448,192,137859,128,0,138235:0:0:0:0:
64,192,137859,1,0,0:0:0:0:
192,192,138047,1,0,0:0:0:0:
64,192,138235,128,0,138611:0:0:0:0:
320,192,138235,1,0,0:0:0:0:
192,192,138235,1,0,0:0:0:0:
448,192,138423,1,0,0:0:0:0:
320,192,138611,1,0,0:0:0:0:
448,192,138611,1,0,0:0:0:0:
64,192,138799,1,0,0:0:0:0:
448,192,138987,128,0,139363:0:0:0:0:
320,192,138987,1,0,0:0:0:0:
192,192,138987,1,0,0:0:0:0:
64,192,139175,1,0,0:0:0:0:
192,192,139363,128,0,139738:0:0:0:0:
320,192,139363,1,0,0:0:0:0:
448,192,139550,1,0,0:0:0:0:
320,192,139738,128,0,140114:0:0:0:0:
64,192,139738,1,0,0:0:0:0:
448,192,139738,1,0,0:0:0:0:
192,192,139926,1,0,0:0:0:0:
64,192,140114,128,0,140490:0:0:0:0:
448,192,140114,1,0,0:0:0:0:
192,192,140302,1,0,0:0:0:0:
192,192,140490,128,0,140866:0:0:0:0:
448,192,140490,1,0,0:0:0:0:
320,192,140490,1,0,0:0:0:0:
64,192,140678,1,0,0:0:0:0:
320,192,140866,128,0,141242:0:0:0:0:
448,192,140866,1,0,0:0:0:0:
64,192,141054,1,0,0:0:0:0:
448,192,141242,128,0,141618:0:0:0:0:
192,192,141242,1,0,0:0:0:0:
64,192,141242,1,0,0:0:0:0:
320,192,141430,1,0,0:0:0:0:
192,192,141618,1,0,0:0:0:0:
64,192,141618,1,0,0:0:0:0:
320,192,141806,1,0,0:0:0:0:
448,192,141994,1,0,0:0:0:0:
64,192,141994,1,0,0:0:0:0:
192,192,141994,1,0,0:0:0:0:
320,192,142182,1,0,0:0:0:0:
448,192,142182,1,0,0:0:0:0:
192,192,142370,1,0,0:0:0:0:
448,192,142558,1,0,0:0:0:0:
64,192,142558,1,0,0:0:0:0:
320,192,142746,1,0,0:0:0:0:
192,192,142746,1,0,0:0:0:0:
64,192,142746,1,0,0:0:0:0:
448,192,142934,1,0,0:0:0:0:
192,192,143122,1,0,0:0:0:0:
64,192,143122,1,0,0:0:0:0:
320,192,143310,1,0,0:0:0:0:
448,192,143498,1,0,0:0:0:0:
192,192,143498,1,0,0:0:0:0:
64,192,143498,1,0,0:0:0:0:
320,192,143686,1,0,0:0:0:0:
192,192,143686,1,0,0:0:0:0:
448,192,143874,1,0,0:0:0:0:
192,192,144061,1,0,0:0:0:0:
64,192,144061,1,0,0:0:0:0:
320,192,144249,1,0,0:0:0:0:
448,192,144249,1,0,0:0:0:0:
192,192,144249,1,0,0:0:0:0:
64,192,144437,1,0,0:0:0:0:
448,192,144625,1,0,0:0:0:0:
192,192,144625,1,0,0:0:0:0:
320,192,144813,1,0,0:0:0:0:
192,192,145001,1,0,0:0:0:0:
64,192,145001,1,0,0:0:0:0:
448,192,145001,1,0,0:0:0:0:
320,192,145189,1,0,0:0:0:0:
192,192,145189,1,0,0:0:0:0:
448,192,145377,1,0,0:0:0:0:
192,192,145565,1,0,0:0:0:0:
64,192,145565,1,0,0:0:0:0:
320,192,145753,1,0,0:0:0:0:
448,192,145753,1,0,0:0:0:0:
192,192,145753,1,0,0:0:0:0:
64,192,145941,1,0,0:0:0:0:
320,192,146129,1,0,0:0:0:0:
448,192,146129,128,0,146317:0:0:0:0:
192,192,146317,1,0,0:0:0:0:
64,192,146317,128,0,146505:0:0:0:0:
448,192,146505,1,0,0:0:0:0:
320,192,146505,128,0,146693:0:0:0:0:
64,192,146693,128,0,146881:0:0:0:0:
192,192,146693,1,0,0:0:0:0:
448,192,146881,128,0,147069:0:0:0:0:
320,192,146881,1,0,0:0:0:0:
64,192,147069,1,0,0:0:0:0:
192,192,147069,128,0,147257:0:0:0:0:
448,192,147257,1,0,0:0:0:0:
320,192,147257,128,0,147445:0:0:0:0:
192,192,147445,1,0,0:0:0:0:
64,192,147445,128,0,147633:0:0:0:0:
320,192,147633,1,0,0:0:0:0:
448,192,147633,1,0,0:0:0:0:
