osu file format v14

[General]
AudioFilename: audio.mp3
AudioLeadIn: 0
PreviewTime: 48529
Countdown: 0
SampleSet: Soft
StackLeniency: 0.7
Mode: 0
LetterboxInBreaks: 0
WidescreenStoryboard: 0

[Editor]
DistanceSpacing: 1.4
BeatDivisor: 4
GridSize: 4
TimelineZoom: 1

[Metadata]
Title:HIKARI (TV Size)
TitleUnicode:光-HIKARI- (TV Size)
Artist:ViViD
ArtistUnicode:ViViD
Creator:Log Off Now
Version:browiec's Wisdom
Source:マギ The kingdom of magic
Tags:magi the kingdom of magic 2 labyrinth aniplex a1 光の先へ japanese anime opening op browiec
BeatmapID:2201460
BeatmapSetID:1053509

[Difficulty]
HPDrainRate:6
CircleSize:4
OverallDifficulty:9.3
ApproachRate:9.4
SliderMultiplier:1.8
SliderTickRate:1

[Events]
//Background and Video events
0,0,"magi-kingdom.jpg",0,0
Video,0,"magi-opening2.avi"
//Break Periods
//Storyboard Layer 0 (Background)
//Storyboard Layer 1 (Fail)
//Storyboard Layer 2 (Pass)
//Storyboard Layer 3 (Foreground)
//Storyboard Layer 4 (Overlay)
//Storyboard Sound Samples

[TimingPoints]
1172,285.714285714286,4,2,1,45,1,0
1172,-285.714285714286,4,2,1,45,0,0
5743,-434.782608695652,4,2,1,45,0,0
7600,-434.782608695652,4,2,1,50,0,0
8029,-117.647058823529,4,2,1,50,0,0
11743,-117.647058823529,4,2,1,52,0,0
12029,-117.647058823529,4,2,1,55,0,0
12314,-117.647058823529,4,2,1,58,0,0
12600,-117.647058823529,4,2,1,60,0,0
21743,-133.333333333333,4,2,1,50,0,0
40029,-153.846153846154,4,2,1,50,0,0
44600,-117.647058823529,4,2,1,55,0,0
48172,-117.647058823529,4,2,1,60,0,0
49172,-105.263157894737,4,2,1,65,0,1
69743,-105.263157894737,4,2,1,65,0,1
88029,-250,4,2,1,50,0,0
89172,-250,4,2,1,20,0,0

[Colours]
Combo1 : 117,86,241
Combo2 : 218,181,33
Combo3 : 187,79,227
Combo4 : 183,0,0

[HitObjects]
24,152,1172,6,0,B|112:140|144:216|144:216|116:244|128:288|128:288,1,220.499993270874,4|0,1:2|0:0,0:0:0:0:
275,275,2314,2,0,P|231:267|207:270,1,62.9999980773926,4|0,1:2|0:0,0:0:0:0:
56,328,2886,2,0,L|52:364,2,31.4999990386963,8|4|8,0:3|0:3|0:3,0:0:0:0:
236,140,3457,6,0,B|376:116|306:206|444:180,1,220.499993270874,4|0,1:2|0:0,0:0:0:0:
400,40,4600,2,0,P|408:76|400:112,1,62.9999980773926,4|8,1:2|0:3,0:0:0:0:
276,224,5172,2,0,L|236:232,2,31.4999990386963,8|4|4,0:3|0:3|0:3,0:0:0:0:
500,316,5743,6,0,B|448:260|360:292|360:292|316:344|248:328,1,269.099990966492,4|0,1:2|1:0,0:0:0:0:
160,188,7743,1,8,0:0:0:0:
176,172,8029,6,0,B|240:168|240:168|272:176|272:176|332:172,1,153.000002918243,4|8,1:2|0:0,0:0:0:0:
224,272,8457,1,0,1:0:0:0:
200,72,8600,1,0,0:0:0:0:
108,256,8743,1,0,1:0:0:0:
24,40,8886,6,0,B|-17:77|-17:77|6:189,1,153.000002918243,10|2,0:0|0:0,0:0:0:0:
40,320,9314,1,0,1:0:0:0:
176,176,9457,2,0,B|268:164|224:240|352:216,1,153.000002918243,10|0,0:0|1:0,0:0:0:0:
448,168,9886,1,0,1:0:0:0:
304,56,10029,2,0,P|308:112|300:152,1,76.5000014591217,10|0,0:0|0:0,0:0:0:0:
208,328,10314,5,2,1:2:0:0:
316,220,10457,1,0,1:0:0:0:
368,368,10600,2,0,P|424:380|468:368,1,76.5000014591217,8|0,0:0|0:0,0:0:0:0:
412,184,10886,1,0,1:0:0:0:
292,312,11029,1,0,1:0:0:0:
256,136,11172,1,8,0:0:0:0:
128,284,11314,6,0,P|72:296|28:284,1,76.5000014591217,4|0,1:2|0:0,0:0:0:0:
168,32,11600,1,8,0:0:0:0:
216,272,11743,1,8,1:2:0:0:
352,68,11886,1,8,0:0:0:0:
108,196,12029,1,8,1:2:0:0:
392,224,12172,1,8,0:0:0:0:
108,104,12314,1,8,1:2:0:0:
260,352,12457,1,8,0:0:0:0:
260,352,12529,1,8,0:0:0:0:
260,352,12600,6,0,P|320:360|352:348,1,76.5000014591217,4|0,1:2|0:0,0:0:0:0:
392,188,12886,2,0,P|331:190|302:207,1,76.5000014591217,10|0,0:0|0:0,0:0:0:0:
168,300,13172,2,0,P|107:297|78:280,1,76.5000014591217,0|0,1:0|1:0,0:0:0:0:
8,176,13457,1,8,0:0:0:0:
216,120,13600,6,0,L|224:228,1,76.5000014591217,0|0,1:0|0:0,0:0:0:0:
296,356,13886,2,0,L|304:248,1,76.5000014591217,2|8,1:2|0:0,0:0:0:0:
396,120,14172,2,0,P|452:116|500:212,1,153.000002918243,2|0,1:2|1:0,0:0:0:0:
408,328,14600,2,0,P|396:284|392:240,1,76.5000014591217,8|0,0:0|0:0,0:0:0:0:
328,60,14886,5,0,1:0:0:0:
272,216,15029,1,0,1:0:0:0:
200,40,15172,2,0,P|152:24|104:32,1,76.5000014591217,10|0,0:0|0:0,0:0:0:0:
40,164,15457,2,0,P|88:180|136:172,1,76.5000014591217,2|0,1:2|1:0,0:0:0:0:
224,32,15743,1,8,0:0:0:0:
292,232,15886,6,0,B|296:272|296:272|284:320,1,76.5000014591217,2|0,1:2|0:0,0:0:0:0:
116,360,16172,2,0,B|112:320|112:320|124:272,1,76.5000014591217,2|8,1:2|0:0,0:0:0:0:
272,140,16457,1,2,1:2:0:0:
204,312,16600,1,0,0:0:0:0:
132,136,16743,1,0,1:0:0:0:
312,256,16886,2,0,P|360:268|400:264,1,76.5000014591217,8|0,0:0|0:0,0:0:0:0:
472,80,17172,5,0,1:0:0:0:
512,248,17314,1,0,1:0:0:0:
376,128,17457,2,0,L|288:120,1,76.5000014591217,10|0,0:0|0:0,0:0:0:0:
212,236,17743,2,0,B|280:232|280:232|308:244|308:244|380:240,1,153.000002918243,2|10,1:2|0:0,0:0:0:0:
172,320,18172,6,0,P|136:288|124:236,1,76.5000014591217,2|0,1:2|0:0,0:0:0:0:
196,92,18457,2,0,P|232:124|244:176,1,76.5000014591217,2|8,1:2|0:0,0:0:0:0:
40,220,18743,2,0,P|65:178|114:158,1,76.5000014591217,2|0,0:0|0:0,0:0:0:0:
256,184,19029,1,0,1:0:0:0:
88,296,19172,2,0,P|42:311|-8:295,1,76.5000014591217,10|0,0:0|0:0,0:0:0:0:
56,84,19457,5,2,1:2:0:0:
148,232,19600,1,0,1:0:0:0:
208,52,19743,2,0,L|296:40,1,76.5000014591217,8|2,0:0|0:0,0:0:0:0:
404,224,20029,1,0,0:0:0:0:
408,28,20172,1,0,1:0:0:0:
304,176,20314,2,0,P|292:220|300:264,1,76.5000014591217,10|0,0:0|0:0,0:0:0:0:
452,360,20600,5,0,1:0:0:0:
388,124,20743,1,8,0:0:0:0:
292,352,20886,1,8,0:0:0:0:
512,216,21029,1,8,0:0:0:0:
280,152,21172,5,8,0:3:0:0:
376,308,21314,1,8,0:3:0:0:
204,260,21457,1,4,0:3:0:0:
352,216,21600,1,4,0:3:0:0:
196,352,21743,6,0,P|152:336|120:296,1,67.5000025749208,4|0,1:2|0:0,0:0:0:0:
195,180,22029,2,0,B|224:161|224:161|203:264,1,135.000005149842,8|0,0:0|1:0,0:0:0:0:
124,328,22457,1,0,1:2:0:0:
84,200,22600,2,0,L|80:120,1,67.5000025749208,10|0,0:0|0:0,0:0:0:0:
168,24,22886,6,0,P|161:77|171:112,1,67.5000025749208,2|0,1:2|1:0,0:0:0:0:
307,100,23172,2,0,P|263:67|228:58,1,67.5000025749208,10|0,0:0|0:0,0:0:0:0:
169,183,23457,2,0,P|219:161|244:135,1,67.5000025749208,2|0,1:2|1:0,0:0:0:0:
168,24,23743,2,0,P|117:45|92:71,1,67.5000025749208,10|0,0:0|0:0,0:0:0:0:
36,216,24029,6,0,B|88:235|88:235|113:261|113:261|169:281,1,135.000005149842,2|8,1:2|0:0,0:0:0:0:
284,308,24457,2,0,B|231:327|231:327|206:353|206:353|150:373,1,135.000005149842,2|0,0:0|1:0,0:0:0:0:
169,183,24886,2,0,L|253:219,1,67.5000025749208,10|0,0:0|0:0,0:0:0:0:
412,232,25172,6,0,P|363:227|326:244,1,67.5000025749208,0|0,1:0|0:0,0:0:0:0:
344,384,25457,2,0,P|372:344|376:304,1,67.5000025749208,8|0,0:0|0:0,0:0:0:0:
296,152,25743,1,0,1:0:0:0:
284,308,25886,1,0,1:0:0:0:
200,176,26029,2,0,L|188:100,1,67.5000025749208,8|0,0:0|0:0,0:0:0:0:
368,16,26314,6,0,L|356:92,1,67.5000025749208,2|0,1:2|0:0,0:0:0:0:
268,248,26600,2,0,B|220:272|220:272|124:256,1,135.000005149842,8|0,0:0|1:0,0:0:0:0:
100,160,27029,1,0,1:0:0:0:
272,156,27172,2,0,P|320:172|348:204,1,67.5000025749208,10|0,0:0|0:0,0:0:0:0:
275,313,27457,6,0,P|264:263|278:223,1,67.5000025749208,2|0,1:2|1:0,0:0:0:0:
410,232,27743,2,0,P|372:265|330:273,1,67.5000025749208,10|0,0:0|1:0,0:0:0:0:
272,156,28029,2,0,L|264:72,1,67.5000025749208,2|0,0:0|1:0,0:0:0:0:
376,24,28314,2,0,L|368:108,1,67.5000025749208,10|0,0:0|0:0,0:0:0:0:
267,247,28600,6,0,B|208:224|200:276|128:248,1,135.000005149842,2|10,1:2|0:0,0:0:0:0:
60,116,29029,2,0,P|124:120|172:176,1,135.000005149842,2|0,0:0|1:0,0:0:0:0:
240,332,29457,2,0,P|284:336|320:324,1,67.5000025749208,10|0,0:0|0:0,0:0:0:0:
368,192,29743,6,0,B|356:228|356:228|356:280,1,67.5000025749208,2|0,1:2|0:0,0:0:0:0:
472,332,30029,2,0,B|484:296|484:296|484:244,1,67.5000025749208,10|0,0:0|0:0,0:0:0:0:
432,124,30314,1,2,1:2:0:0:
372,284,30457,1,0,1:0:0:0:
308,128,30600,2,0,P|272:116|232:124,1,67.5000025749208,8|0,0:0|0:0,0:0:0:0:
92,244,30886,6,0,B|84:188|84:188|72:164|72:164|68:100,1,135.000005149842,6|8,1:2|0:0,0:0:0:0:
180,0,31314,2,0,B|172:56|172:56|160:80|160:80|156:144,1,135.000005149842,2|0,0:0|1:0,0:0:0:0:
212,256,31743,2,0,L|232:184,1,67.5000025749208,10|0,0:0|0:0,0:0:0:0:
372,52,32029,6,0,P|408:76|428:116,1,67.5000025749208,2|0,1:2|1:0,0:0:0:0:
328,204,32314,2,0,P|330:160|355:123,1,67.5000025749208,10|0,0:0|1:0,0:0:0:0:
487,184,32600,2,0,L|387:188,1,67.5000025749208,2|0,0:0|1:0,0:0:0:0:
372,52,32886,2,0,L|472:56,1,67.5000025749208,10|0,0:0|0:0,0:0:0:0:
512,272,33172,6,0,L|360:280,1,135.000005149842,2|8,1:2|0:0,0:0:0:0:
296,160,33600,1,2,0:0:0:0:
260,336,33743,2,0,P|216:348|172:340,1,67.5000025749208,2|0,1:2|1:0,0:0:0:0:
196,192,34029,2,0,L|216:272,1,67.5000025749208,10|0,0:0|0:0,0:0:0:0:
336,296,34314,2,0,L|356:216,1,67.5000025749208,0|0,1:0|0:0,0:0:0:0:
184,100,34600,6,0,P|140:116|116:148,1,67.5000025749208,10|0,0:0|0:0,0:0:0:0:
193,257,34886,2,0,P|201:210|185:174,1,67.5000025749208,2|0,1:2|1:0,0:0:0:0:
48,92,35172,2,0,P|39:138|55:174,1,67.5000025749208,10|0,0:0|0:0,0:0:0:0:
120,324,35457,6,0,B|188:348|188:348|272:328,1,135.000005149842,2|8,1:2|0:0,0:0:0:0:
207,187,35886,2,0,B|175:163|175:163|195:267,1,135.000005149842,2|0,0:0|1:0,0:0:0:0:
344,260,36314,2,0,L|260:244,1,67.5000025749208,10|0,0:0|0:0,0:0:0:0:
112,108,36600,6,0,P|176:80|248:120,1,135.000005149842,2|8,1:2|0:0,0:0:0:0:
277,247,37029,1,0,0:0:0:0:
316,92,37172,1,0,1:0:0:0:
176,164,37314,1,0,1:0:0:0:
356,184,37457,2,0,L|448:184,1,67.5000025749208,10|0,0:0|0:0,0:0:0:0:
309,26,37743,6,0,B|321:62|321:62|313:106,1,67.5000025749208,2|0,1:2|0:0,0:0:0:0:
176,164,38029,2,0,B|164:128|164:128|172:84,1,67.5000025749208,10|0,0:0|0:0,0:0:0:0:
328,184,38314,2,0,P|288:180|256:160,1,67.5000025749208,2|0,1:2|1:0,0:0:0:0:
160,8,38600,2,0,P|200:12|232:32,1,67.5000025749208,10|0,0:0|0:0,0:0:0:0:
240,260,38886,5,2,1:2:0:0:
169,98,39029,1,0,1:0:0:0:
88,252,39172,2,0,L|84:352,1,67.5000025749208,2|0,0:3|0:0,0:0:0:0:
280,160,39457,1,8,0:0:0:0:
48,152,39600,1,8,0:0:0:0:
260,280,39743,1,8,0:3:0:0:
72,340,39886,1,8,0:3:0:0:
212,192,40029,6,0,P|256:180|328:208,1,116.999994644165,4|2,1:2|0:0,0:0:0:0:
348,288,40457,1,0,1:0:0:0:
348,288,40600,2,0,P|350:242|399:182,1,116.999994644165,8|2,0:0|0:0,0:0:0:0:
512,60,41172,5,0,1:0:0:0:
512,60,41314,2,0,L|440:52,1,58.4999973220826,8|2,0:0|0:0,0:0:0:0:
360,88,41600,1,0,0:0:0:0:
360,88,41743,2,0,L|216:104,1,116.999994644165,10|2,0:0|0:0,0:0:0:0:
48,176,42314,6,0,P|36:220|64:292,1,116.999994644165,2|2,1:2|0:0,0:0:0:0:
144,312,42742,1,0,1:0:0:0:
144,312,42886,2,0,P|98:314|38:363,1,116.999994644165,10|2,0:0|0:0,0:0:0:0:
224,376,43314,6,0,B|240:320|240:320|224:236,1,116.999994644165,2|8,1:2|0:0,0:0:0:0:
316,192,43743,2,0,L|312:260,1,58.4999973220826,2|0,0:0|1:0,0:0:0:0:
232,160,44029,2,0,P|260:120|344:108,1,116.999994644165,8|8,0:0|0:0,0:0:0:0:
416,204,44457,1,8,0:0:0:0:
229,262,44600,6,0,L|129:266,1,76.5000014591217,4|0,1:2|0:0,0:0:0:0:
56,156,44886,2,0,L|156:160,1,76.5000014591217,8|0,0:0|0:0,0:0:0:0:
316,192,45172,1,0,1:0:0:0:
176,72,45314,1,0,1:0:0:0:
229,262,45457,1,8,0:0:0:0:
324,92,45600,6,0,B|419:104|371:148|466:156,1,153.000002918243,0|0,1:0|1:0,0:0:0:0:
496,4,46029,2,0,P|468:44|460:92,1,76.5000014591217,8|0,0:0|0:0,0:0:0:0:
420,240,46314,1,0,1:0:0:0:
324,92,46457,1,2,1:2:0:0:
276,276,46600,2,0,P|272:320|272:364,1,76.5000014591217,10|0,0:0|0:0,0:0:0:0:
376,164,46886,5,2,1:2:0:0:
408,328,47029,1,0,1:0:0:0:
288,184,47172,2,0,P|244:188|212:212,1,76.5000014591217,10|0,0:0|0:0,0:0:0:0:
88,352,47457,1,2,1:2:0:0:
116,144,47600,1,0,1:0:0:0:
228,340,47743,1,10,0:0:0:0:
16,228,47886,1,2,0:3:0:0:
0,244,48172,5,8,0:0:0:0:
276,196,48314,1,8,0:0:0:0:
52,60,48457,1,8,0:0:0:0:
184,312,48600,1,8,0:0:0:0:
272,56,48743,1,8,0:0:0:0:
88,288,48886,1,8,0:0:0:0:
156,32,49029,1,8,0:0:0:0:
320,340,49172,6,0,P|376:356|464:292,1,170.999995433807,4|8,1:2|0:0,0:0:0:0:
348,120,49600,2,0,P|344:180|336:216,1,85.4999977169037,2|0,1:2|0:0,0:0:0:0:
224,376,49886,2,0,P|220:316|212:280,1,85.4999977169037,2|8,1:2|0:0,0:0:0:0:
96,108,50172,1,2,0:0:0:0:
112,324,50314,5,2,0:0:0:0:
236,152,50457,1,0,1:0:0:0:
20,288,50600,2,0,P|12:336|28:384,1,85.4999977169037,8|0,0:0|0:0,0:0:0:0:
228,264,50886,1,2,1:2:0:0:
16,180,51029,1,0,1:0:0:0:
228,128,51172,2,0,P|276:120|328:132,1,85.4999977169037,10|0,0:0|0:0,0:0:0:0:
168,344,51457,6,0,B|128:284|128:284|156:176,1,170.999995433807,2|8,1:2|0:0,0:0:0:0:
312,278,51886,2,0,L|220:262,1,85.4999977169037,2|0,1:2|0:0,0:0:0:0:
92,100,52172,2,0,L|184:84,1,85.4999977169037,2|8,1:2|0:0,0:0:0:0:
376,0,52457,1,2,0:0:0:0:
308,188,52600,5,2,0:0:0:0:
220,0,52743,1,0,1:0:0:0:
408,160,52886,2,0,P|412:208|392:252,1,85.4999977169037,8|0,0:0|0:0,0:0:0:0:
164,192,53172,1,2,1:2:0:0:
332,88,53314,1,0,1:0:0:0:
316,296,53457,2,0,P|343:328|382:344,1,85.4999977169037,8|0,0:0|0:0,0:0:0:0:
500,74,53743,6,0,B|431:74|431:74|402:86|402:86|313:87,1,170.999995433807,2|8,1:2|0:0,0:0:0:0:
172,188,54172,2,0,L|272:176,1,85.4999977169037,2|0,1:2|0:0,0:0:0:0:
404,308,54457,2,0,L|304:296,1,85.4999977169037,2|10,1:2|0:0,0:0:0:0:
152,204,54743,1,2,0:0:0:0:
331,86,54886,5,2,1:2:0:0:
212,296,55029,1,0,1:0:0:0:
160,56,55172,1,10,0:0:0:0:
376,208,55314,2,0,P|424:216|472:204,1,85.4999977169037,2|0,1:2|0:0,0:0:0:0:
504,36,55600,2,0,P|456:28|408:40,1,85.4999977169037,2|8,1:2|0:0,0:0:0:0:
356,228,55886,1,2,0:0:0:0:
260,0,56029,5,2,1:2:0:0:
216,228,56172,1,0,1:0:0:0:
88,16,56314,2,0,P|84:72|88:120,1,85.4999977169037,10|0,0:2|0:0,0:0:0:0:
240,328,56600,1,2,1:2:0:0:
196,108,56743,1,2,1:2:0:0:
88,304,56886,1,8,0:0:0:0:
296,156,57029,6,0,P|304:108|288:60,1,85.4999977169037,4|0,1:2|0:0,0:0:0:0:
44,200,57314,1,8,0:0:0:0:
308,312,57457,1,8,1:2:0:0:
52,324,57600,1,8,0:0:0:0:
312,176,57743,1,8,1:2:0:0:
56,80,57886,1,8,0:0:0:0:
184,332,58029,1,8,1:2:0:0:
264,72,58172,1,8,0:0:0:0:
40,272,58314,6,0,B|144:276|92:220|220:232,1,170.999995433807,4|8,1:2|0:0,0:0:0:0:
376,160,58743,2,0,P|324:168|272:160,1,85.4999977169037,2|0,1:2|0:0,0:0:0:0:
280,0,59029,2,0,P|312:41|332:90,1,85.4999977169037,2|8,1:2|0:0,0:0:0:0:
288,264,59314,1,2,0:0:0:0:
168,120,59457,5,2,1:2:0:0:
184,332,59600,1,0,1:0:0:0:
328,172,59743,2,0,L|428:164,1,85.4999977169037,8|0,0:0|1:0,0:0:0:0:
320,372,60029,1,2,0:0:0:0:
236,180,60172,1,0,1:0:0:0:
148,368,60314,2,0,L|48:360,1,85.4999977169037,10|0,0:0|0:0,0:0:0:0:
144,76,60600,6,0,B|152:140|152:140|140:184|140:184|152:252,1,170.999995433807,2|8,1:2|0:0,0:0:0:0:
272,376,61029,2,0,L|284:280,1,85.4999977169037,2|0,1:2|0:0,0:0:0:0:
240,64,61314,2,0,L|252:160,1,85.4999977169037,2|8,1:2|0:0,0:0:0:0:
380,272,61600,1,2,0:0:0:0:
157,246,61743,5,2,1:2:0:0:
340,140,61886,1,0,1:0:0:0:
200,332,62029,2,0,P|152:340|104:324,1,85.4999977169037,8|0,0:0|1:0,0:0:0:0:
24,168,62314,2,0,L|124:160,1,85.4999977169037,2|0,0:0|1:0,0:0:0:0:
240,64,62600,2,0,L|140:56,1,85.4999977169037,10|0,0:0|0:0,0:0:0:0:
20,268,62886,6,0,B|140:260|140:260|196:224,1,170.999995433807,2|8,1:2|0:0,0:0:0:0:
256,52,63314,2,0,P|240:104|244:148,1,85.4999977169037,2|0,1:2|0:0,0:0:0:0:
264,300,63600,1,0,1:0:0:0:
392,160,63743,2,0,P|408:108|404:64,1,85.4999977169037,10|0,0:0|0:0,0:0:0:0:
182,228,64029,6,0,B|121:234|121:234|85:254|85:254|6:260,1,170.999995433807,2|10,1:2|0:0,0:0:0:0:
140,136,64457,1,2,1:2:0:0:
164,320,64600,1,0,0:0:0:0:
52,164,64743,1,0,1:0:0:0:
252,296,64886,2,0,P|300:304|344:288,1,85.4999977169037,10|0,0:0|0:0,0:0:0:0:
440,96,65172,6,0,B|380:72|380:72|268:104,1,170.999995433807,6|8,1:2|0:0,0:0:0:0:
236,312,65600,1,0,1:0:0:0:
372,168,65743,1,0,0:0:0:0:
328,360,65886,1,0,1:0:0:0:
224,172,66029,6,0,P|172:160|116:180,1,85.4999977169037,10|0,0:0|0:0,0:0:0:0:
80,356,66314,1,2,0:0:0:0:
20,184,66457,1,0,1:0:0:0:
232,264,66600,6,0,P|288:236|300:128,1,170.999995433807,10|0,0:0|1:0,0:0:0:0:
152,64,67029,1,0,1:0:0:0:
144,264,67172,2,0,P|152:308|192:348,1,85.4999977169037,10|0,0:0|0:0,0:0:0:0:
356,208,67457,5,2,1:2:0:0:
268,380,67600,1,0,1:0:0:0:
224,172,67743,2,0,L|216:68,1,85.4999977169037,8|0,0:0|0:0,0:0:0:0:
376,224,68029,1,0,1:0:0:0:
160,248,68172,1,0,1:0:0:0:
316,76,68314,1,8,0:0:0:0:
364,320,68457,6,0,P|412:316|456:272,1,85.4999977169037,4|0,1:2|0:0,0:0:0:0:
296,52,68743,1,8,0:0:0:0:
228,296,68886,1,8,0:0:0:0:
192,40,69029,1,8,0:0:0:0:
376,224,69172,1,8,0:0:0:0:
132,264,69314,1,8,0:0:0:0:
368,120,69457,1,8,0:0:0:0:
284,380,69600,1,8,0:0:0:0:
124,160,69743,6,0,B|88:133|39:153|39:153|15:201|47:248,1,170.999995433807,4|8,1:2|0:0,0:0:0:0:
196,376,70172,2,0,P|208:332|208:276,1,85.4999977169037,2|0,1:2|0:0,0:0:0:0:
296,152,70457,2,0,P|291:197|301:252,1,85.4999977169037,2|8,1:2|0:0,0:0:0:0:
432,380,70743,1,2,0:0:0:0:
408,176,70886,5,2,0:0:0:0:
296,340,71029,1,0,1:0:0:0:
280,136,71172,2,0,P|240:120|188:128,1,85.4999977169037,8|0,0:0|0:0,0:0:0:0:
64,268,71457,1,2,1:2:0:0:
92,60,71600,1,0,1:0:0:0:
232,224,71743,2,0,P|272:240|324:232,1,85.4999977169037,10|0,0:0|0:0,0:0:0:0:
176,24,72029,6,0,B|200:76|168:120|168:120|128:144|116:192,1,170.999995433807,2|8,1:2|0:0,0:0:0:0:
244,306,72457,2,0,P|240:242|220:206,1,85.4999977169037,2|0,1:2|0:0,0:0:0:0:
48,256,72743,2,0,P|105:284|146:285,1,85.4999977169037,2|8,1:2|0:0,0:0:0:0:
272,132,73029,1,2,0:0:0:0:
264,336,73172,5,2,0:0:0:0:
122,171,73314,1,0,1:0:0:0:
336,212,73457,2,0,L|432:224,1,85.4999977169037,8|0,0:0|0:0,0:0:0:0:
324,36,73743,1,2,1:2:0:0:
240,224,73886,1,0,1:0:0:0:
176,16,74029,2,0,P|176:80|184:112,1,85.4999977169037,10|0,0:0|0:0,0:0:0:0:
360,308,74314,6,0,B|296:304|296:304|260:316|260:316|180:308,1,170.999995433807,2|8,1:2|0:0,0:0:0:0:
52,212,74743,2,0,L|152:204,1,85.4999977169037,2|0,1:2|0:0,0:0:0:0:
272,104,75029,2,0,L|172:96,1,85.4999977169037,2|8,1:2|0:0,0:0:0:0:
32,236,75314,1,2,0:0:0:0:
268,232,75457,5,2,1:2:0:0:
64,80,75600,1,0,1:0:0:0:
112,320,75743,1,8,0:0:0:0:
228,116,75886,2,0,P|291:109|330:133,1,85.4999977169037,2|0,1:2|0:0,0:0:0:0:
300,307,76172,2,0,P|268:251|274:206,1,85.4999977169037,2|8,1:2|0:0,0:0:0:0:
392,60,76457,1,2,0:0:0:0:
388,304,76600,5,2,1:2:0:0:
228,116,76743,1,0,0:0:0:0:
480,40,76886,2,0,P|478:91|454:132,1,85.4999977169037,10|0,0:0|1:0,0:0:0:0:
212,132,77172,1,2,0:0:0:0:
436,220,77314,1,0,1:0:0:0:
320,0,77457,1,8,0:0:0:0:
256,256,77600,6,0,L|252:348,1,85.4999977169037,2|0,1:2|0:0,0:0:0:0:
80,112,77886,1,8,0:0:0:0:
340,180,78029,1,8,1:2:0:0:
104,312,78172,1,8,0:0:0:0:
212,56,78314,1,8,1:2:0:0:
300,328,78457,1,8,0:0:0:0:
212,32,78600,1,8,1:2:0:0:
92,328,78743,1,8,0:0:0:0:
356,104,78886,6,0,P|428:92|496:176,1,170.999995433807,4|8,1:2|0:0,0:0:0:0:
364,328,79314,2,0,P|364:268|356:216,1,85.4999977169037,2|0,1:2|0:0,0:0:0:0:
256,96,79600,2,0,P|256:156|248:208,1,85.4999977169037,2|8,1:2|0:0,0:0:0:0:
72,300,79886,1,2,0:0:0:0:
272,284,80029,5,2,1:2:0:0:
72,196,80172,1,0,1:0:0:0:
236,376,80314,2,0,P|288:384|332:368,1,85.4999977169037,8|0,0:0|1:0,0:0:0:0:
220,168,80600,1,2,0:0:0:0:
148,356,80743,1,0,1:0:0:0:
52,176,80886,2,0,P|48:124|52:88,1,85.4999977169037,10|0,0:0|0:0,0:0:0:0:
276,248,81172,6,0,B|220:216|220:216|112:248,1,170.999995433807,2|8,1:2|0:0,0:0:0:0:
332,332,81600,2,0,P|364:296|372:248,1,85.4999977169037,2|0,1:2|0:0,0:0:0:0:
264,52,81886,2,0,P|262:100|287:142,1,85.4999977169037,2|8,1:2|0:0,0:0:0:0:
452,180,82172,1,2,0:0:0:0:
276,248,82314,5,2,0:0:0:0:
364,72,82457,1,0,1:0:0:0:
460,276,82600,2,0,L|464:364,1,85.4999977169037,8|0,0:0|1:0,0:0:0:0:
332,168,82886,2,0,P|276:148|232:160,1,85.4999977169037,2|0,0:0|1:0,0:0:0:0:
220,328,83172,2,0,P|276:348|320:336,1,85.4999977169037,10|0,0:0|0:0,0:0:0:0:
388,104,83457,6,0,P|281:66|198:88,1,170.999995433807,2|10,1:2|0:0,0:0:0:0:
92,204,83886,2,0,P|148:200|192:220,1,85.4999977169037,2|0,0:0|1:0,0:0:0:0:
240,356,84172,1,0,1:2:0:0:
28,276,84314,2,0,P|0:232|0:180,1,85.4999977169037,10|0,0:0|1:0,0:0:0:0:
176,20,84600,5,2,0:0:0:0:
92,204,84743,1,0,1:0:0:0:
32,12,84886,1,10,0:0:0:0:
188,184,85029,2,0,B|236:200|236:200|360:184,1,170.999995433807,2|0,0:0|1:0,0:0:0:0:
504,60,85457,2,0,L|412:52,1,85.4999977169037,14|0,0:0|0:0,0:0:0:0:
240,244,85743,5,6,1:2:0:0:
312,28,85886,1,0,1:0:0:0:
440,204,86029,2,0,P|444:248|428:292,1,85.4999977169037,8|0,0:0|0:0,0:0:0:0:
204,152,86314,5,0,1:0:0:0:
416,104,86457,1,0,1:0:0:0:
304,332,86600,2,0,P|260:336|216:320,1,85.4999977169037,10|0,0:0|0:0,0:0:0:0:
120,96,86886,5,0,1:0:0:0:
24,304,87029,1,0,1:0:0:0:
24,56,87172,1,10,0:0:0:0:
124,336,87314,1,0,0:0:0:0:
276,40,87457,5,0,1:0:0:0:
0,206,87600,1,8,0:0:0:0:
308,272,87743,1,8,0:3:0:0:
109,6,87886,1,4,0:3:0:0:
254,360,88029,6,0,B|326:392|386:340|386:340|408:352|408:352|460:304|528:340,1,288,4|0,0:0|0:0,0:0:0:0:
