osu file format v14

[General]
AudioFilename: audio.mp3
AudioLeadIn: 0
PreviewTime: 48529
Countdown: 0
SampleSet: Soft
StackLeniency: 0.4
Mode: 0
LetterboxInBreaks: 0
WidescreenStoryboard: 1

[Editor]
DistanceSpacing: 1.4
BeatDivisor: 4
GridSize: 4
TimelineZoom: 1

[Metadata]
Title:HIKARI (TV Size)
TitleUnicode:光-HIKARI- (TV Size)
Artist:ViViD
ArtistUnicode:ViViD
Creator:Log Off Now
Version:browiec's Hyper
Source:マギ The kingdom of magic
Tags:magi the kingdom of magic 2 labyrinth aniplex a1 光の先へ japanese anime opening op browiec
BeatmapID:2202719
BeatmapSetID:1053509

[Difficulty]
HPDrainRate:4.3
CircleSize:3.4
OverallDifficulty:7.5
ApproachRate:8.7
SliderMultiplier:1.54
SliderTickRate:1

[Events]
//Background and Video events
0,0,"magi-kingdom.jpg",0,0
Video,0,"magi-opening2.avi"
//Break Periods
//Storyboard Layer 0 (Background)
//Storyboard Layer 1 (Fail)
//Storyboard Layer 2 (Pass)
//Storyboard Layer 3 (Foreground)
//Storyboard Layer 4 (Overlay)
//Storyboard Sound Samples

[TimingPoints]
1172,285.714285714286,4,2,1,45,1,0
1172,-285.714285714286,4,2,1,45,0,0
5743,-434.782608695652,4,2,1,45,0,0
7600,-434.782608695652,4,2,1,50,0,0
8029,-117.647058823529,4,2,1,50,0,0
11743,-117.647058823529,4,2,1,52,0,0
12029,-117.647058823529,4,2,1,55,0,0
12314,-117.647058823529,4,2,1,58,0,0
12600,-117.647058823529,4,2,1,60,0,0
21743,-133.333333333333,4,2,1,50,0,0
40029,-153.846153846154,4,2,1,50,0,0
44600,-117.647058823529,4,2,1,55,0,0
48172,-117.647058823529,4,2,1,60,0,0
49172,-105.263157894737,4,2,1,65,0,1
69743,-105.263157894737,4,2,1,65,0,1
88029,-250,4,2,1,50,0,0
89172,-250,4,2,1,20,0,0

[Colours]
Combo1 : 117,86,241
Combo2 : 218,181,33
Combo3 : 187,79,227
Combo4 : 183,0,0

[HitObjects]
100,104,1172,6,0,L|292:124,1,188.649994242859,4|0,1:2|0:0,0:0:0:0:
336,224,2314,2,0,P|292:216|276:220,1,53.8999983551026,4|0,1:2|0:0,0:0:0:0:
212,336,2886,2,0,L|209:362,2,26.9499991775513,8|8|4,0:3|0:3|0:3,0:0:0:0:
108,152,3457,6,0,P|48:144|48:252,1,188.649994242859,4|0,1:2|0:0,0:0:0:0:
120,296,4600,2,0,P|146:294|171:283,1,53.8999983551026,4|8,1:2|0:3,0:0:0:0:
236,140,5172,2,0,L|232:104,2,26.9499991775513,8|4|4,0:3|0:3|0:3,0:0:0:0:
280,332,5743,6,0,B|432:296|352:380|504:344,1,230.229992271332,4|0,1:2|1:0,0:0:0:0:
448,232,7743,1,8,0:0:0:0:
432,216,8029,6,0,L|284:224,1,130.900002496719,4|8,1:2|0:0,0:0:0:0:
224,120,8457,1,0,1:0:0:0:
224,120,8600,2,0,L|296:124,1,65.4500012483597,0|0,0:0|1:0,0:0:0:0:
208,28,8886,6,0,P|156:48|132:136,1,130.900002496719,10|2,0:0|0:0,0:0:0:0:
180,236,9314,1,0,1:0:0:0:
180,236,9457,2,0,B|256:252|236:200|332:236,1,130.900002496719,10|0,0:0|1:0,0:0:0:0:
372,336,9886,1,0,1:0:0:0:
372,336,10029,2,0,P|324:328|288:336,1,65.4500012483597,10|0,0:0|0:0,0:0:0:0:
184,368,10314,5,2,1:2:0:0:
184,368,10457,1,0,1:0:0:0:
160,220,10600,2,0,L|152:132,1,65.4500012483597,8|0,0:0|0:0,0:0:0:0:
92,44,10886,1,0,1:0:0:0:
92,44,11029,1,0,1:0:0:0:
56,156,11172,1,8,0:0:0:0:
188,64,11314,6,0,P|240:56|296:128,1,130.900002496719,4|8,1:2|0:0,0:0:0:0:
356,252,11743,2,0,P|400:260|432:252,1,65.4500012483597,8|8,1:2|0:0,0:0:0:0:
460,152,12029,2,0,P|416:144|384:152,1,65.4500012483597,8|8,1:2|0:0,0:0:0:0:
336,272,12314,1,8,1:2:0:0:
256,132,12457,1,8,0:0:0:0:
256,132,12529,1,8,0:0:0:0:
256,132,12600,6,0,B|196:108|196:108|108:128,1,130.900002496719,4|10,1:2|0:0,0:0:0:0:
40,208,13029,1,0,0:0:0:0:
40,208,13172,2,0,P|28:238|28:271,2,65.4500012483597,2|0|8,1:2|1:0|0:0,0:0:0:0:
180,216,13600,6,0,L|252:224,1,65.4500012483597,0|0,1:0|0:0,0:0:0:0:
321,124,13886,2,0,L|249:132,1,65.4500012483597,2|8,1:2|0:0,0:0:0:0:
184,20,14172,2,0,L|318:34,1,130.900002496719,2|0,1:2|1:0,0:0:0:0:
412,72,14600,2,0,P|424:112|420:152,1,65.4500012483597,8|0,0:0|0:0,0:0:0:0:
348,260,14886,5,0,1:0:0:0:
348,260,15029,1,0,1:0:0:0:
284,132,15172,2,0,P|236:124|204:132,1,65.4500012483597,10|0,0:0|0:0,0:0:0:0:
148,224,15457,2,0,P|115:221|83:229,2,65.4500012483597,2|0|8,1:2|1:0|0:0,0:0:0:0:
240,332,15886,6,0,L|320:344,1,65.4500012483597,2|0,1:2|0:0,0:0:0:0:
376,240,16172,2,0,L|296:252,1,65.4500012483597,2|8,1:2|0:0,0:0:0:0:
208,152,16457,2,0,B|268:148|268:148|292:156|292:156|360:152,1,130.900002496719,2|0,1:2|1:0,0:0:0:0:
412,80,16886,2,0,P|444:83|473:98,1,65.4500012483597,8|0,0:0|0:0,0:0:0:0:
468,252,17172,5,0,1:0:0:0:
468,252,17314,1,0,1:0:0:0:
320,168,17457,2,0,P|276:180|248:216,1,65.4500012483597,10|0,0:0|0:0,0:0:0:0:
320,316,17743,2,0,P|331:271|314:229,2,65.4500012483597,2|0|10,1:2|1:0|0:0,0:0:0:0:
188,364,18172,6,0,L|96:372,1,65.4500012483597,2|0,1:2|0:0,0:0:0:0:
64,268,18457,2,0,L|156:276,1,65.4500012483597,2|8,1:2|0:0,0:0:0:0:
240,164,18743,2,0,B|204:204|204:204|228:296,1,130.900002496719,2|0,0:0|1:0,0:0:0:0:
296,348,19172,2,0,P|340:352|368:344,1,65.4500012483597,10|0,0:0|0:0,0:0:0:0:
468,268,19457,5,2,1:2:0:0:
468,268,19600,1,0,1:0:0:0:
356,192,19743,2,0,P|308:176|232:232,1,130.900002496719,8|0,0:0|1:0,0:0:0:0:
204,308,20172,1,0,1:0:0:0:
156,172,20314,2,0,L|148:104,1,65.4500012483597,10|0,0:0|0:0,0:0:0:0:
88,24,20600,5,0,1:0:0:0:
12,144,20743,2,0,P|4:184|8:220,2,65.4500012483597,8|8|8,0:0|0:0|0:0,0:0:0:0:
160,84,21172,2,0,P|200:80|236:92,1,65.4500012483597,8|8,0:3|0:3,0:0:0:0:
216,228,21457,2,0,P|193:195|185:158,1,65.4500012483597,4|4,0:3|0:3,0:0:0:0:
316,80,21743,6,0,L|308:148,1,57.7500022029878,4|0,1:2|0:0,0:0:0:0:
328,236,22029,2,0,P|384:256|440:228,1,115.500004405976,8|0,0:0|1:0,0:0:0:0:
468,136,22457,1,0,1:2:0:0:
468,136,22600,2,0,L|461:78,1,57.7500022029878,10|0,0:0|0:0,0:0:0:0:
356,12,22886,6,0,P|316:8|288:20,2,57.7500022029878,2|0|10,1:2|1:0|0:0,0:0:0:0:
220,152,23457,2,0,P|260:156|288:144,2,57.7500022029878,2|0|10,1:2|1:0|0:0,0:0:0:0:
120,16,24029,6,0,L|124:148,1,115.500004405976,2|8,1:2|0:0,0:0:0:0:
40,188,24457,2,0,L|36:320,1,115.500004405976,2|0,0:0|1:0,0:0:0:0:
104,376,24886,2,0,B|176:392|156:356|236:372,1,115.500004405976,10|0,0:0|1:0,0:0:0:0:
360,256,25457,6,0,L|224:248,1,115.500004405976,8|0,0:0|1:0,0:0:0:0:
172,184,25886,1,0,1:0:0:0:
172,184,26029,2,0,L|104:188,1,57.7500022029878,8|0,0:0|0:0,0:0:0:0:
44,76,26314,6,0,L|112:80,1,57.7500022029878,2|0,1:2|0:0,0:0:0:0:
184,32,26600,2,0,P|236:16|292:72,1,115.500004405976,8|0,0:0|1:0,0:0:0:0:
288,144,27029,1,0,1:0:0:0:
288,144,27172,2,0,P|336:132|360:136,1,57.7500022029878,10|0,0:0|0:0,0:0:0:0:
372,268,27457,6,0,P|337:232|329:209,1,57.7500022029878,2|0,1:2|1:0,0:0:0:0:
438,134,27743,2,0,P|424:181|408:200,1,57.7500022029878,10|0,0:0|1:0,0:0:0:0:
268,160,28029,2,0,L|264:88,1,57.7500022029878,2|0,0:0|1:0,0:0:0:0:
172,40,28314,2,0,L|168:112,1,57.7500022029878,10|0,0:0|0:0,0:0:0:0:
140,216,28600,6,0,B|104:196|104:196|16:212,1,115.500004405976,2|10,1:2|0:0,0:0:0:0:
0,324,29029,2,0,B|100:352|76:292|176:324,1,173.250006608963,2|10,0:0|0:0,0:0:0:0:
304,208,29743,6,0,L|308:140,1,57.7500022029878,2|0,1:2|0:0,0:0:0:0:
208,104,30029,2,0,L|212:172,1,57.7500022029878,10|0,0:0|0:0,0:0:0:0:
260,292,30314,2,0,P|302:303|328:295,2,57.7500022029878,2|0|8,1:2|1:0|0:0,0:0:0:0:
116,156,30886,6,0,L|-8:148,1,115.500004405976,6|8,1:2|0:0,0:0:0:0:
60,256,31314,2,0,L|184:248,1,115.500004405976,2|0,0:0|1:0,0:0:0:0:
244,312,31743,2,0,P|284:316|316:308,1,57.7500022029878,10|0,0:0|0:0,0:0:0:0:
384,232,32029,6,0,L|388:168,1,57.7500022029878,2|0,1:2|1:0,0:0:0:0:
304,128,32314,2,0,L|300:64,1,57.7500022029878,10|0,0:0|1:0,0:0:0:0:
228,0,32600,2,0,P|192:0|160:16,1,57.7500022029878,2|0,0:0|1:0,0:0:0:0:
112,96,32886,2,0,P|148:96|180:112,1,57.7500022029878,10|0,0:0|0:0,0:0:0:0:
224,200,33172,6,0,B|236:248|236:248|192:324,1,115.500004405976,2|8,1:2|0:0,0:0:0:0:
272,380,33600,1,2,0:0:0:0:
272,380,33743,2,0,P|312:384|344:368,1,57.7500022029878,2|0,1:2|1:0,0:0:0:0:
408,296,34029,2,0,B|416:248|416:248|408:220|408:220|416:172,1,115.500004405976,10|0,0:0|1:0,0:0:0:0:
352,24,34600,6,0,L|356:92,1,57.7500022029878,10|0,0:0|0:0,0:0:0:0:
260,140,34886,2,0,L|264:72,1,57.7500022029878,2|0,1:2|1:0,0:0:0:0:
168,24,35172,2,0,L|172:92,1,57.7500022029878,10|0,0:0|0:0,0:0:0:0:
136,180,35457,6,0,P|104:160|16:184,1,115.500004405976,2|8,1:2|0:0,0:0:0:0:
24,284,35886,2,0,P|56:304|144:280,1,115.500004405976,2|0,0:0|1:0,0:0:0:0:
208,240,36314,2,0,P|244:228|276:228,1,57.7500022029878,10|0,0:0|0:0,0:0:0:0:
348,312,36600,6,0,B|396:328|396:328|476:312,1,115.500004405976,2|8,1:2|0:0,0:0:0:0:
508,232,37029,1,0,0:0:0:0:
508,232,37172,2,0,P|512:200|504:168,2,57.7500022029878,0|0|10,1:0|1:0|0:0,0:0:0:0:
332,336,37743,6,0,P|288:340|216:284,1,115.500004405976,2|10,1:2|0:0,0:0:0:0:
204,212,38172,1,0,0:0:0:0:
204,212,38314,2,0,L|200:144,1,57.7500022029878,2|0,1:2|1:0,0:0:0:0:
300,104,38600,2,0,L|296:172,1,57.7500022029878,10|0,0:0|0:0,0:0:0:0:
384,236,38886,5,2,1:2:0:0:
384,236,39029,1,0,1:0:0:0:
436,136,39172,2,0,P|440:100|432:60,1,57.7500022029878,2|0,0:3|0:0,0:0:0:0:
312,28,39457,2,0,P|296:68|296:104,1,57.7500022029878,8|8,0:0|0:0,0:0:0:0:
256,184,39743,2,0,P|229:150|198:132,1,57.7500022029878,8|8,0:3|0:3,0:0:0:0:
112,92,40029,6,0,L|104:208,1,100.099995417786,4|2,1:2|0:0,0:0:0:0:
16,308,40600,2,0,L|8:192,1,100.099995417786,8|2,0:0|0:0,0:0:0:0:
96,4,41172,6,0,P|148:8|192:56,1,100.099995417786,0|2,1:0|0:0,0:0:0:0:
140,152,41743,2,0,P|88:148|44:100,1,100.099995417786,10|2,0:0|0:0,0:0:0:0:
244,132,42314,6,0,L|252:248,1,100.099995417786,2|2,1:2|0:0,0:0:0:0:
340,348,42886,2,0,L|348:232,1,100.099995417786,10|2,0:0|0:0,0:0:0:0:
392,160,43314,2,0,P|440:148|500:224,1,150.149993126679,2|2,1:2|0:0,0:0:0:0:
392,364,44029,2,0,P|340:364|288:336,1,100.099995417786,8|8,0:0|0:0,0:0:0:0:
248,248,44457,1,8,0:0:0:0:
248,248,44600,6,0,L|244:172,1,65.4500012483597,4|0,1:2|0:0,0:0:0:0:
228,80,44886,2,0,L|164:121,1,65.4500012483597,8|0,0:0|0:0,0:0:0:0:
93,182,45172,2,0,L|160:216,2,65.4500012483597,0|0|8,1:0|1:0|0:0,0:0:0:0:
16,64,45600,6,0,P|54:28|134:37,1,130.900002496719,0|0,1:0|1:0,0:0:0:0:
212,116,46029,2,0,P|274:125|324:86,1,130.900002496719,8|0,0:0|1:0,0:0:0:0:
424,24,46457,1,2,1:2:0:0:
424,24,46600,2,0,P|416:64|424:104,1,65.4500012483597,10|0,0:0|0:0,0:0:0:0:
492,192,46886,6,0,L|426:185,1,65.4500012483597,2|0,1:2|1:0,0:0:0:0:
344,284,47171,2,0,L|409:277,1,65.4500012483597,10|0,0:0|0:0,0:0:0:0:
324,188,47457,2,0,L|258:181,1,65.4500012483597,2|0,1:2|1:0,0:0:0:0:
184,264,47743,1,10,0:0:0:0:
132,148,47886,1,2,0:3:0:0:
116,132,48172,6,0,P|83:134|52:145,2,65.4500012483597,8|8|8,0:0|0:0|0:0,0:0:0:0:
258,181,48600,1,8,0:0:0:0:
208,88,48743,1,8,0:0:0:0:
164,224,48886,1,8,0:0:0:0:
277,169,49029,1,8,0:0:0:0:
288,312,49172,6,0,B|340:340|340:340|436:320,1,146.299996093369,4|8,1:2|0:0,0:0:0:0:
472,220,49600,2,0,L|388:228,1,73.1499980466843,2|0,1:2|0:0,0:0:0:0:
328,124,49886,2,0,L|412:132,1,73.1499980466843,2|8,1:2|0:0,0:0:0:0:
316,28,50172,6,0,P|270:45|231:137,1,146.299996093369,2|0,0:0|1:0,0:0:0:0:
172,220,50600,2,0,P|147:169|122:133,1,73.1499980466843,8|0,0:0|0:0,0:0:0:0:
60,68,50886,1,2,1:2:0:0:
60,68,51029,1,0,1:0:0:0:
20,184,51172,2,0,L|16:264,1,73.1499980466843,10|0,0:0|0:0,0:0:0:0:
104,360,51457,6,0,B|165:357|165:357|194:340|194:340|275:334,1,146.299996093369,2|8,1:2|0:0,0:0:0:0:
332,268,51886,2,0,P|284:252|260:220,1,73.1499980466843,2|0,1:2|0:0,0:0:0:0:
336,108,52172,2,0,P|346:157|330:194,1,73.1499980466843,2|8,1:2|0:0,0:0:0:0:
181,151,52457,1,2,0:0:0:0:
181,151,52600,6,0,L|254:146,2,73.1499980466843,2|0|8,0:0|1:0|0:0,0:0:0:0:
104,240,53029,1,0,0:0:0:0:
104,240,53172,2,0,L|31:234,1,73.1499980466843,2|0,1:2|1:0,0:0:0:0:
84,340,53457,2,0,L|156:334,1,73.1499980466843,8|0,0:0|0:0,0:0:0:0:
276,260,53743,6,0,P|300:224|276:112,1,146.299996093369,2|8,1:2|0:0,0:0:0:0:
224,40,54172,2,0,P|272:40|316:24,1,73.1499980466843,2|0,1:2|0:0,0:0:0:0:
444,96,54457,2,0,P|396:96|352:80,1,73.1499980466843,2|10,1:2|0:0,0:0:0:0:
244,148,54743,1,2,0:0:0:0:
400,192,54886,6,0,L|480:200,2,73.1499980466843,2|0|10,1:2|1:0|0:0,0:0:0:0:
284,64,55314,2,0,P|232:56|204:64,1,73.1499980466843,2|0,1:2|0:0,0:0:0:0:
112,156,55600,2,0,B|168:140|168:140|256:172,1,146.299996093369,2|2,1:2|0:0,0:0:0:0:
336,304,56029,6,0,P|280:308|244:292,1,73.1499980466843,2|0,1:2|1:0,0:0:0:0:
144,264,56314,2,0,P|175:310|179:349,1,73.1499980466843,10|0,0:2|0:0,0:0:0:0:
52,248,56600,1,2,1:2:0:0:
52,248,56743,2,0,P|76:197|108:174,1,73.1499980466843,2|8,1:2|0:0,0:0:0:0:
232,216,57029,6,0,L|384:212,1,146.299996093369,4|8,1:2|0:0,0:0:0:0:
460,132,57457,2,0,L|384:120,1,73.1499980466843,8|8,1:2|0:0,0:0:0:0:
348,32,57743,1,8,1:2:0:0:
292,112,57886,1,8,0:0:0:0:
250,23,58029,1,8,1:2:0:0:
194,103,58172,1,8,0:0:0:0:
108,12,58314,6,0,P|56:16|16:104,1,146.299996093369,4|8,1:2|0:0,0:0:0:0:
88,188,58743,2,0,L|168:192,1,73.1499980466843,2|0,1:2|0:0,0:0:0:0:
228,284,59029,2,0,L|148:288,1,73.1499980466843,2|8,1:2|0:0,0:0:0:0:
260,196,59314,1,2,0:0:0:0:
260,196,59457,6,0,B|352:184|308:236|408:224,1,146.299996093369,2|8,1:2|0:0,0:0:0:0:
464,160,59886,1,0,1:0:0:0:
464,160,60029,2,0,P|488:208|484:252,1,73.1499980466843,2|0,0:0|1:0,0:0:0:0:
353,279,60314,2,0,P|382:234|422:215,1,73.1499980466843,10|0,0:0|0:0,0:0:0:0:
420,356,60600,6,0,B|352:376|352:376|264:348,1,146.299996093369,2|8,1:2|0:0,0:0:0:0:
220,224,61029,2,0,L|216:148,1,73.1499980466843,2|0,1:2|0:0,0:0:0:0:
124,84,61314,2,0,L|120:160,1,73.1499980466843,2|8,1:2|0:0,0:0:0:0:
148,284,61600,1,2,0:0:0:0:
148,284,61743,6,0,P|188:312|280:296,1,146.299996093369,2|8,1:2|0:0,0:0:0:0:
384,212,62172,1,0,1:0:0:0:
384,212,62314,2,0,P|324:212|288:196,1,73.1499980466843,2|0,0:0|1:0,0:0:0:0:
256,116,62600,2,0,P|316:116|352:100,1,73.1499980466843,10|0,0:0|0:0,0:0:0:0:
244,12,62886,6,0,B|188:-4|188:-4|96:20,1,146.299996093369,2|8,1:2|0:0,0:0:0:0:
40,92,63314,2,0,P|24:136|116:200,1,146.299996093369,2|0,1:2|1:0,0:0:0:0:
172,184,63743,2,0,P|220:176|256:188,1,73.1499980466843,10|0,0:0|0:0,0:0:0:0:
300,300,64029,6,0,B|356:316|356:316|448:292,1,146.299996093369,2|10,1:2|0:0,0:0:0:0:
504,220,64457,2,0,P|520:176|428:112,1,146.299996093369,2|0,1:2|1:0,0:0:0:0:
372,128,64886,2,0,P|324:136|288:124,1,73.1499980466843,10|0,0:0|0:0,0:0:0:0:
216,40,65172,6,0,L|208:204,1,146.299996093369,6|8,1:2|0:0,0:0:0:0:
168,276,65600,1,0,1:0:0:0:
168,276,65743,2,0,P|108:280|72:256,1,73.1499980466843,0|0,0:0|1:0,0:0:0:0:
32,148,66029,6,0,B|120:136|80:184|184:168,1,146.299996093369,10|0,0:0|0:0,0:0:0:0:
252,104,66457,1,0,1:0:0:0:
252,104,66600,2,0,P|296:80|376:152,1,146.299996093369,10|0,0:0|1:0,0:0:0:0:
360,224,67029,1,0,1:0:0:0:
360,224,67172,2,0,L|352:300,1,73.1499980466843,10|0,0:0|0:0,0:0:0:0:
260,368,67457,5,2,1:2:0:0:
260,368,67600,1,0,1:0:0:0:
200,260,67743,2,0,L|192:184,1,73.1499980466843,8|0,0:0|0:0,0:0:0:0:
120,112,68029,2,0,P|76:120|48:112,2,73.1499980466843,0|0|8,1:0|1:0|0:0,0:0:0:0:
212,24,68457,6,0,B|276:20|276:20|300:32|300:32|368:28,1,146.299996093369,4|8,1:2|0:0,0:0:0:0:
440,112,68886,2,0,P|392:116|352:136,1,73.1499980466843,8|8,0:0|0:0,0:0:0:0:
296,196,69172,1,8,0:0:0:0:
384,220,69314,1,8,0:0:0:0:
231,260,69457,1,8,0:0:0:0:
319,284,69600,1,8,0:0:0:0:
204,172,69743,6,0,B|96:160|96:160|52:184,1,146.299996093369,4|8,1:2|0:0,0:0:0:0:
0,260,70172,2,0,P|48:272|92:308,1,73.1499980466843,2|0,1:2|0:0,0:0:0:0:
68,380,70457,2,0,P|103:373|135:355,1,73.1499980466843,2|8,1:2|0:0,0:0:0:0:
232,256,70743,6,0,B|324:244|288:296|380:284,1,146.299996093369,2|0,0:0|1:0,0:0:0:0:
456,232,71172,2,0,P|464:196|457:159,1,73.1499980466843,8|0,0:0|0:0,0:0:0:0:
400,48,71457,1,2,1:2:0:0:
400,48,71600,1,0,1:0:0:0:
336,160,71743,2,0,P|288:168|248:156,1,73.1499980466843,10|0,0:0|0:0,0:0:0:0:
172,40,72029,6,0,B|192:96|192:96|156:192,1,146.299996093369,2|8,1:2|0:0,0:0:0:0:
48,256,72457,2,0,L|120:268,1,73.1499980466843,2|0,1:2|0:0,0:0:0:0:
176,356,72743,2,0,L|104:368,1,73.1499980466843,2|8,1:2|0:0,0:0:0:0:
224,268,73029,1,2,0:0:0:0:
224,268,73172,6,0,B|316:252|276:304|372:288,1,146.299996093369,2|8,0:0|0:0,0:0:0:0:
444,232,73600,1,0,0:0:0:0:
444,232,73743,2,0,L|452:152,1,73.1499980466843,2|0,1:2|1:0,0:0:0:0:
344,100,74029,2,0,L|352:180,1,73.1499980466843,10|0,0:0|0:0,0:0:0:0:
296,312,74314,6,0,B|248:336|248:336|136:308,1,146.299996093369,2|8,1:2|0:0,0:0:0:0:
92,220,74743,2,0,L|184:208,1,73.1499980466843,2|0,1:2|0:0,0:0:0:0:
228,128,75029,2,0,L|136:116,1,73.1499980466843,2|8,1:2|0:0,0:0:0:0:
52,28,75314,1,2,0:0:0:0:
4,184,75457,6,0,P|-4:232|7:272,2,73.1499980466843,2|0|8,1:2|1:0|0:0,0:0:0:0:
136,88,75886,2,0,L|224:80,1,73.1499980466843,2|0,1:2|0:0,0:0:0:0:
324,128,76172,2,0,P|276:148|276:244,1,146.299996093369,2|2,1:2|0:0,0:0:0:0:
344,316,76600,6,0,P|304:316|264:332,1,73.1499980466843,2|0,1:2|0:0,0:0:0:0:
412,384,76886,2,0,P|432:349|438:306,1,73.1499980466843,10|0,0:0|1:0,0:0:0:0:
460,192,77172,2,0,P|480:226|513:253,1,73.1499980466843,2|0,0:0|1:0,0:0:0:0:
488,104,77457,1,8,0:0:0:0:
372,228,77600,6,0,B|312:232|312:232|284:220|284:220|200:224,1,146.299996093369,2|8,1:2|0:0,0:0:0:0:
176,312,78029,2,0,L|84:304,1,73.1499980466843,8|8,1:2|0:0,0:0:0:0:
24,252,78314,1,8,1:2:0:0:
112,212,78457,1,8,0:0:0:0:
34,156,78600,1,8,1:2:0:0:
122,116,78743,1,8,0:0:0:0:
0,48,78886,6,0,B|92:60|48:8|160:24,1,146.299996093369,4|8,1:2|0:0,0:0:0:0:
272,48,79314,2,0,P|216:80|204:112,1,73.1499980466843,2|0,1:2|0:0,0:0:0:0:
300,208,79600,2,0,P|300:143|278:117,1,73.1499980466843,2|8,1:2|0:0,0:0:0:0:
147,152,79886,1,2,0:0:0:0:
147,152,80029,6,0,B|120:204|120:204|144:304,1,146.299996093369,2|8,1:2|0:0,0:0:0:0:
208,364,80457,1,0,1:0:0:0:
208,364,80600,2,0,P|252:364|284:352,1,73.1499980466843,2|0,0:0|1:0,0:0:0:0:
336,264,80886,2,0,P|292:264|260:252,1,73.1499980466843,10|0,0:0|0:0,0:0:0:0:
244,112,81172,6,0,B|304:96|304:96|392:120,1,146.299996093369,2|8,1:2|0:0,0:0:0:0:
464,208,81600,2,0,L|468:296,1,73.1499980466843,2|0,1:2|0:0,0:0:0:0:
368,340,81886,2,0,L|372:252,1,73.1499980466843,2|8,1:2|0:0,0:0:0:0:
268,208,82172,1,2,0:0:0:0:
268,208,82314,6,0,B|180:220|216:172|116:188,1,146.299996093369,2|8,0:0|0:0,0:0:0:0:
64,84,82743,1,0,1:0:0:0:
64,84,82886,2,0,P|116:92|148:84,1,73.1499980466843,2|0,0:0|1:0,0:0:0:0:
236,36,83172,2,0,P|227:88|236:120,1,73.1499980466843,10|0,0:0|0:0,0:0:0:0:
368,188,83457,6,0,P|312:176|248:232,1,146.299996093369,2|10,1:2|0:0,0:0:0:0:
208,320,83886,2,0,B|140:336|140:336|64:316,1,146.299996093369,2|0,0:0|1:2,0:0:0:0:
16,236,84314,2,0,P|7:200|13:164,1,73.1499980466843,10|0,0:0|1:0,0:0:0:0:
108,84,84600,6,0,B|204:76|152:128|264:116,1,146.299996093369,2|10,0:0|0:0,0:0:0:0:
344,120,85029,2,0,B|324:172|324:172|344:276,1,146.299996093369,2|0,0:0|1:0,0:0:0:0:
404,328,85457,2,0,P|440:329|474:318,1,73.1499980466843,14|0,0:0|0:0,0:0:0:0:
492,176,85743,5,6,1:2:0:0:
492,176,85886,1,0,1:0:0:0:
372,224,86029,2,0,L|292:228,1,73.1499980466843,8|0,0:0|0:0,0:0:0:0:
236,344,86314,5,0,1:0:0:0:
236,344,86457,1,0,1:0:0:0:
184,208,86600,2,0,P|175:172|152:134,1,73.1499980466843,10|0,0:0|0:0,0:0:0:0:
48,64,86886,5,0,1:0:0:0:
48,64,87029,1,0,1:0:0:0:
172,24,87172,2,0,L|256:20,1,73.1499980466843,10|0,0:0|0:0,0:0:0:0:
344,64,87457,5,0,1:0:0:0:
260,124,87600,1,8,0:0:0:0:
368,168,87743,1,8,0:3:0:0:
284,228,87886,1,4,0:3:0:0:
448,244,88029,6,0,P|456:348|360:296,1,246.4,4|0,0:0|0:0,0:0:0:0:
