osu file format v14

[General]
AudioFilename: audio.mp3
AudioLeadIn: 0
PreviewTime: 62953
Countdown: 0
SampleSet: Soft
StackLeniency: 0.7
Mode: 0
LetterboxInBreaks: 0
WidescreenStoryboard: 1

[Editor]
Bookmarks: 14065,49620,74806
DistanceSpacing: 1.4
BeatDivisor: 4
GridSize: 32
TimelineZoom: 1.4

[Metadata]
Title:BLUE (TV Size)
TitleUnicode:BLUE (TV Size)
Artist:ViViD
ArtistUnicode:ViViD
Creator:-Mikan
Version:Easy
Source:BLEACH
Tags:reform kujinn ducky- djulus defenderdjulus -mikanmymommy m3gb3g mocaotic evaotic anime jrock rock japanese op opening 14
BeatmapID:2859856
BeatmapSetID:1321967

[Difficulty]
HPDrainRate:2
CircleSize:3
OverallDifficulty:2
ApproachRate:3.5
SliderMultiplier:0.8
SliderTickRate:1

[Events]
//Background and Video events
0,0,"bg.jpg",0,0
Video,-300,"[Anitousen] Tv Op14 - Blue (Vivid)-1-1.mp4"
//Break Periods
//Storyboard Layer 0 (Background)
//Storyboard Layer 1 (Fail)
//Storyboard Layer 2 (Pass)
//Storyboard Layer 3 (Foreground)
//Storyboard Layer 4 (Overlay)
//Storyboard Sound Samples

[TimingPoints]
712,365.853658536585,4,2,1,70,1,0
1260,389.61038961039,4,2,1,70,1,0
1843,370.37037037037,4,2,1,70,1,0
2954,344.827586206897,4,2,1,70,1,0
3694,370.37037037037,4,2,1,80,1,0
14064,-100,4,2,1,70,0,0
25916,-100,4,2,1,55,0,0
26286,-100,4,2,1,55,0,0
37768,-100,4,2,1,55,0,0
47953,-100,4,2,1,70,0,0
49619,-100,4,2,1,60,0,0
61286,-100,4,2,1,65,0,0
61656,-100,4,2,1,70,0,0
62953,-100,4,2,1,80,0,1
86656,-100,4,2,1,80,0,0
87027,-100,4,2,2,70,0,0
87397,-100,4,2,1,60,0,0
87768,-100,4,2,2,50,0,0
88138,-100,4,2,1,40,0,0
88508,-100,4,2,2,30,0,0
88693,-188.679245283019,4,2,2,20,0,0
88879,-100,4,2,1,10,0,0
89064,-188.679245283019,4,2,1,5,0,0
89248,-100,4,2,1,5,0,0

[Colours]
Combo1 : 159,255,159
Combo2 : 166,255,255

[HitObjects]
21,301,2213,6,0,B|113:300|71:360|162:366,1,160,6|6,3:1|3:1,2:0:0:0:
230,313,3298,1,0,1:0:0:0:
158,252,3694,2,0,P|145:186|138:160,1,80,6|2,1:2|1:2,0:0:0:0:
195,103,4434,2,0,P|233:112|273:119,1,80,2|0,1:0|1:0,2:0:0:0:
329,186,5175,6,0,P|388:144|472:164,1,160,2|2,1:2|1:2,2:0:0:0:
509,239,6286,1,0,1:0:0:0:
437,290,6656,2,0,P|445:340|453:374,1,80,2|2,1:2|1:2,0:0:0:0:
364,381,7397,2,0,P|356:331|348:297,1,80,2|0,1:0|1:0,2:0:0:0:
273,256,8138,6,0,B|192:261|218:328|128:328,1,160,6|2,3:2|1:2,2:0:0:0:
58,369,9249,1,0,1:0:0:0:
6,297,9619,2,0,L|32:137,1,160,2|2,1:2|1:0,0:0:0:0:
11,53,10731,1,0,1:0:0:0:
98,52,11101,6,2,P|157:46|182:27,1,80,6|2,1:2|1:2,2:1:0:0:
246,84,11842,1,2,1:3:0:0:
364,25,12397,2,2,B|353:82|353:82|377:119|344:152,1,120,4|6,3:1|1:2,2:1:0:0:
408,209,13323,2,0,P|453:211|492:236,1,80,2|0,1:3|1:0,0:0:0:0:
427,296,14064,6,0,P|370:309|349:320,1,80,6|2,3:1|1:2,2:0:0:0:
280,371,14805,1,2,3:2:0:0:
173,293,15360,1,2,3:2:0:0:
57,358,15916,6,0,P|41:288|34:265,1,80,2|2,1:2|3:2,2:0:0:0:
2,200,16656,1,0,1:0:0:0:
76,152,17027,2,0,P|144:176|162:176,2,80,2|2|2,3:0|1:2|3:2,2:0:0:0:
7,39,18323,1,2,3:0:0:0:
136,11,18879,6,0,P|180:27|224:28,1,80,2|2,1:2|3:0,0:0:0:0:
273,93,19619,1,0,1:0:0:0:
359,77,19990,2,0,L|340:-7,2,80,4|2|2,3:2|1:2|3:2,2:0:0:0:
466,154,21286,1,2,3:2:0:0:
356,229,21842,6,0,P|318:216|273:212,1,80,2|2,1:2|3:2,2:0:0:0:
205,260,22582,1,0,1:0:0:0:
128,216,22953,2,0,L|141:128,2,80,2|2|2,3:0|1:2|3:0,2:0:0:0:
41,315,24249,1,2,3:0:0:0:
154,382,24805,6,0,P|189:369|235:367,1,80,2|2,1:2|1:2,0:0:0:0:
290,301,25545,1,0,1:0:0:0:
378,304,25916,6,0,L|369:402,2,80,6|2|2,3:2|1:2|3:2,2:0:0:0:
455,262,27027,1,0,1:0:0:0:
400,192,27397,2,0,L|373:26,1,160,2|2,3:2|3:2,2:0:0:0:
290,7,28508,1,0,1:0:0:0:
212,49,28879,6,0,P|168:36|131:36,2,80,2|2|2,3:0|1:2|3:2,2:0:0:0:
255,125,29990,1,0,1:0:0:0:
174,161,30360,2,0,B|91:165|114:222|27:226,1,160,2|2,3:2|3:2,2:0:0:0:
5,309,31471,1,2,1:2:0:0:
76,360,31842,6,0,P|126:346|162:347,1,80,6|2,3:2|1:2,2:0:0:0:
218,286,32582,2,0,P|265:304|303:309,1,80,2|2,3:2|1:2,0:0:0:0:
366,359,33323,2,0,P|432:334|429:249,1,160,2|2,3:0|3:2,2:0:0:0:
368,194,34434,1,0,1:2:0:0:
429,131,34805,6,0,L|517:150,2,80,6|2|2,3:2|1:2|3:2,2:0:0:0:
386,53,35916,1,0,1:0:0:0:
302,81,36286,2,0,B|255:79|229:97|229:97|170:70|190:31,1,160,0|2,3:0|1:3,0:0:0:0:
104,7,37397,1,2,1:0:0:0:
35,62,37768,6,0,L|46:145,1,80,6|2,3:2|1:2,2:0:0:0:
113,197,38508,2,0,L|102:280,1,80,2|0,3:2|1:0,0:0:0:0:
40,339,39249,2,0,P|86:320|209:326,1,160,2|2,3:2|3:2,2:0:0:0:
255,256,40360,1,2,1:2:0:0:
326,308,40731,6,0,P|372:316|405:331,1,80,2|2,3:0|1:2,2:0:0:0:
475,280,41471,2,0,L|453:196,1,80,2|0,3:2|1:2,0:0:0:0:
421,121,42212,2,0,P|348:164|268:162,1,160,2|2,3:2|3:2,2:0:0:0:
219,94,43323,1,2,1:2:0:0:
133,115,43693,6,2,P|120:53|110:21,2,80,6|2|2,3:2|1:2|3:2,2:1:0:0:
56,159,44805,1,2,1:2:0:0:
77,244,45175,2,2,P|27:250|-5:260,2,80,2|2|2,3:0|1:2|3:2,2:1:0:0:
157,279,46286,1,0,1:0:0:0:
236,242,46656,2,2,B|323:259|292:310|380:322,1,160,6|2,3:2|3:2,2:1:0:0:
489,378,47953,6,2,L|465:242,1,120,6|2,3:2|1:0,2:1:0:0:
501,178,48879,1,2,1:3:0:0:
422,139,49249,1,2,1:0:0:0:
458,58,49619,6,0,P|404:93|304:84,1,160,4|0,3:1|3:0,2:0:0:0:
242,31,50731,1,0,1:0:0:0:
158,58,51101,2,0,B|169:134|169:134|172:137|172:137|185:220,1,160,0|0,3:0|3:0,0:0:0:0:
109,261,52212,1,0,1:0:0:0:
30,220,52582,6,0,L|44:141,2,80,2|2|2,3:2|1:2|3:2,2:0:0:0:
109,261,53693,1,2,1:2:0:0:
184,215,54064,2,0,B|278:236|229:283|319:299,1,160,2|2,3:2|3:2,2:0:0:0:
383,353,55175,1,2,1:2:0:0:
450,296,55545,6,0,B|429:267|432:222|432:222|468:183|447:138,1,160,6|0,3:2|3:0,2:0:0:0:
378,93,56656,1,0,1:0:0:0:
317,157,57027,2,0,P|254:199|167:179,1,160,0|0,3:0|3:0,0:0:0:0:
116,118,58138,1,0,1:0:0:0:
167,46,58508,6,0,L|258:62,2,80,2|2|2,3:2|1:2|3:0,2:0:0:0:
116,118,59619,1,2,1:2:0:0:
30,95,59990,2,0,P|21:52|10:12,2,80,2|2|0,3:0|1:0|3:0,2:0:0:0:
0,223,61286,6,0,P|78:223|161:315,1,200,2|0,1:0|1:0,2:0:0:0:
235,350,62582,1,0,1:0:0:0:
280,274,62953,6,0,P|283:214|289:186,1,80,6|2,3:1|1:2,2:0:0:0:
206,159,63693,2,0,P|212:119|212:79,1,80,2|2,3:2|1:2,2:0:0:0:
278,21,64434,1,6,1:2:0:0:
349,73,64805,1,2,1:2:0:0:
425,29,65175,2,0,P|470:41|511:42,1,80,2|0,1:0|1:0,0:0:0:0:
505,131,65916,6,0,B|466:125|424:153|452:182|400:199|349:201,1,160,2|2,1:2|1:2,2:0:0:0:
298,253,67027,1,0,1:0:0:0:
343,328,67397,2,0,P|406:337|424:343,2,80,2|2|2,1:2|1:2|1:0,2:0:0:0:
266,372,68508,1,0,1:0:0:0:
190,325,68879,6,0,P|128:333|100:344,1,80,6|2,3:2|1:2,2:0:0:0:
91,253,69619,2,0,P|153:245|181:234,1,80,2|0,1:2|1:0,2:0:0:0:
228,173,70360,1,2,1:2:0:0:
161,115,70731,1,2,1:2:0:0:
223,53,71101,2,0,P|274:76|306:76,1,80,2|0,1:0|1:0,0:0:0:0:
371,29,71842,6,2,P|449:8|515:60,1,160,6|2,1:2|1:3,2:1:0:0:
425,152,73138,2,2,P|405:223|402:280,1,120,4|6,3:1|1:2,2:1:0:0:
342,334,74064,1,2,1:3:0:0:
268,285,74434,1,0,1:0:0:0:
185,316,74805,6,0,P|174:248|167:228,1,80,6|2,3:1|1:2,2:0:0:0:
234,177,75545,2,0,P|245:109|252:89,1,80,2|2,3:2|1:2,2:0:0:0:
190,32,76286,1,6,1:2:0:0:
115,78,76656,1,2,1:2:0:0:
28,60,77027,2,0,L|44:151,1,80,2|0,1:0|1:0,2:0:0:0:
111,193,77768,6,0,B|88:281|88:281|43:303|56:353,1,160,2|2,1:2|1:2,2:0:0:0:
128,381,78879,1,0,1:0:0:0:
195,325,79249,2,0,P|248:316|277:307,1,80,2|2,1:2|1:2,0:0:0:0:
348,353,79990,2,0,P|387:353|430:374,1,80,2|0,1:0|1:0,0:0:0:0:
502,329,80731,5,6,3:2:0:0:
437,269,81101,1,2,1:2:0:0:
501,208,81471,2,0,P|512:131|517:119,1,80,2|0,1:2|1:0,2:0:0:0:
464,55,82212,2,0,B|395:62|389:115|314:112,1,160,2|2,1:2|1:0,0:0:0:0:
271,37,83323,1,0,1:0:0:0:
186,60,83693,6,2,B|196:138|196:138|233:165|224:225,1,160,6|2,1:2|1:3,2:1:0:0:
144,314,84990,2,2,P|226:323|258:355,1,120,4|6,3:1|1:2,2:1:0:0:
335,373,85916,2,0,P|383:365|423:365,1,80,2|0,1:3|1:0,0:0:0:0:
479,305,86656,1,6,3:1:0:0:
256,192,86749,12,0,89249,2:0:0:0:
