osu file format v14

[General]
AudioFilename: audio.mp3
AudioLeadIn: 0
PreviewTime: 48562
Countdown: 0
SampleSet: Normal
StackLeniency: 0.7
Mode: 0
LetterboxInBreaks: 0
WidescreenStoryboard: 1

[Editor]
Bookmarks: 15919
DistanceSpacing: 1
BeatDivisor: 1
GridSize: 4
TimelineZoom: 1.6

[Metadata]
Title:-HIKARI-
TitleUnicode:光-HIKARI-
Artist:ViViD
ArtistUnicode:ViViD
Creator:M o c h a
Version:Normal
Source:マギ The kingdom of magic
Tags:magi season 2 op
BeatmapID:1504173
BeatmapSetID:711385

[Difficulty]
HPDrainRate:2
CircleSize:3
OverallDifficulty:2
ApproachRate:4
SliderMultiplier:0.8
SliderTickRate:1

[Events]
//Background and Video events
0,0,"cropped-1440-900-344713.jpg",0,0
//Break Periods
//Storyboard Layer 0 (Background)
//Storyboard Layer 1 (Fail)
//Storyboard Layer 2 (Pass)
//Storyboard Layer 3 (Foreground)
//Storyboard Sound Samples

[TimingPoints]
1276,285.714285714286,4,1,0,60,1,0
40134,-133.333333333333,4,1,0,60,0,0
49276,-100,4,1,0,60,0,1
65276,-100,4,1,0,60,0,0
69848,-100,4,1,0,60,0,1
85848,-100,4,1,0,60,0,0

[HitObjects]
467,45,1276,5,0,0:0:0:0:
409,98,2419,1,0,0:0:0:0:
450,166,3562,1,0,0:0:0:0:
397,226,4705,1,0,0:0:0:0:
422,301,5848,5,0,0:0:0:0:
344,316,6991,1,0,0:0:0:0:
271,349,8133,6,0,P|190:360|108:328,1,160
213,205,9276,2,0,P|236:120|193:48,1,160
67,140,10419,2,0,B|52:193|52:193|78:243|65:323,2,160
173,260,12134,1,0,0:0:0:0:
311,339,12705,6,0,P|385:359|472:311,1,160
363,197,13848,2,0,P|343:107|386:33,1,160
505,134,14991,1,0,0:0:0:0:
442,281,15562,1,0,0:0:0:0:
290,333,16134,2,0,P|219:353|136:300,1,160
66,176,17276,1,0,0:0:0:0:
161,47,17848,6,0,P|232:33|335:59,1,160
420,172,18991,2,0,L|254:172,1,160
111,232,20134,1,0,0:0:0:0:
239,327,20705,2,0,L|431:329,2,160
362,224,22419,1,0,0:0:0:0:
452,91,22991,6,0,P|403:32|314:49,1,160
202,140,24134,2,0,P|124:163|50:103,1,160
164,1,25276,5,0,0:0:0:0:
291,97,25848,1,0,0:0:0:0:
309,255,26419,2,0,P|276:334|176:353,1,160
141,214,27562,2,0,P|103:138|4:138,1,160
21,284,28705,5,0,0:0:0:0:
161,359,29276,1,0,0:0:0:0:
317,327,29848,2,0,L|334:156,2,160
204,212,31562,1,0,0:0:0:0:
298,82,32134,6,0,P|366:81|422:147,1,160
270,196,33276,2,0,P|196:184|166:108,1,160
26,31,34419,2,0,L|33:206,1,160
151,297,35562,6,0,L|151:133,1,160
289,56,36705,2,0,B|316:114|316:114|294:155|294:155|297:212,1,160
400,326,37848,5,0,0:0:0:0:
405,166,38419,1,0,0:0:0:0:
245,158,38991,1,0,0:0:0:0:
250,317,39562,1,0,0:0:0:0:
144,259,40134,6,0,B|95:252|95:252|57:268|57:268|1:250,2,120.000004577637
166,141,41848,1,0,0:0:0:0:
268,79,42419,6,0,B|253:120|253:120|276:141|276:141|267:205,2,120.000004577637
384,48,44134,1,0,0:0:0:0:
448,148,44705,6,0,L|451:280,1,120.000004577637
350,334,45848,2,0,L|347:192,1,120.000004577637
256,192,46991,12,0,48705,0:0:0:0:
90,67,49276,5,0,0:0:0:0:
42,219,49848,1,0,0:0:0:0:
116,360,50419,2,0,P|197:377|286:342,1,160
213,203,51562,5,0,0:0:0:0:
269,53,52134,1,0,0:0:0:0:
111,77,52705,2,0,P|68:148|71:226,1,160
223,177,53848,6,0,L|407:178,1,160
492,60,54991,2,0,L|324:60,1,160
172,76,56134,6,0,P|139:140|195:216,2,160
316,145,57848,1,0,0:0:0:0:
264,296,58419,5,0,0:0:0:0:
420,263,58991,1,0,0:0:0:0:
388,106,59562,2,0,P|323:64|237:113,1,160
186,237,60705,5,0,0:0:0:0:
27,219,61276,1,0,0:0:0:0:
114,84,61848,2,0,P|185:52|262:114,1,160
314,237,62991,6,0,P|315:315|397:380,1,160
439,227,64134,2,0,P|434:140|374:80,1,160
231,120,65276,6,0,B|174:134|174:134|119:107|119:107|48:119,1,160
19,262,66419,2,0,B|80:273|80:273|104:317|104:317|187:328,1,160
306,284,67562,5,0,0:0:0:0:
437,192,68134,1,0,0:0:0:0:
394,37,68705,1,0,0:0:0:0:
234,51,69276,1,0,0:0:0:0:
224,210,69848,5,0,0:0:0:0:
81,282,70419,1,0,0:0:0:0:
51,124,70991,2,0,P|77:45|173:42,2,160
81,282,72705,1,0,0:0:0:0:
239,302,73276,6,0,P|317:323|386:262,2,160
293,150,74991,2,0,P|327:76|265:-25,1,160
157,70,76134,2,0,L|157:237,1,160
241,365,77276,1,0,0:0:0:0:
393,316,77848,1,0,0:0:0:0:
434,161,78419,1,0,0:0:0:0:
296,79,78991,5,0,0:0:0:0:
179,188,79562,1,0,0:0:0:0:
134,34,80134,2,0,P|48:0|-9:53,1,160
60,182,81276,5,0,0:0:0:0:
57,342,81848,1,0,0:0:0:0:
216,337,82419,2,0,P|282:348|368:278,1,160
298,150,83562,2,0,P|331:73|430:58,1,160
440,205,84705,6,0,B|457:284|457:284|425:364,1,160
288,278,85848,6,0,L|128:288,3,160
256,192,88134,12,0,89276,0:0:0:0:
