osu file format v14

[General]
AudioFilename: audio.mp3
AudioLeadIn: 0
PreviewTime: 48562
Countdown: 0
SampleSet: Normal
StackLeniency: 0.7
Mode: 0
LetterboxInBreaks: 0
WidescreenStoryboard: 0

[Editor]
DistanceSpacing: 1.4
BeatDivisor: 4
GridSize: 4
TimelineZoom: 1.6

[Metadata]
Title:-HIKARI-
TitleUnicode:光-HIKARI-
Artist:ViViD
ArtistUnicode:ViViD
Creator:M o c h a
Version:King
Source:マギ The kingdom of magic
Tags:magi season 2 op
BeatmapID:1503862
BeatmapSetID:711385

[Difficulty]
HPDrainRate:8
CircleSize:4
OverallDifficulty:9
ApproachRate:9.5
SliderMultiplier:1.8
SliderTickRate:1

[Events]
//Background and Video events
0,0,"cropped-1440-900-344713.jpg",0,0
//Break Periods
//Storyboard Layer 0 (Background)
//Storyboard Layer 1 (Fail)
//Storyboard Layer 2 (Pass)
//Storyboard Layer 3 (Foreground)
//Storyboard Sound Samples

[TimingPoints]
1276,285.714285714286,4,1,0,60,1,0
40134,-133.333333333333,4,1,0,60,0,0
49276,-100,4,1,0,60,0,1
65276,-100,4,1,0,60,0,0
69848,-100,4,1,0,60,0,1
85848,-100,4,1,0,60,0,0

[HitObjects]
138,105,1276,5,0,0:0:0:0:
408,206,2419,1,0,0:0:0:0:
142,325,3562,1,0,0:0:0:0:
262,76,4705,1,0,0:0:0:0:
412,320,5848,1,0,0:0:0:0:
412,320,6991,5,0,0:0:0:0:
412,320,7705,1,0,0:0:0:0:
412,320,7848,1,0,0:0:0:0:
412,320,8133,6,0,L|340:379,1,90
316,244,8419,2,0,L|322:147,1,90
428,230,8705,1,0,0:0:0:0:
232,288,8848,1,0,0:0:0:0:
428,230,8991,2,0,P|423:286|399:326,1,90
232,288,9276,5,0,0:0:0:0:
407,315,9419,1,0,0:0:0:0:
232,288,9562,2,0,P|202:253|213:186,1,90
296,88,9848,1,0,0:0:0:0:
316,244,9991,1,0,0:0:0:0:
296,88,10133,2,0,L|380:55,1,90
467,149,10419,6,0,L|424:236,1,90
316,244,10705,1,0,0:0:0:0:
296,88,10848,1,0,0:0:0:0:
178,298,10991,2,0,L|202:202,1,90
296,88,11276,1,0,0:0:0:0:
296,88,11419,2,0,P|335:78|388:98,1,90
103,191,11705,1,0,0:0:0:0:
340,160,11848,1,0,0:0:0:0:
170,70,11991,1,0,0:0:0:0:
312,243,12134,1,0,0:0:0:0:
320,259,12205,1,0,0:0:0:0:
326,276,12276,1,0,0:0:0:0:
330,295,12348,1,0,0:0:0:0:
329,313,12419,1,0,0:0:0:0:
323,328,12491,1,0,0:0:0:0:
315,342,12562,1,0,0:0:0:0:
304,355,12634,1,0,0:0:0:0:
287,363,12705,6,0,P|243:370|187:369,1,90
226,214,12991,2,0,P|249:172|290:155,1,90
217,299,13276,2,0,P|167:277|147:237,1,90
202,114,13562,1,0,0:0:0:0:
401,229,13705,6,0,L|300:244,1,90
79,243,13991,2,0,L|150:173,1,90
292,152,14276,1,0,0:0:0:0:
123,89,14419,2,0,P|145:52|197:36,1,90
384,136,14705,2,0,P|375:195|338:237,1,90
205,203,14991,6,0,L|201:110,1,90
288,248,15276,2,0,L|264:352,1,90
44,277,15562,2,0,P|78:242|138:237,1,90
131,329,15848,1,0,0:0:0:0:
137,152,15991,6,0,P|179:166|208:223,1,90
209,289,16276,1,0,0:0:0:0:
62,198,16419,1,0,0:0:0:0:
288,248,16562,1,0,0:0:0:0:
131,329,16705,2,0,L|40:370,1,90
244,182,16991,2,0,L|345:141,1,90
111,114,17276,6,0,B|63:101|63:101|13:105,1,90
117,251,17562,2,0,B|169:264|169:264|211:228,1,90
153,42,17848,2,0,P|116:75|113:126,1,90
259,213,18134,1,0,0:0:0:0:
287,109,18276,6,0,L|167:113,1,90
27,251,18562,2,0,L|151:251,1,90
349,213,18848,2,0,L|229:213,1,90
323,328,19134,1,0,0:0:0:0:
437,248,19276,2,0,P|448:202|407:147,1,90
197,111,19562,6,0,P|160:205|188:290,1,180
349,213,19991,1,0,0:0:0:0:
278,45,20134,2,0,P|243:19|176:24,1,90
32,137,20419,2,0,L|25:254,1,90
255,302,20705,6,0,L|259:212,1,90
76,293,20991,2,0,L|75:405,1,90
157,145,21276,1,0,0:0:0:0:
255,302,21419,1,0,0:0:0:0:
297,127,21562,1,0,0:0:0:0:
405,291,21705,1,0,0:0:0:0:
453,92,21848,5,0,0:0:0:0:
453,92,22134,6,0,P|422:26|324:29,1,180
297,127,22562,1,0,0:0:0:0:
338,239,22705,2,0,P|368:279|423:289,1,90
490,168,22991,6,0,P|482:119|443:88,1,90
286,45,23276,2,0,P|277:94|307:134,1,90
453,92,23562,1,0,0:0:0:0:
344,211,23705,1,0,0:0:0:0:
452,90,23848,2,0,P|403:73|358:81,1,90
239,206,24134,6,0,P|158:206|120:113,1,180
245,77,24562,1,0,0:0:0:0:
344,211,24705,2,0,P|316:297|218:313,1,180
137,228,25134,1,0,0:0:0:0:
245,77,25276,6,0,P|251:121|230:163,1,90
41,114,25562,2,0,P|78:86|126:89,1,90
137,228,25848,1,0,0:0:0:0:
243,75,25991,1,0,0:0:0:0:
137,228,26134,2,0,P|169:266|222:268,1,90
344,211,26419,1,0,0:0:0:0:
344,211,26705,6,0,P|415:206|446:301,1,180
310,323,27134,1,0,0:0:0:0:
247,201,27277,2,0,P|259:155|300:125,1,90
310,323,27562,5,0,0:0:0:0:
290,128,27705,1,0,0:0:0:0:
310,323,27848,2,0,L|217:339,1,90
174,170,28134,1,0,0:0:0:0:
344,211,28276,1,0,0:0:0:0:
344,211,28419,2,0,L|425:280,1,90
221,338,28705,6,0,L|103:323,1,90
85,151,28991,2,0,L|174:170,1,90
310,323,29276,1,0,0:0:0:0:
310,323,29419,1,0,0:0:0:0:
173,169,29562,2,0,P|159:127|173:85,1,90
347,124,29848,6,0,P|355:171|337:221,1,90
166,257,30134,2,0,P|122:248|93:215,1,90
173,84,30419,1,0,0:0:0:0:
19,170,30562,1,0,0:0:0:0:
173,84,30705,2,0,P|211:69|278:95,1,90
424,172,30991,5,0,0:0:0:0:
424,172,31276,2,0,P|444:256|355:344,1,180
324,233,31705,1,0,0:0:0:0:
218,274,31848,2,0,P|237:315|289:333,1,90
266,143,32134,5,0,0:0:0:0:
266,143,32276,1,0,0:0:0:0:
125,216,32419,2,0,P|106:262|121:327,1,90
218,274,32705,1,0,0:0:0:0:
218,274,32848,1,0,0:0:0:0:
107,119,32991,2,0,P|60:140|42:184,1,90
218,274,33276,6,0,L|191:153,1,90
316,35,33562,2,0,L|343:154,1,90
290,284,33848,1,0,0:0:0:0:
335,122,33991,1,0,0:0:0:0:
439,255,34134,2,0,P|448:303|431:353,1,90
218,274,34419,6,0,L|112:298,1,90
245,123,34705,2,0,L|335:122,1,90
439,255,34991,1,0,0:0:0:0:
335,122,35134,1,0,0:0:0:0:
476,20,35276,2,0,P|503:56|501:113,1,90
295,196,35562,6,0,L|192:196,1,90
347,342,35848,2,0,L|438:341,1,90
210,290,36134,1,0,0:0:0:0:
210,290,36276,1,0,0:0:0:0:
374,231,36419,2,0,P|387:187|357:135,1,90
186,65,36705,6,0,L|96:64,1,90
205,196,36991,6,0,L|295:196,1,90
110,148,37276,1,0,0:0:0:0:
110,148,37419,1,0,0:0:0:0:
371,147,37562,2,0,P|387:188|374:231,1,90
137,307,37848,6,0,L|26:306,1,90
200,148,38134,2,0,L|92:148,1,90
371,147,38419,1,0,0:0:0:0:
371,147,38562,1,0,0:0:0:0:
226,306,38705,2,0,L|134:307,1,90
404,352,38991,2,0,L|502:352,1,90
200,148,39276,2,0,L|294:149,1,90
47,306,39562,5,0,0:0:0:0:
47,306,39705,1,0,0:0:0:0:
371,147,39848,1,0,0:0:0:0:
371,147,39991,1,0,0:0:0:0:
59,52,40134,6,0,B|99:44|134:80|134:80|182:62,1,135.000005149842
394,349,40705,2,0,B|437:320|437:320|429:271|471:228,1,135.000005149842
71,155,41276,6,0,P|39:212|58:275,2,135.000005149842
336,237,42134,1,0,0:0:0:0:
336,237,42419,6,0,B|305:229|264:246|264:246|216:207,1,135.000005149842
293,135,42991,2,0,P|326:133|361:142,1,67.5000025749208
414,244,43276,1,0,0:0:0:0:
352,323,43419,6,0,P|260:355|160:293,1,202.500007724762
151,208,43991,1,0,0:0:0:0:
41,187,44134,2,0,B|37:261|37:261|84:301,1,135.000005149842
151,208,44562,1,0,0:0:0:0:
171,309,44705,6,0,L|219:375,1,67.5000025749208
286,305,44991,2,0,L|364:326,1,67.5000025749208
422,183,45276,2,0,L|431:262,1,67.5000025749208
471,77,45562,2,0,L|512:136,1,67.5000025749208
254,38,45848,5,0,0:0:0:0:
422,183,45991,1,0,0:0:0:0:
187,246,46134,2,0,L|149:189,1,67.5000025749208
254,38,46419,1,0,0:0:0:0:
422,183,46562,1,0,0:0:0:0:
187,246,46705,2,0,L|149:189,1,67.5000025749208
335,0,46991,5,0,0:0:0:0:
360,288,47134,1,0,0:0:0:0:
80,144,47276,1,0,0:0:0:0:
392,76,47419,1,0,0:0:0:0:
360,288,47562,2,0,L|354:220,1,67.5000025749208
222,127,47848,1,0,0:0:0:0:
482,350,47991,6,0,L|479:282,1,67.5000025749208
222,127,48276,1,0,0:0:0:0:
479,282,48419,1,0,0:0:0:0:
222,127,48562,1,0,0:0:0:0:
479,282,48705,1,0,0:0:0:0:
222,127,48848,1,0,0:0:0:0:
479,282,48991,1,0,0:0:0:0:
217,118,49134,1,0,0:0:0:0:
479,282,49276,6,0,L|318:186,1,180
126,295,49705,2,0,P|200:342|287:330,1,180
441,176,50134,1,0,0:0:0:0:
217,118,50276,1,0,0:0:0:0:
217,118,50419,6,0,L|329:117,1,90
511,304,50705,2,0,L|399:305,1,90
140,155,50991,2,0,P|128:112|141:70,1,90
439,87,51276,2,0,P|447:126|439:177,1,90
126,295,51562,6,0,L|234:295,1,90
351,151,51848,1,0,0:0:0:0:
56,122,51991,2,0,L|140:155,1,90
440,158,52276,2,0,L|339:150,1,90
56,122,52562,1,0,0:0:0:0:
293,255,52705,6,0,P|303:306|278:350,1,90
53,208,52991,2,0,P|43:162|69:104,1,90
293,85,53276,2,0,P|329:110|352:178,1,90
191,246,53562,1,0,0:0:0:0:
349,150,53705,1,0,0:0:0:0:
164,148,53848,5,0,0:0:0:0:
355,238,53991,1,0,0:0:0:0:
138,133,54134,1,0,0:0:0:0:
377,257,54276,2,0,L|315:322,1,90
57,182,54562,2,0,P|39:107|129:41,1,180
228,312,54991,5,0,0:0:0:0:
138,133,55134,1,0,0:0:0:0:
247,342,55277,1,0,0:0:0:0:
107,41,55419,2,0,P|152:43|197:51,1,90
465,243,55705,2,0,P|421:253|376:256,1,90
138,133,55991,1,0,0:0:0:0:
419,78,56134,6,0,P|419:124|401:187,1,90
140,290,56419,2,0,P|101:203|156:119,1,180
420,282,56848,1,0,0:0:0:0:
190,207,56991,1,0,0:0:0:0:
419,78,57134,1,0,0:0:0:0:
291,306,57276,5,0,0:0:0:0:
280,58,57419,1,0,0:0:0:0:
469,200,57562,1,0,0:0:0:0:
137,132,57705,1,0,0:0:0:0:
469,200,57848,1,0,0:0:0:0:
137,132,57991,1,0,0:0:0:0:
469,200,58134,1,0,0:0:0:0:
137,132,58276,1,0,0:0:0:0:
468,199,58419,6,0,L|355:172,1,90
114,258,58705,1,0,0:0:0:0:
359,332,58848,2,0,P|400:310|431:272,1,90
369,54,59134,2,0,P|321:54|277:58,1,90
60,158,59419,1,0,0:0:0:0:
353,246,59562,6,0,L|238:245,1,90
0,347,59848,2,0,L|89:349,1,90
353,246,60134,1,0,0:0:0:0:
353,246,60276,1,0,0:0:0:0:
60,158,60419,2,0,P|56:110|85:44,1,90
353,246,60705,6,0,P|357:297|348:352,1,90
140,126,60991,1,0,0:0:0:0:
267,299,61134,2,0,L|177:305,1,90
247,66,61419,2,0,L|337:62,1,90
453,258,61705,1,0,0:0:0:0:
247,154,61848,6,0,P|239:109|247:64,1,90
453,258,62134,2,0,L|355:273,1,90
87,313,62419,2,0,L|191:304,1,90
453,258,62705,2,0,L|355:273,1,90
116,214,62991,6,0,P|74:201|44:158,1,90
285,43,63276,1,0,0:0:0:0:
285,43,63419,2,0,B|270:98|270:98|323:144|309:174|309:174|288:216,1,180
477,353,63848,2,0,L|477:233,1,90
387,0,64134,6,0,L|358:118,1,90
201,354,64419,1,0,0:0:0:0:
201,354,64562,2,0,B|226:306|226:306|240:276|187:230|187:230|200:184,1,180
22,25,64991,2,0,P|13:69|23:113,1,90
299,205,65276,6,0,P|292:117|218:70,1,180
37,224,65705,1,0,0:0:0:0:
251,302,65848,6,0,P|334:307|407:247,2,180
42,220,66562,1,0,0:0:0:0:
220,70,66705,6,0,P|293:118|299:205,2,180
42,220,67419,1,0,0:0:0:0:
251,302,67562,6,0,L|339:319,1,90
372,221,67848,2,0,L|476:215,1,90
512,90,68134,2,0,L|422:100,1,90
220,70,68419,1,0,0:0:0:0:
42,220,68562,6,0,L|70:322,1,90
251,302,68848,5,0,0:0:0:0:
144,124,68991,5,0,0:0:0:0:
372,221,69134,1,0,0:0:0:0:
129,255,69276,1,0,0:0:0:0:
220,70,69419,1,0,0:0:0:0:
277,42,69491,1,0,0:0:0:0:
340,46,69563,1,0,0:0:0:0:
379,94,69634,1,0,0:0:0:0:
413,145,69705,1,0,0:0:0:0:
442,201,69777,1,0,0:0:0:0:
468,257,69848,6,0,L|421:363,1,90
129,255,70134,1,0,0:0:0:0:
339,173,70276,2,0,L|366:279,1,90
67,324,70562,2,0,P|41:289|43:222,1,90
158,83,70848,1,0,0:0:0:0:
425,149,70991,6,0,L|314:179,1,90
129,255,71276,2,0,L|244:264,1,90
504,196,71562,2,0,P|517:158|495:92,1,90
158,83,71848,2,0,P|154:130|178:174,1,90
401,351,72134,6,0,L|496:340,1,90
427,151,72419,1,0,0:0:0:0:
162,262,72562,2,0,P|123:252|83:198,1,90
356,102,72848,2,0,P|396:116|428:153,1,90
208,333,73134,1,0,0:0:0:0:
308,30,73276,6,0,P|349:19|410:36,1,90
208,333,73562,2,0,P|164:345|122:332,1,90
356,102,73848,2,0,P|362:146|360:201,1,90
162,262,74134,2,0,P|156:213|157:160,1,90
448,205,74419,6,0,P|440:249|414:299,1,90
208,333,74705,1,0,0:0:0:0:
85,115,74848,2,0,P|129:87|185:89,1,90
287,299,75134,2,0,P|253:325|205:332,1,90
85,115,75419,1,0,0:0:0:0:
369,200,75562,6,0,P|393:284|383:325,1,90
85,115,75848,1,0,0:0:0:0:
387,99,75991,2,0,P|425:123|454:158,1,90
104,268,76277,2,0,P|70:238|57:196,1,90
369,200,76562,1,0,0:0:0:0:
128,361,76705,6,0,P|80:364|28:330,1,90
301,117,76991,2,0,P|340:99|412:107,1,90
420,361,77276,1,0,0:0:0:0:
57,196,77419,2,0,L|45:104,1,90
369,200,77705,6,0,L|378:304,1,90
45,106,77991,1,0,0:0:0:0:
334,324,78134,1,0,0:0:0:0:
88,64,78276,1,0,0:0:0:0:
287,354,78419,1,0,0:0:0:0:
132,40,78562,1,0,0:0:0:0:
234,378,78705,1,0,0:0:0:0:
226,315,78776,1,0,0:0:0:0:
225,251,78848,1,0,0:0:0:0:
221,187,78919,1,0,0:0:0:0:
212,124,78991,6,0,L|146:220,1,90
49,378,79276,1,0,0:0:0:0:
334,324,79419,2,0,P|347:277|344:205,1,90
257,42,79705,2,0,P|210:33|156:42,1,90
142,293,79991,1,0,0:0:0:0:
317,116,80134,6,0,P|340:74|343:15,1,90
34,95,80419,2,0,L|35:209,1,90
301,197,80705,2,0,P|349:195|387:174,1,90
34,184,80991,2,0,L|34:303,1,90
317,114,81276,6,0,L|316:21,1,90
89,56,81562,1,0,0:0:0:0:
219,237,81705,2,0,P|246:272|315:281,1,90
396,57,81991,2,0,P|358:31|298:25,1,90
79,90,82276,1,0,0:0:0:0:
298,202,82419,6,0,L|317:114,1,90
79,90,82705,2,0,L|54:185,1,90
281,367,82991,2,0,P|331:351|370:304,1,90
246,59,83276,2,0,L|225:147,1,90
448,345,83562,6,0,P|447:298|411:254,1,90
153,149,83848,1,0,0:0:0:0:
18,354,83991,2,0,L|213:341,1,180
488,197,84419,2,0,P|447:176|386:186,1,90
85,265,84705,6,0,L|197:259,1,90
377,116,84991,1,0,0:0:0:0:
156,80,85134,2,0,L|174:260,1,180
406,330,85562,6,0,P|476:287|486:192,2,180
255,128,86276,1,0,0:0:0:0:
24,195,86419,6,0,P|32:282|106:330,2,180
255,128,87134,1,0,0:0:0:0:
258,384,87276,2,0,L|256:205,1,180
360,45,87705,1,0,0:0:0:0:
167,41,87848,1,0,0:0:0:0:
401,233,87991,1,0,0:0:0:0:
116,233,88134,1,0,0:0:0:0:
256,192,88205,12,0,89705,0:0:0:0:
