osu file format v14

[General]
AudioFilename: audio.mp3
AudioLeadIn: 0
PreviewTime: 48562
Countdown: 0
SampleSet: Normal
StackLeniency: 0.7
Mode: 0
LetterboxInBreaks: 0
WidescreenStoryboard: 1

[Editor]
Bookmarks: 15919
DistanceSpacing: 1
BeatDivisor: 4
GridSize: 4
TimelineZoom: 1.6

[Metadata]
Title:-HIKARI-
TitleUnicode:光-HIKARI-
Artist:ViViD
ArtistUnicode:ViViD
Creator:M o c h a
Version:Easy
Source:マギ The kingdom of magic
Tags:magi season 2 op
BeatmapID:1504145
BeatmapSetID:711385

[Difficulty]
HPDrainRate:1
CircleSize:3
OverallDifficulty:1
ApproachRate:3
SliderMultiplier:0.7
SliderTickRate:1

[Events]
//Background and Video events
0,0,"cropped-1440-900-344713.jpg",0,0
//Break Periods
//Storyboard Layer 0 (Background)
//Storyboard Layer 1 (Fail)
//Storyboard Layer 2 (Pass)
//Storyboard Layer 3 (Foreground)
//Storyboard Sound Samples

[TimingPoints]
1276,285.714285714286,4,1,0,60,1,0
40134,-133.333333333333,4,1,0,60,0,0
49276,-100,4,1,0,60,0,1
65276,-100,4,1,0,60,0,0
69848,-100,4,1,0,60,0,1
85848,-100,4,1,0,60,0,0

[HitObjects]
56,68,1276,1,0,0:0:0:0:
152,112,2419,1,0,0:0:0:0:
240,52,3562,1,0,0:0:0:0:
328,112,4705,1,0,0:0:0:0:
376,164,5848,5,0,0:0:0:0:
428,216,6991,1,0,0:0:0:0:
470,278,8133,6,0,P|411:316|332:306,2,140
298,56,10419,2,0,P|228:39|154:56,2,140
343,311,12705,6,0,L|194:312,1,140
73,63,14419,1,0,0:0:0:0:
310,211,15562,2,0,P|333:279|298:349,2,140
38,142,17848,5,0,0:0:0:0:
207,364,18991,2,0,P|278:381|344:360,1,140
504,134,20705,1,0,0:0:0:0:
232,66,21848,6,0,L|86:67,2,140
447,245,24134,2,0,P|413:298|334:334,2,140
167,255,26419,6,0,P|133:200|151:121,1,140
417,197,28134,2,0,P|439:261|411:339,1,140
146,264,29848,2,0,L|0:264,1,140
231,98,31562,1,0,0:0:0:0:
18,280,32705,6,0,P|14:350|75:384,2,140
288,208,34991,2,0,L|431:207,2,140
51,57,37276,1,0,0:0:0:0:
330,49,38419,2,0,L|482:48,1,140
460,258,40134,5,0,0:0:0:0:
259,319,41276,1,0,0:0:0:0:
94,188,42419,2,0,P|61:146|52:91,2,105.000004005432
256,192,44705,12,0,48134,0:0:0:0:
424,104,49276,5,0,0:0:0:0:
272,339,50419,1,0,0:0:0:0:
39,183,51562,2,0,P|26:113|72:51,1,140
341,55,53276,1,0,0:0:0:0:
416,324,54419,6,0,P|362:355|304:311,1,140
125,98,56134,2,0,B|85:86|85:86|62:46|62:46|13:29,2,140
385,201,58419,5,0,0:0:0:0:
105,219,59562,2,0,P|78:281|127:342,1,140
352,187,61276,2,0,L|353:47,1,140
35,97,62991,1,0,0:0:0:0:
167,343,64134,1,0,0:0:0:0:
386,169,65276,6,0,L|442:35,6,140
106,189,69848,6,0,L|139:332,1,140
415,356,71562,2,0,L|378:220,1,140
157,48,73276,5,0,0:0:0:0:
70,314,74419,1,0,0:0:0:0:
349,292,75562,1,0,0:0:0:0:
487,63,76705,2,0,P|424:21|356:38,2,140
227,169,78991,6,0,P|162:185|88:151,1,140
368,93,80705,2,0,P|392:158|365:231,1,140
117,341,82419,1,0,0:0:0:0:
112,61,83562,1,0,0:0:0:0:
350,207,84705,1,0,0:0:0:0:
70,199,85848,6,0,L|222:200,6,140
