osu file format v14

[General]
AudioFilename: audio.mp3
AudioLeadIn: 0
PreviewTime: 98206
Countdown: 0
SampleSet: Soft
StackLeniency: 0.7
Mode: 0
LetterboxInBreaks: 0
WidescreenStoryboard: 1

[Editor]
Bookmarks: 36758,65273,86659,113392,145471,173986,198936,222698,248539,280619,294876,308836,308985,311510
DistanceSpacing: 1.15
BeatDivisor: 4
GridSize: 16
TimelineZoom: 2.599999

[Metadata]
Title:Scutellaria
TitleUnicode:Scutellaria
Artist:ViANKiE
ArtistUnicode:ViANKiE
Creator:Lasse
Version:Collab Petal
Source:
Tags:impurepug hishiro chizuru amb1d3x collab japanese pop folk utaite cover 西坂 恭平 nishizaka kyohei kyouhei 鍵倉 秋の匂い 紫のあ いつか花になって スカトル scuttle crab
BeatmapID:2760474
BeatmapSetID:1332323

[Difficulty]
HPDrainRate:5.4
CircleSize:4.1
OverallDifficulty:8.3
ApproachRate:9.2
SliderMultiplier:1.8
SliderTickRate:1

[Events]
//Background and Video events
0,0,"aa.jpg",0,0
//Break Periods
2,138542,144307
//Storyboard Layer 0 (Background)
//Storyboard Layer 1 (Fail)
//Storyboard Layer 2 (Pass)
//Storyboard Layer 3 (Foreground)
//Storyboard Layer 4 (Overlay)
//Storyboard Sound Samples

[TimingPoints]
-2226,400,3,2,1,20,1,0
2574,-333.333333333333,3,2,1,20,0,0
7374,-250.000000000001,4,2,2,35,0,0
10574,-250.000000000001,4,2,2,15,0,0
11374,-250.000000000001,4,2,2,35,0,0
12374,-250.000000000001,4,2,2,15,0,0
12774,-250.000000000001,4,2,2,35,0,0
14774,-250.000000000001,4,2,2,15,0,0
15174,-250.000000000001,4,2,2,35,0,0
17174,-250.000000000001,4,2,2,15,0,0
17974,-250.000000000001,4,2,2,35,0,0
19374,521.172638436482,3,2,1,20,1,0
19374,-111.111111111111,4,2,1,35,0,0
22501,297.029702970297,6,2,2,45,1,0
22501,-125,6,2,2,45,0,0
22649,-125,6,2,1,45,0,0
26065,-125,6,2,2,45,0,0
26362,-125,6,2,1,45,0,0
27550,-100,6,2,1,45,0,0
27847,-111.111111111111,6,2,2,45,0,0
28293,-125,6,2,1,45,0,0
29629,-111.111111111111,6,2,1,55,0,0
31411,-111.111111111111,6,2,2,55,0,0
31708,-111.111111111111,6,2,1,55,0,0
33194,-111.111111111111,6,2,2,55,0,0
33491,-111.111111111111,6,2,1,55,0,0
34976,-111.111111111111,6,2,2,55,0,0
35273,-111.111111111111,6,2,1,55,0,0
36609,-90.9090909090909,6,2,1,70,0,0
37946,-90.9090909090909,6,2,34,70,0,0
38095,-90.9090909090909,6,2,1,70,0,0
41510,-90.9090909090909,6,2,34,70,0,0
41659,-90.9090909090909,6,2,1,70,0,0
42996,-90.9090909090909,6,2,34,70,0,0
43145,-90.9090909090909,6,2,1,70,0,0
45075,-90.9090909090909,6,2,34,70,0,0
45224,-90.9090909090909,6,2,1,70,0,0
47451,-133.333333333333,6,2,1,70,0,0
49233,-111.111111111111,6,2,34,70,0,0
49382,-111.111111111111,6,2,1,70,0,0
50124,-83.3333333333333,6,2,1,70,0,0
50421,-100,6,2,1,70,0,0
50718,-125,6,2,1,70,0,0
51015,-200,6,2,1,30,0,0
62600,-166.666666666667,6,2,1,30,0,0
62897,-142.857142857143,6,2,1,30,0,0
63194,-125,6,2,1,30,0,0
63491,-133.333333333333,6,2,1,30,0,0
64382,-133.333333333333,6,2,1,40,0,0
65124,-133.333333333333,6,2,1,50,0,0
65273,-90.9090909090909,6,2,1,50,0,0
65867,-100,6,2,1,50,0,0
66609,-125,6,2,1,50,0,0
68540,-125,6,2,2,50,0,0
68837,-100,6,2,1,50,0,0
70174,-125,6,2,1,50,0,0
70619,-100,6,2,1,50,0,0
71659,-111.111111111111,6,2,1,50,0,0
72104,-111.111111111111,6,2,2,50,0,0
72401,-100,6,2,1,50,0,0
73293,-111.111111111111,6,2,1,50,0,0
74184,-100,6,2,2,50,0,0
74481,-100,6,2,1,50,0,0
75966,-133.333333333333,6,2,1,50,0,0
76857,-117.647058823529,6,2,1,50,0,0
77748,-100,6,2,2,50,0,0
78045,-100,6,2,1,50,0,0
79530,-200,6,2,2,50,0,0
79827,-200,6,2,1,40,0,0
81312,-200,6,2,2,40,0,0
81609,-200,6,2,1,40,0,0
84877,-200,6,2,2,40,0,0
85174,-200,6,2,1,40,0,0
86362,-133.333333333333,6,2,1,40,0,0
86659,-100,6,2,1,50,0,0
88441,-100,6,2,2,50,0,0
88738,-100,6,2,1,50,0,0
90223,-250,6,2,2,25,0,0
90520,-250,6,2,1,30,0,0
93788,-100,6,2,1,60,0,0
94679,-100,6,2,2,60,0,0
94827,-100,6,2,1,60,0,0
95273,-100,6,2,34,60,0,0
95422,-100,6,2,1,60,0,0
98243,-100,6,2,2,40,0,0
99134,-83.3333333333333,6,2,1,70,0,1
99728,-83.3333333333333,6,2,1,50,0,1
99877,-83.3333333333333,6,2,1,70,0,1
102699,-83.3333333333333,6,2,34,70,0,1
102996,-83.3333333333333,6,2,1,70,0,1
104481,-83.3333333333333,6,2,34,70,0,1
104778,-83.3333333333333,6,2,1,70,0,1
109530,-83.3333333333333,6,2,34,70,0,1
109679,-83.3333333333333,6,2,1,70,0,1
109827,-83.3333333333333,6,2,34,70,0,1
110124,-83.3333333333333,6,2,1,70,0,1
112055,-83.3333333333333,6,2,34,70,0,1
112203,-83.3333333333333,6,2,1,70,0,1
113392,-83.3333333333333,6,2,1,70,0,1
113986,-83.3333333333333,6,2,1,50,0,1
114135,-83.3333333333333,6,2,1,70,0,1
116659,-83.3333333333333,6,2,34,70,0,1
116956,-83.3333333333333,6,2,1,70,0,1
117847,-83.3333333333333,6,2,2,70,0,1
117996,-83.3333333333333,6,2,1,70,0,1
119629,-83.3333333333333,6,2,34,70,0,1
119777,-83.3333333333333,6,2,1,70,0,1
120520,-100,6,2,1,70,0,1
123194,-117.647058823529,6,2,1,70,0,1
123639,-100,6,2,1,70,0,1
124085,-90.9090909090909,6,2,1,70,0,1
124530,-100,6,2,1,70,0,1
125867,-90.9090909090909,6,2,2,70,0,1
126164,-90.9090909090909,6,2,1,70,0,1
127946,-125,6,2,1,70,0,1
128243,-100,6,2,1,70,0,1
128540,-125,6,2,1,70,0,1
129877,-83.3333333333333,6,2,34,70,0,1
130025,-83.3333333333333,6,2,1,70,0,1
130322,-125,6,2,2,70,0,1
130397,-125,6,2,1,70,0,1
131213,-100,6,2,1,70,0,0
134778,-100,6,2,34,70,0,0
135075,-100,6,2,1,70,0,0
138342,-100,6,2,1,50,0,0
145471,-111.111111111111,6,2,1,55,0,0
152600,-90.9090909090909,6,2,1,50,0,0
153194,-100,6,2,1,50,0,0
153936,-125,6,2,1,50,0,0
155867,-125,6,2,2,50,0,0
156164,-100,6,2,2,50,0,0
156461,-100,6,2,1,50,0,0
157501,-125,6,2,1,50,0,0
157798,-125,6,2,1,45,0,0
157946,-100,6,2,1,50,0,0
158986,-111.111111111111,6,2,1,50,0,0
159134,-111.111111111111,6,2,1,40,0,0
159283,-111.111111111111,6,2,1,50,0,0
159431,-111.111111111111,6,2,1,45,0,0
159728,-100,6,2,1,50,0,0
160619,-111.111111111111,6,2,1,50,0,0
161510,-100,6,2,2,50,0,0
161807,-100,6,2,1,50,0,0
163293,-133.333333333333,6,2,1,50,0,0
164184,-117.647058823529,6,2,1,50,0,0
165075,-100,6,2,2,50,0,0
165372,-100,6,2,1,50,0,0
166263,-100,6,2,34,50,0,0
166411,-100,6,2,1,50,0,0
166857,-200,6,2,2,50,0,0
167154,-200,6,2,1,40,0,0
168639,-200,6,2,2,40,0,0
168936,-200,6,2,1,40,0,0
170421,-200,6,2,2,40,0,0
170570,-200,6,2,1,40,0,0
172204,-200,6,2,2,40,0,0
172501,-200,6,2,1,40,0,0
173689,-133.333333333333,6,2,1,40,0,0
173986,-100,6,2,1,50,0,0
175768,-100,6,2,2,50,0,0
176065,-100,6,2,1,50,0,0
177550,-250,6,2,2,25,0,0
177847,-250,6,2,1,30,0,0
178441,-285.714285714286,6,2,1,30,0,0
179332,-333.333333333333,6,2,1,30,0,0
180223,-400,6,2,1,30,0,0
181114,-100,6,2,1,60,0,0
183342,-100,6,2,34,60,0,0
183491,-100,6,2,1,60,0,0
183788,-83.3333333333333,6,2,1,60,0,0
184679,-83.3333333333333,6,2,1,70,0,1
185273,-83.3333333333333,6,2,1,50,0,1
185421,-83.3333333333333,6,2,1,70,0,1
187946,-76.9230769230769,6,2,1,70,0,1
188243,-83.3333333333333,6,2,34,70,0,1
188540,-83.3333333333333,6,2,1,70,0,1
190025,-76.9230769230769,6,2,34,70,0,1
190322,-76.9230769230769,6,2,1,70,0,1
190916,-83.3333333333333,6,2,1,70,0,1
195075,-83.3333333333333,6,2,34,70,0,1
195223,-83.3333333333333,6,2,1,70,0,1
195372,-83.3333333333333,6,2,34,70,0,1
195520,-83.3333333333333,6,2,1,70,0,1
197600,-83.3333333333333,6,2,34,70,0,1
197748,-83.3333333333333,6,2,1,70,0,1
198936,-83.3333333333333,6,2,1,70,0,1
202203,-100,6,2,34,70,0,1
202501,-71.4285714285714,6,2,1,70,0,1
202798,-83.3333333333333,6,2,1,70,0,1
203392,-83.3333333333333,6,2,2,70,0,1
203540,-83.3333333333333,6,2,1,70,0,1
204283,-71.4285714285714,6,2,1,70,0,1
204728,-83.3333333333333,6,2,1,70,0,1
205174,-83.3333333333333,6,2,34,70,0,1
205322,-83.3333333333333,6,2,1,70,0,1
206065,-100,6,2,1,70,0,1
208738,-117.647058823529,6,2,1,70,0,1
209184,-100,6,2,1,70,0,1
209629,-90.9090909090909,6,2,1,70,0,1
210075,-100,6,2,1,70,0,1
211411,-90.9090909090909,6,2,2,70,0,1
211708,-90.9090909090909,6,2,1,70,0,1
213788,-100,6,2,1,70,0,1
215421,-100,6,2,34,70,0,1
215570,-100,6,2,1,70,0,1
215867,-125,6,2,2,70,0,1
215941,-125,6,2,1,70,0,1
216758,297.029702970297,5,2,1,70,1,0
216758,-90.9090909090909,5,2,1,70,0,0
218243,-90.9090909090909,5,2,2,70,0,0
218317,-90.9090909090909,5,2,1,70,0,0
221213,-90.9090909090909,5,2,2,70,0,0
221287,-90.9090909090909,5,2,1,70,0,0
222698,-83.3333333333333,5,2,1,70,0,0
224183,-83.3333333333333,5,2,2,70,0,0
224258,-83.3333333333333,5,2,1,70,0,0
225668,-90.9090909090909,5,2,1,70,0,0
227154,297.029702970297,6,2,1,70,1,0
227154,-90.9090909090909,5,2,2,70,0,0
227228,-90.9090909090909,5,2,1,70,0,0
227599,-71.4285714285714,5,2,1,70,0,0
228045,-71.4285714285714,5,2,34,70,0,0
228193,-71.4285714285714,5,2,1,70,0,0
228936,297.029702970297,6,2,1,70,1,0
228936,-100,6,2,1,70,0,0
229827,-600.000000000024,6,2,1,40,0,0
229975,-600.000000000024,6,2,1,10,0,0
230272,-600.000000000024,6,2,1,40,0,0
230718,-600.000000000024,6,2,2,40,0,0
230866,-600.000000000024,6,2,1,10,0,0
231906,-400,6,2,1,40,0,0
232500,-250,6,2,2,40,0,0
232574,-600.000000000024,6,2,1,10,0,0
232945,-250,6,2,2,40,0,0
234431,-333.333333333333,6,2,1,40,0,0
235470,-166.666666666667,6,2,1,40,0,0
236064,-100,6,2,1,50,0,0
237846,-100,6,2,2,50,0,0
238143,-100,6,2,1,50,0,0
238737,-83.3333333333333,6,2,1,50,0,0
239628,-100,6,2,2,25,0,0
239629,-250,6,2,2,30,0,0
240223,-285.714285714286,6,2,1,30,0,0
241114,-333.333333333333,6,2,1,30,0,0
242005,-400,6,2,1,30,0,0
243193,-100,6,2,1,60,0,0
244084,-100,6,2,2,60,0,0
244232,-100,6,2,1,60,0,0
244678,-100,6,2,34,60,0,0
244827,-100,6,2,1,60,0,0
244975,-312.5,6,2,2,30,0,0
245124,-312.5,6,2,2,20,0,0
246757,-312.5,6,2,2,15,0,0
248539,-100,6,2,1,30,0,0
250322,-100,6,2,2,30,0,0
255668,-166.666666666667,6,2,1,40,0,0
256114,-133.333333333333,6,2,1,40,0,0
256559,-166.666666666667,6,2,1,40,0,0
257153,-133.333333333333,6,2,1,40,0,0
257450,-166.666666666667,6,2,1,40,0,0
257896,-133.333333333333,6,2,1,40,0,0
258341,-142.857142857143,6,2,1,40,0,0
259233,-111.111111111111,6,2,1,50,0,0
259455,-111.111111111111,6,2,1,25,0,0
259530,-111.111111111111,6,2,1,50,0,0
259752,-111.111111111111,6,2,1,25,0,0
259827,-111.111111111111,6,2,1,50,0,0
260049,-111.111111111111,6,2,1,25,0,0
260124,-100,6,2,34,54,0,0
260346,-111.111111111111,6,2,1,25,0,0
260421,-100,6,2,1,54,0,0
260643,-111.111111111111,6,2,1,25,0,0
260718,-100,6,2,1,54,0,0
260866,-90.9090909090909,6,2,1,57,0,0
261312,-90.9090909090909,6,2,1,60,0,0
261609,-83.3333333333333,6,2,1,65,0,0
262797,-76.9230769230769,6,2,1,70,0,1
263391,-76.9230769230769,6,2,1,50,0,1
263539,-76.9230769230769,6,2,1,70,0,1
264282,-90.9090909090909,6,2,1,70,0,1
264579,-76.9230769230769,6,2,1,70,0,1
266064,-100,6,2,34,70,0,1
266361,-66.6666666666667,6,2,1,70,0,1
266659,-76.9230769230769,6,2,1,70,0,1
267252,-76.9230769230769,6,2,2,70,0,1
267401,-83.3333333333333,6,2,1,70,0,1
268143,-66.6666666666667,6,2,1,70,0,1
268589,-76.9230769230769,6,2,1,70,0,1
269035,-76.9230769230769,6,2,34,70,0,1
269183,-76.9230769230769,6,2,1,70,0,1
269926,-100,6,2,1,70,0,1
272599,-117.647058823529,6,2,1,70,0,1
273044,-100,6,2,1,70,0,1
273490,-83.3333333333333,6,2,1,70,0,1
273936,-100,6,2,1,70,0,1
275272,-83.3333333333333,6,2,2,70,0,1
275569,-83.3333333333333,6,2,1,70,0,1
277054,-83.3333333333333,6,2,1,70,0,1
277351,-100,6,2,1,70,0,1
277648,-90.9090909090909,6,2,1,70,0,1
277945,-111.111111111111,6,2,1,70,0,1
279282,-111.111111111111,6,2,34,70,0,1
279431,-111.111111111111,6,2,1,70,0,1
279728,-125,6,2,2,70,0,1
279802,-125,6,2,1,70,0,1
280619,-90.9090909090909,6,2,1,70,0,0
281807,-90.9090909090909,6,2,34,70,0,0
282104,-90.9090909090909,6,2,1,70,0,0
285371,-90.9090909090909,6,2,34,70,0,0
285520,-90.9090909090909,6,2,1,70,0,0
285965,-83.3333333333333,6,2,1,70,0,0
286411,-90.9090909090909,6,2,1,70,0,0
288936,-90.9090909090909,6,2,34,70,0,0
289233,-90.9090909090909,6,2,1,70,0,0
291015,-83.3333333333333,6,2,1,70,0,0
292500,-83.3333333333333,6,2,34,70,0,0
292649,-83.3333333333333,6,2,1,70,0,0
293985,-83.3333333333333,6,2,34,55,0,0
294282,-83.3333333333333,6,2,1,70,0,0
294876,-166.666666666667,6,2,35,50,0,0
295173,-166.666666666667,6,2,34,45,0,0
302005,-133.333333333333,6,2,35,48,0,0
302079,-133.333333333333,6,2,34,48,0,0
308836,-133.333333333333,6,2,35,44,0,0
308985,-250,6,2,35,40,0,0
309059,-285.714285714286,6,2,34,5,0,0
311510,-333.333333333333,6,2,99,5,0,0

[Colours]
Combo1 : 200,200,170
Combo2 : 215,220,135
Combo3 : 255,230,160
Combo4 : 220,220,220
Combo5 : 230,220,170
Combo6 : 195,210,170
Combo7 : 255,200,145
Combo8 : 180,180,180

[HitObjects]
0,192,2174,37,0,0:0:0:0:
66,140,2574,2,0,P|57:108|44:93,1,53.9999983520508,2|0,0:0|0:0,0:0:0:0:
44,93,3374,53,0,0:0:0:0:
17,160,3574,1,0,0:0:0:0:
60,221,3774,2,0,P|76:249|93:260,1,53.9999983520508,2|0,0:0|0:0,0:0:0:0:
93,260,4574,53,0,0:0:0:0:
154,211,4974,2,0,L|207:185,1,53.9999983520508,2|0,0:0|0:0,0:0:0:0:
210,195,5574,1,2,0:0:0:0:
276,296,5974,1,0,0:0:0:0:
283,306,6174,2,0,L|273:368,2,53.9999983520508,2|0|0,0:0|0:0|0:0,0:0:0:0:
467,71,7374,54,0,P|440:29|398:30,1,71.9999978027344,2|0,0:0|0:0,0:0:0:0:
408,34,8574,54,0,P|359:46|347:86,1,71.9999978027344,2|0,0:0|0:0,0:0:0:0:
354,78,9774,54,0,P|351:127|385:151,1,71.9999978027344,2|0,0:0|0:0,0:0:0:0:
363,142,10374,2,0,P|320:64|206:59,1,179.999994506836,2|0,0:0|0:0,0:0:0:0:
55,174,11774,54,0,L|15:183,1,35.9999989013672
20,175,12174,2,0,L|128:198,1,107.999996704102,2|0,0:0|0:0,0:0:0:0:
195,216,12974,1,0,0:0:0:0:
199,228,13174,1,0,0:0:0:0:
204,242,13374,1,2,0:0:0:0:
306,355,14174,53,0,0:0:0:0:
320,284,14374,1,0,0:0:0:0:
382,247,14574,2,0,P|432:245|486:292,1,107.999996704102,2|0,0:0|0:0,0:0:0:0:
477,277,15374,2,0,P|470:248|472:232,1,35.9999989013672,2|0,0:0|0:0,0:0:0:0:
488,172,15774,1,2,0:0:0:0:
491,167,15974,1,0,0:0:0:0:
494,162,16174,1,0,0:0:0:0:
337,105,16774,53,0,0:0:0:0:
352,117,16974,2,0,P|410:118|425:8,1,179.999994506836,2|0,0:0|0:0,0:0:0:0:
433,16,18174,2,0,P|418:64|421:119,2,71.9999978027344,2|0|0,0:0|0:0|0:0,0:0:0:0:
449,8,19374,53,2,0:0:0:0:
465,24,20676,53,2,0:0:0:0:
256,192,20937,12,0,22327,0:0:0:0:
133,356,22501,69,4,0:3:0:0:
133,356,22649,2,0,P|83:352|47:257,1,144,0|2,3:0|0:3,0:0:0:0:
89,208,23095,2,0,P|115:172|108:116,1,72,0|0,3:0|0:0,0:0:0:0:
46,63,23392,2,0,P|46:122|142:126,1,144,2|2,0:0|0:3,0:0:0:0:
170,85,23837,1,2,0:0:0:0:
204,247,23986,2,0,L|219:324,1,72,0|0,3:0|0:0,0:0:0:0:
328,210,24283,54,0,B|279:202|279:202|252:167|252:167|196:158,1,144,2|0,0:0|3:0,0:0:0:0:
198,165,24728,1,2,0:3:0:0:
333,123,24877,2,0,P|376:110|416:84,1,72,0|0,3:0|0:0,0:0:0:0:
432,224,25174,1,2,0:3:0:0:
448,294,25322,1,2,0:0:0:0:
465,364,25471,2,0,L|503:281,1,72,0|0,3:0|0:0,0:0:0:0:
450,160,25768,2,0,L|420:225,1,72,0|0,3:0|0:0,0:0:0:0:
347,365,26065,54,0,P|283:316|207:316,1,144,8|0,0:3|0:0,0:0:0:0:
126,355,26510,1,2,0:3:0:0:
221,326,26659,2,0,P|227:281|199:251,1,72,0|0,3:0|0:0,0:0:0:0:
29,156,26956,1,2,0:0:0:0:
0,229,27104,1,2,0:3:0:0:
70,263,27253,2,0,L|151:233,1,72,0|0,3:0|0:0,0:0:0:0:
312,224,27550,2,0,B|272:202|272:202|295:115,1,135,2|0,0:3|0:0,0:0:0:0:
305,124,27847,54,0,P|274:146|207:68,1,161.999995056153,4|0,0:0|0:0,0:0:0:0:
260,16,28293,1,0,3:0:0:0:
116,71,28441,2,0,L|39:100,1,72,2|0,0:0|0:0,0:0:0:0:
272,10,28738,54,0,B|306:-3|306:-3|373:12|382:72,1,144,4|0,0:0|3:0,0:0:0:0:
426,199,29184,1,2,0:0:0:0:
497,73,29332,2,0,P|458:99|451:148,1,72,2|0,0:3|0:0,0:0:0:0:
405,278,29629,54,0,P|481:264|505:178,1,161.999995056153,4|0,0:1|3:0,0:0:0:0:
495,350,30075,1,2,0:0:0:0:
426,199,30223,2,0,P|384:175|338:186,1,80.9999975280763,2|0,0:3|0:0,0:0:0:0:
222,304,30520,1,0,3:0:0:0:
159,353,30669,1,2,0:0:0:0:
80,348,30817,2,0,P|47:310|50:251,1,80.9999975280763,2|0,0:3|0:0,0:0:0:0:
217,227,31114,2,0,P|230:275|202:327,1,80.9999975280763,2|0,0:0|0:0,0:0:0:0:
160,162,31411,54,0,B|186:139|186:139|264:120|303:200,1,161.999995056153,8|2,0:3|0:0,0:0:0:0:
315,266,31857,1,2,0:3:0:0:
309,120,32005,2,0,P|277:143|278:183,1,80.9999975280763,0|0,3:0|0:0,0:0:0:0:
153,274,32302,2,0,B|61:265|115:200|12:200,1,161.999995056153,2|0,0:0|0:0,0:0:0:0:
17,280,32748,1,0,3:0:0:0:
157,193,32897,2,0,P|178:146|150:113,1,80.9999975280763,2|2,0:3|0:3,0:0:0:0:
51,41,33194,54,0,L|15:215,1,161.999995056153,4|2,0:0|0:0,0:0:0:0:
86,234,33639,1,0,3:0:0:0:
157,193,33788,2,0,P|187:182|246:185,1,80.9999975280763,2|0,0:3|0:0,0:0:0:0:
417,348,34085,1,2,0:3:0:0:
343,372,34233,1,0,3:0:0:0:
282,323,34382,2,0,P|289:257|319:226,1,80.9999975280763,2|0,0:0|3:0,0:0:0:0:
492,216,34679,2,0,B|510:247|510:247|448:227,1,80.9999975280763,2|0,0:0|0:0,0:0:0:0:
370,102,34976,54,0,P|334:35|241:21,1,161.999995056153,8|2,0:3|0:0,0:0:0:0:
379,192,35421,1,2,0:3:0:0:
255,16,35570,2,0,L|222:104,1,80.9999975280763,0|8,3:0|0:0,0:0:0:0:
237,135,35793,1,8,0:0:0:0:
249,177,35867,53,0,1:0:0:0:
137,36,36015,1,0,1:0:0:0:
158,303,36164,53,0,1:0:0:0:
147,130,36312,1,8,0:3:0:0:
25,370,36461,85,4,0:3:0:0:
99,224,36609,1,0,3:0:0:0:
97,215,36684,1,0,3:0:0:0:
95,206,36758,2,0,P|65:276|161:300,1,198.000006042481,12|2,0:1|0:0,0:0:0:0:
274,132,37203,53,0,1:2:0:0:
271,221,37352,1,0,0:1:0:0:
346,268,37501,1,8,0:1:0:0:
488,130,37649,2,0,P|518:200|422:224,1,198.000006042481,10|12,0:1|0:0,0:0:0:0:
271,43,38095,53,2,0:0:0:0:
274,132,38243,1,0,3:0:0:0:
199,179,38392,1,0,1:0:0:0:
193,2,38540,53,12,2:1:0:0:
274,132,38689,1,0,0:0:0:0:
120,137,38837,1,0,0:0:0:0:
227,208,38986,53,0,1:0:0:0:
227,208,39060,1,0,3:0:0:0:
227,208,39134,2,0,P|257:262|250:312,1,99.0000030212403,2|8,0:0|0:1,0:0:0:0:
35,160,39431,2,0,P|36:111|63:70,1,99.0000030212403,0|8,1:0|0:1,0:0:0:0:
175,268,39728,2,0,P|173:316|146:357,1,99.0000030212403,2|0,0:0|1:0,0:0:0:0:
227,208,40025,53,2,0:0:0:0:
91,296,40174,1,8,0:1:0:0:
236,382,40322,2,0,P|357:369|444:373,1,198.000006042481,12|0,0:1|0:0,0:0:0:0:
329,227,40768,53,0,1:0:0:0:
420,190,40916,1,2,0:0:0:0:
341,129,41065,1,8,0:1:0:0:
230,248,41213,2,0,P|131:250|32:237,1,198.000006042481,0|12,1:0|0:0,0:0:0:0:
216,104,41659,53,2,0:0:0:0:
125,67,41807,1,0,3:0:0:0:
204,6,41956,1,0,1:0:0:0:
315,125,42104,2,0,P|413:127|512:114,1,198.000006042481,12|2,0:1|0:0,0:0:0:0:
290,236,42550,53,0,1:0:0:0:
398,224,42699,1,0,3:0:0:0:
477,297,42847,1,8,0:1:0:0:
318,363,42996,2,0,L|210:344,1,99.0000030212403,4|8,1:2|0:1,0:0:0:0:
73,374,43293,53,0,1:0:0:0:
73,374,43367,1,0,1:0:0:0:
73,374,43441,1,0,1:0:0:0:
195,240,43590,1,4,0:3:0:0:
25,157,43738,1,0,1:0:0:0:
31,271,43887,2,0,B|52:326|106:322|106:322|135:278|99:231,1,198.000006042481,12|0,0:1|0:0,0:0:0:0:
338,28,44332,53,0,1:0:0:0:
292,127,44481,1,2,0:0:0:0:
357,213,44629,1,8,0:1:0:0:
512,104,44778,2,0,B|490:159|436:155|436:155|407:111|443:64,1,198.000006042481,0|12,1:0|0:0,0:0:0:0:
171,177,45223,53,2,0:0:0:0:
244,281,45372,1,0,3:0:0:0:
363,236,45520,1,0,1:0:0:0:
299,362,45669,53,12,0:1:0:0:
148,316,45817,1,2,0:0:0:0:
282,146,45966,1,0,3:0:0:0:
370,243,46114,53,0,1:0:0:0:
370,243,46189,1,0,3:0:0:0:
370,243,46263,2,0,B|394:260|411:263|411:263|446:254|466:206,1,99.0000030212403,2|0,0:0|1:0,0:0:0:0:
512,100,46560,53,8,0:3:0:0:
385,136,46708,1,0,1:0:0:0:
340,34,46857,53,0,1:0:0:0:
241,5,47005,1,8,0:1:0:0:
179,95,47154,53,4,0:3:0:0:
91,104,47302,53,0,1:0:0:0:
44,172,47451,38,0,B|-5:267|53:266|42:342|42:342|78:311|58:245,1,270.000010299683,12|0,0:1|0:0,0:0:0:0:
60,255,48194,1,8,0:1:0:0:
131,352,48342,54,0,B|166:379|166:379|231:365|225:290,1,135.000005149842,0|8,1:0|0:1,0:0:0:0:
205,246,48788,1,0,1:0:0:0:
285,133,48936,53,0,3:0:0:0:
357,96,49085,1,8,0:1:0:0:
434,118,49233,2,0,B|484:142|496:194|496:194|467:206|438:248,1,161.999995056153,12|0,0:0|0:0,0:0:0:0:
405,296,49679,1,0,1:0:0:0:
435,367,49827,2,0,P|473:380|528:361,1,80.9999975280763,2|8,0:0|0:1,0:0:0:0:
349,180,50124,102,0,P|333:126|275:85,1,107.999996704102,12|8,0:1|0:1,0:0:0:0:
247,176,50421,54,0,P|198:158|144:169,1,90,0|8,1:0|0:1,0:0:0:0:
190,249,50718,54,0,P|150:285|146:331,1,72,4|8,0:3|0:1,0:0:0:0:
217,368,51015,102,0,P|262:358|325:357,1,90,2|0,0:0|0:0,0:0:0:0:
145,300,51609,2,0,P|121:295|90:283,1,45,0|0,0:0|3:0,0:0:0:0:
42,244,51906,2,0,B|13:194|52:135|52:135|55:147|65:166,1,135,8|0,0:0|0:0,0:0:0:0:
124,188,52501,2,0,P|156:187|185:173,1,45,2|0,0:0|0:0,0:0:0:0:
241,114,52798,54,0,B|228:92|228:92|220:65|246:16,1,90,0|0,3:0|0:0,0:0:0:0:
306,68,53243,2,0,P|326:46|396:41,1,90,2|0,0:0|3:0,0:0:0:0:
459,63,53689,53,8,0:0:0:0:
444,171,53986,53,8,0:0:0:0:
429,279,54283,53,8,0:0:0:0:
427,292,54431,1,0,0:0:0:0:
425,305,54580,2,0,B|405:318|385:322|385:322|363:312|339:290,1,90,2|0,3:2|0:0,0:0:0:0:
209,178,55174,53,2,0:0:0:0:
211,191,55322,1,0,3:0:0:0:
213,204,55471,2,0,B|233:217|253:221|253:221|275:211|299:189,1,90,8|0,0:0|0:0,0:0:0:0:
199,51,56065,54,0,L|141:42,1,45,2|0,0:0|0:0,0:0:0:0:
81,62,56362,2,0,P|61:91|59:155,1,90,0|0,3:0|0:0,0:0:0:0:
74,220,56807,2,0,P|54:249|52:313,1,90,2|0,0:0|3:0,0:0:0:0:
81,375,57253,53,8,0:0:0:0:
230,343,57550,53,8,0:0:0:0:
379,311,57847,54,0,L|397:373,1,45,8|0,0:0|0:0,0:0:0:0:
391,354,58144,1,8,0:0:0:0:
460,295,58293,2,0,P|474:253|463:210,1,90,2|2,0:3|0:3,0:0:0:0:
411,157,58738,2,0,L|350:165,1,45,0|2,3:0|0:3,0:0:0:0:
299,126,59035,2,0,P|288:82|302:40,1,90,8|0,0:0|3:0,0:0:0:0:
302,40,59481,1,2,0:3:0:0:
216,90,59629,53,8,0:0:0:0:
144,88,59778,1,0,3:0:0:0:
76,60,59926,2,0,B|57:68|46:76|46:76|33:94|38:148,1,90,8|0,0:0|0:0,0:0:0:0:
92,212,60372,53,0,3:0:0:0:
166,240,60520,2,0,P|186:236|210:224,1,45,2|2,0:3|0:0,0:0:0:0:
92,212,60817,2,0,P|72:216|48:228,1,45,8|2,0:0|0:0,0:0:0:0:
208,225,61114,2,0,P|223:211|238:189,1,45,0|2,3:0|0:3,0:0:0:0:
49,226,61411,2,0,P|32:241|19:259,1,45,8|0,0:0|3:0,0:0:0:0:
96,371,61708,54,0,P|154:360|197:356,1,90,8|0,0:0|3:0,0:0:0:0:
259,375,62154,1,2,0:3:0:0:
238,301,62302,1,0,0:0:0:0:
160,109,62600,54,0,P|167:77|183:55,1,53.9999983520508,8|0,0:0|0:0,0:0:0:0:
263,31,62897,54,0,P|294:21|324:24,1,62.9999980773926,2|0,0:3|0:0,0:0:0:0:
396,76,63194,54,0,P|420:98|436:138,1,72,2|0,0:0|0:0,0:0:0:0:
484,206,63491,54,0,B|502:252|484:299|484:299|465:298|425:318,1,135.000005149842,8|0,0:0|3:0,0:0:0:0:
445,308,63936,1,2,0:0:0:0:
394,379,64085,53,0,3:0:0:0:
363,265,64233,1,8,3:2:0:0:
363,265,64307,1,8,3:2:0:0:
363,265,64382,1,0,1:0:0:0:
294,342,64530,1,0,1:0:0:0:
449,312,64679,1,0,1:0:0:0:
363,265,64827,53,8,0:3:0:0:
321,162,64976,53,4,0:3:0:0:
360,59,65124,53,0,1:0:0:0:
492,192,65273,6,0,B|506:204|512:225|512:225|549:190|522:115|459:109,1,198.000006042481,12|0,0:1|0:0,0:0:0:0:
372,54,65718,1,8,0:1:0:0:
328,177,65867,2,0,P|281:206|217:189,1,90,2|0,0:0|3:0,0:0:0:0:
177,258,66164,2,0,P|115:216|138:110,1,180,8|2,0:0|0:0,0:0:0:0:
187,197,66609,2,0,P|191:246|170:260,1,72,0|8,3:0|0:0,0:0:0:0:
74,320,66906,1,2,0:0:0:0:
139,362,67055,54,0,P|112:300|97:194,1,144,8|0,0:1|0:1,0:0:0:0:
47,33,67501,1,8,0:1:0:0:
41,108,67649,1,2,0:0:0:0:
111,138,67798,1,8,0:1:0:0:
160,79,67946,2,0,P|154:44|108:10,1,72,8|0,0:0|3:0,0:0:0:0:
35,125,68243,2,0,P|7:147|1:204,1,72,2|2,0:0|0:3,0:0:0:0:
50,322,68540,2,0,P|108:323|178:343,1,108,2|0,0:3|0:0,0:0:0:0:
163,349,68837,54,0,P|98:342|112:242,1,180,10|0,0:1|0:0,0:0:0:0:
179,193,69283,1,8,0:1:0:0:
130,79,69431,2,0,L|100:172,1,90,2|0,0:0|3:0,0:0:0:0:
261,291,69728,2,0,B|298:281|340:308|356:355|356:355|354:329|376:304,1,180,8|2,0:0|0:0,0:0:0:0:
288,231,70174,2,0,P|263:255|261:291,1,72,2|8,0:3|0:0,0:0:0:0:
271,374,70471,1,0,0:0:0:0:
441,357,70619,54,0,B|481:334|481:334|512:265|460:211,1,180,10|0,0:1|3:0,0:0:0:0:
344,173,71065,2,0,B|309:161|252:177|241:229|241:229|258:240|293:229,1,180,10|2,0:1|0:3,0:0:0:0:
385,248,71510,1,8,0:0:0:0:
422,133,71659,2,0,L|403:37,1,80.9999975280763,0|2,3:0|0:0,0:0:0:0:
477,10,71956,1,2,0:3:0:0:
409,45,72104,2,0,L|385:190,1,121.499996292114,2|0,0:3|0:0,0:0:0:0:
375,255,72401,54,0,B|324:276|294:239|298:225|272:185|216:197,1,180,12|0,0:1|0:0,0:0:0:0:
165,267,72847,1,8,0:1:0:0:
304,177,72996,2,0,P|296:111|246:104,1,90
188,11,73293,2,0,P|92:50|20:53,1,161.999995056153,8|0,0:0|0:0,0:0:0:0:
26,39,73738,1,2,0:3:0:0:
90,178,73887,2,0,P|61:221|16:221,1,80.9999975280763,2|0,0:0|3:0,0:0:0:0:
21,144,74109,53,0,3:0:0:0:
21,144,74184,2,0,P|70:134|118:254,1,180,12|2,0:0|0:0,0:0:0:0:
44,353,74629,53,8,0:1:0:0:
139,244,74778,1,0,3:0:0:0:
190,382,74926,1,2,0:0:0:0:
149,256,75075,53,8,0:0:0:0:
207,305,75223,1,0,3:0:0:0:
278,279,75372,1,0,0:0:0:0:
290,204,75520,2,0,P|326:136|427:131,1,180,2|2,0:3|0:0,0:0:0:0:
440,286,75966,54,0,P|371:256|393:201,1,135.000005149842,8|0,0:1|0:0,0:0:0:0:
381,210,76411,2,0,P|406:245|403:283,1,67.5000025749208,8|0,0:1|3:0,0:0:0:0:
401,342,76708,1,2,0:3:0:0:
269,229,76857,54,0,P|230:243|184:248,1,76.5000014591217,8|0,0:0|0:0,0:0:0:0:
306,360,77154,2,0,P|313:319|332:276,1,76.5000014591217,0|2,3:0|0:3,0:0:0:0:
174,326,77451,2,0,P|205:352|232:390,1,76.5000014591217,2|0,0:0|0:0,0:0:0:0:
415,334,77748,54,0,B|467:319|477:252|463:230|463:230|430:236|424:265,1,180,12|0,0:0|0:0,0:0:0:0:
401,342,78194,1,8,0:1:0:0:
477,217,78342,2,0,P|470:149|419:123,1,90,2|8,0:0|0:1,0:0:0:0:
295,37,78639,5,4,1:1:0:0:
397,194,78788,1,8,0:1:0:0:
412,42,78936,53,4,1:2:0:0:
205,176,79085,1,0,1:0:0:0:
314,269,79233,53,4,0:3:0:0:
332,112,79382,1,0,1:0:0:0:
186,175,79530,1,12,0:0:0:0:
275,188,79827,85,0,0:0:0:0:
186,175,79976,2,0,L|79:159,1,90,2|0,0:0|0:0,0:0:0:0:
76,168,80421,2,0,L|222:139,1,135,2|0,3:2|0:0,0:0:0:0:
251,76,81015,1,2,0:0:0:0:
288,9,81312,1,2,0:1:0:0:
427,217,81609,53,0,0:0:0:0:
464,150,81758,2,0,P|416:139|366:165,1,90,2|0,0:0|0:0,0:0:0:0:
302,302,82203,2,0,P|335:265|338:209,1,90,0|0,3:0|0:0,0:0:0:0:
254,189,82649,1,2,0:0:0:0:
330,216,82798,1,0,3:0:0:0:
379,153,82946,1,2,0:0:0:0:
334,86,83095,1,12,0:1:0:0:
260,315,83392,54,0,P|234:337|208:340,1,45,2|0,0:0|0:0,0:0:0:0:
146,370,83689,2,0,P|117:352|106:328,1,45,0|0,3:0|0:0,0:0:0:0:
58,278,83986,2,0,P|69:237|100:201,1,90,2|0,0:0|0:0,0:0:0:0:
69,124,84431,53,0,3:0:0:0:
143,133,84580,2,0,P|173:147|186:170,1,45,2|0,0:0|0:0,0:0:0:0:
172,261,84877,54,0,P|182:193|203:168,1,90,2|0,0:1|0:0,0:0:0:0:
247,124,85322,1,2,0:0:0:0:
290,64,85471,2,0,P|289:29|274:8,1,45,0|0,3:0|0:0,0:0:0:0:
208,195,85768,54,0,P|262:204|326:146,1,135,2|8,0:0|0:0,0:0:0:0:
304,309,86362,2,0,L|294:389,1,67.5000025749208,8|4,0:3|0:3,0:0:0:0:
465,322,86659,6,0,B|492:306|505:279|505:279|508:211|461:165,1,180,12|10,0:1|0:1,0:0:0:0:
304,309,87104,2,0,P|261:313|212:289,1,90,0|8,3:0|0:1,0:0:0:0:
153,256,87401,1,0,1:0:0:0:
273,221,87550,2,0,B|300:205|313:178|313:178|316:110|273:68,1,180,10|8,0:1|0:1,0:0:0:0:
140,0,87996,53,0,1:0:0:0:
117,96,88144,1,10,3:1:0:0:
94,192,88293,1,0,1:0:0:0:
219,151,88441,54,0,B|288:143|288:143|300:145|300:145|410:131,1,180,12|10,0:0|0:1,0:0:0:0:
498,262,88887,2,0,P|502:217|487:174,1,90,0|8,3:0|0:1,0:0:0:0:
397,133,89184,1,0,1:0:0:0:
335,298,89332,2,0,P|331:343|346:386,1,90,8|0,3:1|0:0,0:0:0:0:
233,188,89629,53,8,0:1:0:0:
96,240,89778,1,0,1:0:0:0:
67,134,89926,53,8,0:3:0:0:
236,168,90075,1,0,0:0:0:0:
168,71,90223,102,0,L|178:0,2,72,4|2|0,0:1|0:0|0:0,0:0:0:0:
236,168,91114,54,0,L|225:239,2,72,0|2|0,0:0|0:0|0:0,0:0:0:0:
327,107,92005,54,0,L|337:35,2,72,0|2|0,0:0|0:0|0:0,0:0:0:0:
380,184,92897,54,0,L|369:255,2,72,0|2|0,0:0|0:0|0:0,0:0:0:0:
226,42,93788,85,4,1:1:0:0:
200,147,93936,1,8,0:1:0:0:
121,72,94085,1,8,0:1:0:0:
315,64,94233,53,4,1:2:0:0:
344,182,94382,1,8,0:1:0:0:
432,97,94530,1,8,0:1:0:0:
224,160,94679,53,4,1:2:0:0:
253,270,94827,1,8,0:1:0:0:
153,223,94976,53,0,1:0:0:0:
143,354,95124,1,8,0:1:0:0:
61,204,95273,53,4,1:2:0:0:
61,204,95421,1,8,0:1:0:0:
256,192,95570,12,4,98243,0:1:0:0:
39,224,99134,70,0,B|21:328|111:354|111:354|139:348|154:320,1,215.999993408203,12|0,0:1|0:0,0:0:0:0:
344,269,99580,2,0,P|342:322|312:366,1,107.999996704102,0|2,1:0|0:0,0:0:0:0:
131,190,99877,53,8,0:1:0:0:
131,190,100025,2,0,B|204:199|227:115|227:115|209:116|200:119,1,161.999995056153,8|0,0:1|0:0,0:0:0:0:
125,110,100322,2,0,P|74:100|32:48,1,107.999996704102,0|0,1:0|0:0,0:0:0:0:
282,56,100619,2,0,P|316:16|382:6,1,107.999996704102,10|0,0:1|0:0,0:0:0:0:
250,218,100916,53,8,0:1:0:0:
250,218,101065,2,0,P|266:267|242:329,1,107.999996704102,8|0,0:1|0:0,0:0:0:0:
57,384,101362,53,2,1:2:0:0:
67,307,101510,1,0,0:0:0:0:
77,230,101659,1,8,0:1:0:0:
139,278,101807,53,2,1:2:0:0:
139,278,101956,1,0,0:0:0:0:
5,259,102104,53,8,0:1:0:0:
5,259,102253,1,0,0:0:0:0:
88,152,102401,54,0,B|120:133|120:133|86:73|130:14,1,161.999995056153,2|0,1:2|0:0,0:0:0:0:
205,81,102699,2,0,P|262:104|385:11,1,215.999993408203,12|0,0:0|0:0,0:0:0:0:
472,190,103144,2,0,B|504:209|504:209|470:269|512:325,1,161.999995056153,2|0,1:2|0:0,0:0:0:0:
512,325,103441,1,8,0:1:0:0:
289,370,103590,54,0,L|401:385,1,107.999996704102,8|0,0:1|0:0,0:0:0:0:
253,225,103887,2,0,L|365:210,1,107.999996704102,0|0,1:0|0:0,0:0:0:0:
179,73,104184,2,0,L|283:29,1,107.999996704102,10|0,0:1|0:0,0:0:0:0:
85,236,104481,54,0,B|74:266|42:280|42:280|-34:237|0:150,1,215.999993408203,12|0,0:2|0:0,0:0:0:0:
260,248,104926,2,0,B|295:334|218:377|218:377|186:364|175:333,1,215.999993408203,2|8,1:2|0:1,0:0:0:0:
85,116,105372,2,0,P|86:61|133:10,1,107.999996704102,0|0,1:0|0:0,0:0:0:0:
293,115,105669,53,8,0:1:0:0:
405,81,105817,1,8,0:1:0:0:
321,8,105966,53,0,1:2:0:0:
376,187,106114,1,2,1:2:0:0:
190,145,106263,54,0,B|135:106|58:143|49:202|49:202|58:217|82:220,1,215.999993408203,12|0,0:1|0:0,0:0:0:0:
330,289,106708,2,0,B|372:296|383:325|383:325|363:307|338:311,1,107.999996704102,2|0,1:2|0:0,0:0:0:0:
136,369,107005,53,8,0:1:0:0:
136,369,107154,2,0,B|79:352|18:379|18:379|24:355|60:345,1,161.999995056153,8|0,0:1|0:0,0:0:0:0:
85,285,107451,2,0,P|111:243|112:177,1,107.999996704102,0|0,1:0|0:0,0:0:0:0:
226,0,107748,54,0,P|227:53|255:99,1,107.999996704102,10|0,0:1|0:0,0:0:0:0:
460,169,108045,2,0,P|487:123|489:69,1,107.999996704102,8|8,0:1|0:1,0:0:0:0:
330,218,108342,1,0,0:0:0:0:
330,218,108491,2,0,B|297:316|348:364|348:364|347:332|300:296,1,215.999993408203,0|8,1:2|0:1,0:0:0:0:
176,268,108936,54,0,P|42:287|-1:368,1,215.999993408203,2|8,1:2|0:1,0:0:0:0:
112,225,109382,1,2,0:0:0:0:
154,126,109530,1,12,1:2:0:0:
133,19,109679,1,0,0:0:0:0:
336,116,109827,54,0,P|470:97|513:16,1,215.999993408203,12|0,0:0|0:0,0:0:0:0:
402,223,110273,2,0,P|458:257|478:351,1,161.999995056153,0|0,1:2|0:0,0:0:0:0:
479,346,110570,1,8,0:1:0:0:
283,378,110718,54,0,L|409:373,1,107.999996704102,2|0,1:2|0:0,0:0:0:0:
205,211,111015,2,0,L|312:205,1,107.999996704102,8|0,0:1|0:0,0:0:0:0:
112,312,111312,53,10,0:1:0:0:
112,312,111461,1,8,0:1:0:0:
61,219,111609,53,4,1:1:0:0:
19,369,111758,1,8,0:1:0:0:
112,312,111906,1,8,0:1:0:0:
193,384,112055,53,4,1:2:0:0:
177,229,112203,1,8,0:1:0:0:
112,312,112352,1,8,0:1:0:0:
264,300,112501,101,8,3:2:0:0:
264,300,112575,1,0,3:0:0:0:
264,300,112649,1,0,3:0:0:0:
177,229,112798,1,0,1:0:0:0:
167,117,112946,1,0,1:0:0:0:
233,26,113095,1,0,1:2:0:0:
343,7,113243,1,0,1:0:0:0:
293,95,113392,70,0,B|195:90|254:25|152:22,1,161.999995056153,12|0,0:1|0:0,0:0:0:0:
89,42,113689,1,0,0:0:0:0:
232,279,113837,2,0,B|257:227|257:227|216:153,1,107.999996704102,0|2,1:0|0:0,0:0:0:0:
0,162,114134,53,8,0:1:0:0:
0,162,114283,2,0,P|103:123|190:125,1,161.999995056153,8|0,0:1|0:0,0:0:0:0:
162,136,114580,2,0,P|106:126|87:50,1,107.999996704102,0|0,1:0|0:0,0:0:0:0:
261,228,114877,2,0,P|280:281|224:335,1,107.999996704102,10|0,0:1|0:0,0:0:0:0:
285,106,115174,53,8,0:1:0:0:
285,106,115322,2,0,P|321:63|396:84,1,107.999996704102,8|0,0:1|0:0,0:0:0:0:
500,247,115619,1,2,1:2:0:0:
423,268,115768,1,0,0:0:0:0:
346,289,115916,1,8,0:1:0:0:
480,324,116065,53,2,1:2:0:0:
366,211,116213,1,0,0:0:0:0:
403,345,116362,53,8,0:1:0:0:
443,190,116510,1,0,0:0:0:0:
232,350,116659,2,0,P|200:289|79:300,1,161.999995056153,12|0,0:0|0:0,0:0:0:0:
17,312,116956,54,0,B|50:333|50:333|100:307|121:222|64:176,1,215.999993408203,12|0,0:1|0:0,0:0:0:0:
174,0,117401,2,0,B|146:11|129:47|129:47|124:91|164:140,1,161.999995056153,0|0,1:2|0:0,0:0:0:0:
159,134,117699,1,8,0:1:0:0:
292,356,117847,54,0,P|245:332|242:281,1,107.999996704102,12|0,0:0|0:0,0:0:0:0:
399,221,118144,2,0,P|401:272|359:301,1,107.999996704102,0|0,1:0|0:0,0:0:0:0:
230,194,118441,2,0,P|273:165|319:188,1,107.999996704102,10|0,0:1|0:0,0:0:0:0:
512,126,118738,54,0,B|552:61|490:1|433:24|433:24|414:72,1,215.999993408203,12|0,0:1|0:0,0:0:0:0:
358,301,119184,2,0,B|376:358|436:368|436:368|465:315|429:264,1,215.999993408203,0|8,1:2|0:1,0:0:0:0:
230,194,119629,2,0,B|207:216|204:242|204:242|215:266|237:282,1,107.999996704102,12|0,1:2|0:0,0:0:0:0:
356,107,119926,53,0,1:0:0:0:
343,68,120001,1,0,3:0:0:0:
315,40,120075,1,8,3:3:0:0:
277,26,120149,1,0,3:0:0:0:
237,31,120223,1,4,3:3:0:0:
127,102,120372,1,2,0:0:0:0:
11,190,120520,54,0,B|27:272|27:272|26:278|26:278|49:391,1,180,12|0,0:1|0:0,0:0:0:0:
117,302,120966,1,0,3:0:0:0:
30,372,121114,2,0,P|11:335|52:295,1,90,2|8,0:0|0:1,0:0:0:0:
213,268,121411,2,0,P|197:345|114:299,1,180,0|8,1:0|0:1,0:0:0:0:
125,223,121857,53,0,3:0:0:0:
201,166,122005,1,2,0:0:0:0:
286,197,122154,1,8,0:1:0:0:
381,355,122302,53,8,0:1:0:0:
381,355,122451,2,0,B|393:375|411:377|411:377|371:298|420:239,1,180,2|0,3:3|3:0,0:0:0:0:
273,209,122897,2,0,P|280:253|334:265,1,90,2|8,0:3|0:1,0:0:0:0:
512,147,123194,2,0,P|436:154|362:176,1,153.000002918243,0|0,1:0|3:0,0:0:0:0:
488,68,123639,2,0,P|481:24|426:11,1,90,0|2,1:2|0:0,0:0:0:0:
248,56,123936,53,8,0:1:0:0:
248,56,124010,1,2,0:3:0:0:
248,56,124085,2,0,B|270:84|322:92|365:60|365:60|359:25|321:11,1,198.000006042481,12|0,0:1|0:0,0:0:0:0:
145,138,124530,2,0,B|93:144|66:207|86:251|86:251|131:287,1,180,2|0,0:0|0:0,0:0:0:0:
86,79,124976,54,0,P|128:55|191:68,1,90,0|0,1:0|0:0,0:0:0:0:
123,218,125273,2,0,P|81:193|62:132,1,90,2|0,0:0|3:0,0:0:0:0:
225,116,125570,2,0,P|225:165|182:213,1,90,10|0,0:1|0:0,0:0:0:0:
9,341,125867,54,0,B|-2:324|-2:324|29:278|120:282|153:346,1,198.000006042481,12|0,0:0|0:0,0:0:0:0:
254,371,126312,2,0,B|270:341|270:341|222:282|248:224,1,148.50000453186,8|0,0:1|0:0,0:0:0:0:
255,220,126609,1,8,0:1:0:0:
506,335,126758,37,4,1:0:0:0:
350,265,126906,1,8,0:1:0:0:
482,165,127055,53,2,0:0:0:0:
417,342,127203,1,8,0:1:0:0:
448,252,127352,53,0,1:0:0:0:
368,80,127501,1,0,1:0:0:0:
255,220,127649,70,0,P|333:235|357:153,1,148.50000453186,12|0,0:1|0:0,0:0:0:0:
352,200,127946,2,0,P|337:237|376:278,1,72,8|0,0:1|0:0,0:0:0:0:
368,80,128243,54,0,P|361:22|275:27,1,135,8|0,0:1|0:0,0:0:0:0:
246,65,128540,2,0,L|265:155,1,72,0|0,1:0|0:0,0:0:0:0:
44,46,128837,53,0,1:0:0:0:
166,121,128986,1,0,0:0:0:0:
67,144,129134,1,0,1:0:0:0:
142,22,129283,1,0,0:0:0:0:
137,254,129431,53,4,1:0:0:0:
169,129,129580,1,8,0:1:0:0:
53,56,129728,1,8,0:1:0:0:
137,269,129877,53,4,1:2:0:0:
172,137,130025,1,8,0:1:0:0:
62,66,130174,1,8,0:1:0:0:
19,218,130322,53,4,1:2:0:0:
16,226,130397,1,0,1:0:0:0:
13,235,130471,1,0,1:0:0:0:
11,243,130545,1,0,1:0:0:0:
8,251,130619,53,8,0:3:0:0:
8,278,130694,1,4,0:3:0:0:
18,303,130768,1,8,0:1:0:0:
38,321,130842,1,4,0:3:0:0:
63,330,130916,1,0,1:0:0:0:
90,328,130991,1,0,3:0:0:0:
113,315,131065,1,0,3:0:0:0:
130,294,131139,1,0,3:0:0:0:
136,268,131213,22,0,P|176:211|286:220,1,180,12|0,0:1|0:0,0:0:0:0:
436,328,131659,2,0,B|434:355|415:377|415:377|355:360|338:306|357:262,1,180,2|0,0:0|0:0,0:0:0:0:
377,189,132104,2,0,P|419:155|432:84,1,90,0|0,1:0|0:0,0:0:0:0:
496,73,132401,1,2,0:0:0:0:
496,73,132550,2,0,P|477:21|414:-12,1,90,0|0,3:0|0:3,0:0:0:0:
274,65,132847,54,0,P|260:104|222:122,1,45,8|0,0:1|0:0,0:0:0:0:
228,179,132996,2,0,P|163:204|70:135,1,180,8|0,0:1|0:0,0:0:0:0:
9,107,133441,1,0,3:0:0:0:
83,75,133590,2,0,B|99:34|99:34|73:-9,1,90
75,149,133887,2,0,B|57:175|25:181|25:181|-9:245|51:292,1,180,0|0,1:0|0:0,0:0:0:0:
108,367,134332,1,0,1:0:0:0:
180,224,134481,1,0,0:0:0:0:
45,287,134629,1,0,0:0:0:0:
202,331,134778,54,0,P|286:360|376:358,1,180,12|0,0:0|0:0,0:0:0:0:
512,183,135223,1,2,0:0:0:0:
443,212,135372,2,0,P|403:248|415:297,1,90,0|0,3:0|0:0,0:0:0:0:
405,282,135669,2,0,P|388:203|305:250,1,180,0|0,1:0|0:0,0:0:0:0:
150,170,136114,1,2,0:0:0:0:
150,170,136263,2,0,P|197:172|253:190,1,90,0|0,3:0|0:0,0:0:0:0:
443,98,136560,54,0,B|468:85|470:55|470:55|423:21|366:42|345:85,1,180,8|0,0:1|0:0,0:0:0:0:
311,226,137005,2,0,B|309:254|333:270|333:270|387:247|397:187|370:147,1,180,2|0,0:0|1:0,0:0:0:0:
356,68,137377,1,0,1:0:0:0:
348,55,137451,1,8,0:1:0:0:
260,135,137600,69,0,1:0:0:0:
444,3,137748,1,0,1:0:0:0:
311,226,137897,53,8,0:3:0:0:
356,68,138045,1,4,0:3:0:0:
419,319,138194,53,0,3:0:0:0:
392,187,138342,1,12,0:1:0:0:
160,266,144877,101,4,0:3:0:0:
0,223,145025,1,0,1:2:0:0:
92,198,145174,53,8,0:3:0:0:
67,290,145322,1,4,0:3:0:0:
177,352,145471,70,0,L|367:340,2,161.999995056153,12|0|2,0:1|0:2|0:2,0:0:0:0:
262,384,146213,1,8,0:1:0:0:
324,265,146362,1,8,3:2:0:0:
324,265,146510,2,0,B|347:237|350:216|350:216|342:166|299:109,1,161.999995056153,0|8,2:0|0:1,0:0:0:0:
370,158,146956,2,0,B|388:174|408:170|408:170|400:147|377:145,1,80.9999975280763,2|0,0:0|0:0,0:0:0:0:
245,79,147253,54,0,P|168:99|113:28,1,161.999995056153,8|0,0:1|0:0,0:0:0:0:
95,168,147699,1,0,0:2:0:0:
95,168,147773,1,0,0:0:0:0:
95,168,147847,2,0,P|48:155|-13:171,1,80.9999975280763,2|0,0:0|0:0,0:0:0:0:
130,261,148144,2,0,P|204:281|259:227,1,161.999995056153,8|0,3:2|0:0,0:0:0:0:
259,227,148590,1,2,3:3:0:0:
356,178,148738,53,2,0:0:0:0:
334,306,148887,1,2,0:3:0:0:
448,260,149035,54,0,B|486:269|498:297|498:297|498:346|459:387,1,161.999995056153,4|0,0:0|0:0,0:0:0:0:
334,306,149481,1,0,0:0:0:0:
417,264,149629,2,0,P|442:233|452:179,1,80.9999975280763,2|0,0:0|0:0,0:0:0:0:
382,120,149926,2,0,P|337:53|227:48,1,161.999995056153,8|0,3:2|0:0,0:0:0:0:
261,36,150372,1,0,0:0:0:0:
137,12,150520,53,2,0:0:0:0:
221,115,150669,1,0,0:0:0:0:
81,90,150817,54,0,P|3:136|20:233,1,161.999995056153,8|0,0:1|0:0,0:0:0:0:
156,150,151263,2,0,P|198:138|248:140,1,80.9999975280763,0|0,3:0|0:0,0:0:0:0:
360,170,151560,53,8,0:0:0:0:
360,170,151634,1,8,0:0:0:0:
360,170,151708,1,8,0:3:0:0:
190,244,151857,1,8,0:0:0:0:
434,295,152005,53,4,0:3:0:0:
280,255,152154,1,4,0:3:0:0:
401,381,152302,53,8,0:1:0:0:
333,322,152451,1,8,0:1:0:0:
447,211,152600,38,0,B|505:169|469:101|469:101|478:150|447:172,1,198.000006042481,12|0,0:1|0:0,0:0:0:0:
451,168,153045,1,8,0:1:0:0:
302,122,153194,2,0,P|344:107|387:119,1,90,2|0,0:0|3:0,0:0:0:0:
220,243,153491,2,0,P|336:233|344:176,1,180,0|2,1:0|0:0,0:0:0:0:
347,191,153936,1,0,3:0:0:0:
334,367,154085,2,0,P|327:329|301:284,1,72,8|8,0:0|0:1,0:0:0:0:
208,217,154382,54,0,B|185:233|174:258|174:258|77:230,1,144,8|0,0:1|0:1,0:0:0:0:
12,251,154827,1,8,0:1:0:0:
66,306,154976,1,2,0:0:0:0:
141,287,155124,1,8,0:1:0:0:
163,213,155273,1,0,1:0:0:0:
110,157,155421,1,0,3:0:0:0:
132,84,155570,1,2,0:0:0:0:
206,66,155718,1,2,2:3:0:0:
258,121,155867,2,0,B|294:137|323:121|323:121|300:118|286:140,1,108,2|0,0:3|0:0,0:0:0:0:
288,217,156164,54,0,B|275:299|339:323|339:323|361:303|399:297,1,180,12|0,0:0|0:0,0:0:0:0:
383,300,156609,1,8,0:1:0:0:
490,384,156758,2,0,L|468:277,1,90,2|0,0:0|3:0,0:0:0:0:
506,124,157055,2,0,B|526:149|526:149|540:184|508:228|452:227|426:186,1,180,0|2,1:0|0:0,0:0:0:0:
431,193,157501,1,2,0:3:0:0:
344,132,157649,2,0,B|379:131|379:131|405:97,1,72,8|8,0:0|0:1,0:0:0:0:
257,10,157946,54,0,B|251:77|239:105|208:117|208:117|219:91|255:82,1,180,10|0,0:1|3:0,0:0:0:0:
356,148,158392,2,0,B|391:172|405:194|405:194|413:253|349:304,1,180,10|2,0:1|0:3,0:0:0:0:
226,342,158837,53,0,1:0:0:0:
289,384,158986,2,0,P|337:373|404:374,1,80.9999975280763,0|2,3:0|0:0,0:0:0:0:
216,264,159283,53,0,1:2:0:0:
279,216,159431,1,8,0:3:0:0:
279,136,159580,1,8,0:3:0:0:
185,58,159728,54,0,B|121:47|121:47|108:52|108:52|7:36,1,180,12|0,0:1|0:0,0:0:0:0:
125,128,160174,1,8,0:1:0:0:
174,196,160322,2,0,P|180:225|151:307,1,90,2|8,0:2|0:1,0:0:0:0:
307,217,160619,2,0,B|355:245|406:213|406:213|410:183|437:159,1,161.999995056153,0|0,1:0|0:0,0:0:0:0:
403,254,161065,1,2,0:3:0:0:
432,163,161213,2,0,P|457:144|509:137,1,80.9999975280763,2|8,0:0|2:1,0:0:0:0:
338,101,161510,54,0,P|277:105|191:-2,1,180,12|2,0:0|0:0,0:0:0:0:
269,151,161956,1,8,0:1:0:0:
297,236,162104,1,0,3:0:0:0:
262,318,162253,1,2,0:0:0:0:
152,202,162401,53,0,1:0:0:0:
152,202,162550,1,0,3:0:0:0:
101,286,162699,1,0,0:0:0:0:
135,378,162847,2,0,P|187:357|297:360,1,135,0|0,1:2|0:0,0:0:0:0:
280,367,163144,1,0,1:2:0:0:
384,299,163293,54,0,B|381:340|411:372|456:371|456:371|493:348,1,135.000005149842,12|0,0:1|0:0,0:0:0:0:
447,252,163738,2,0,P|420:225|379:217,1,67.5000025749208,8|0,0:1|3:0,0:0:0:0:
319,249,164035,1,8,0:1:0:0:
246,161,164184,54,0,P|233:124|237:87,1,76.5000014591217,0|0,1:0|0:0,0:0:0:0:
121,193,164481,2,0,P|158:200|188:222,1,76.5000014591217,0|2,3:0|0:3,0:0:0:0:
155,68,164778,2,0,P|129:96|95:111,1,76.5000014591217,2|8,2:0|0:1,0:0:0:0:
200,259,165075,54,0,B|182:295|191:334|228:358|228:358|204:328|216:290,1,180,12|0,0:0|0:0,0:0:0:0:
271,241,165520,1,8,0:1:0:0:
348,244,165669,1,2,0:0:0:0:
398,303,165817,1,8,0:1:0:0:
312,177,165966,5,4,1:1:0:0:
502,134,166114,1,8,0:1:0:0:
255,57,166263,53,4,1:2:0:0:
409,96,166411,1,0,1:0:0:0:
194,150,166560,53,4,0:3:0:0:
371,20,166708,1,0,1:0:0:0:
242,44,166857,85,4,0:0:0:0:
232,35,167154,53,0,0:0:0:0:
302,102,167302,2,0,P|299:132|276:195,1,90,2|0,0:0|0:0,0:0:0:0:
277,211,167748,2,0,L|411:181,1,135,2|0,3:2|0:0,0:0:0:0:
483,160,168342,1,2,0:0:0:0:
504,235,168639,1,2,0:1:0:0:
500,247,168936,53,0,0:0:0:0:
447,302,169085,2,0,P|399:306|359:275,1,90,2|0,0:0|0:0,0:0:0:0:
301,328,169530,2,0,P|257:333|219:310,1,90,0|0,3:0|0:0,0:0:0:0:
162,258,169976,53,2,0:0:0:0:
162,258,170124,1,0,3:0:0:0:
235,234,170273,1,2,0:0:0:0:
177,181,170421,1,4,0:3:0:0:
231,325,170718,54,0,P|263:323|286:301,1,45,2|0,0:0|0:0,0:0:0:0:
341,229,171015,2,0,P|326:212|318:192,1,45,0|0,3:0|0:0,0:0:0:0:
232,113,171312,2,0,P|259:78|267:34,1,90,2|0,0:0|0:0,0:0:0:0:
267,34,171758,1,0,3:0:0:0:
188,45,171906,2,0,P|168:40|144:14,1,45,2|0,0:0|0:0,0:0:0:0:
88,136,172203,54,0,P|49:136|1:172,1,90,2|0,0:0|0:0,0:0:0:0:
7,163,172649,1,2,0:0:0:0:
125,214,172798,2,0,L|138:272,1,45,0|0,3:0|0:0,0:0:0:0:
189,161,173095,2,0,P|217:159|270:122,2,90,2|0|0,0:0|0:0|0:0,0:0:0:0:
19,293,173986,6,0,P|14:339|124:350,1,180,12|10,0:1|0:1,0:0:0:0:
134,257,174431,1,0,3:0:0:0:
235,373,174580,2,0,P|248:320|231:287,1,90,8|0,0:1|1:0,0:0:0:0:
40,133,174877,2,0,P|84:158|226:175,1,180,10|8,0:1|0:1,0:0:0:0:
457,60,175322,53,0,1:0:0:0:
384,39,175471,1,10,3:1:0:0:
324,90,175619,1,0,1:0:0:0:
341,166,175768,2,0,P|356:79|273:54,1,180,4|10,0:0|0:1,0:0:0:0:
149,239,176213,54,0,P|145:284|160:327,1,90,0|8,3:0|0:1,0:0:0:0:
239,162,176510,1,0,1:0:0:0:
148,92,176659,2,0,P|103:102|67:129,1,90,8|0,3:1|0:0,0:0:0:0:
159,325,176956,53,8,0:1:0:0:
259,366,177104,1,0,1:0:0:0:
411,246,177253,53,8,0:3:0:0:
512,208,177401,1,0,0:0:0:0:
512,208,177550,38,0,L|502:137,2,72,4|2|0,0:1|0:0|0:0,0:0:0:0:
443,297,178441,54,0,L|452:359,2,62.9999980773926,0|2|0,0:0|0:0|0:0,0:0:0:0:
352,236,179332,54,0,L|344:182,2,53.9999983520508,0|2|0,0:0|0:0|0:0,0:0:0:0:
299,313,180223,54,0,L|306:361,2,45,0|2|0,0:0|0:0|0:0,0:0:0:0:
168,173,181114,86,0,L|34:201,1,135,4|0,1:1|0:0,0:0:0:0:
19,194,181411,2,0,L|108:222,1,90,0|8,1:0|0:1,0:0:0:0:
235,359,181708,53,0,1:0:0:0:
213,278,181857,1,8,0:1:0:0:
329,84,182005,53,0,1:0:0:0:
289,159,182154,1,8,0:1:0:0:
429,370,182302,53,0,1:0:0:0:
368,249,182451,1,8,0:1:0:0:
455,43,182600,54,0,B|477:23|477:23|525:64|496:124,1,135,0|0,1:0|0:0,0:0:0:0:
474,198,182897,53,4,1:1:0:0:
365,84,183045,1,8,0:1:0:0:
210,137,183194,1,8,0:1:0:0:
465,190,183342,53,4,1:2:0:0:
312,151,183491,1,8,0:1:0:0:
208,278,183639,1,8,0:1:0:0:
456,182,183788,54,0,P|472:127|441:79,1,107.999996704102,4|0,1:1|0:0,0:0:0:0:
139,43,184085,53,8,0:3:0:0:
138,98,184159,1,8,0:3:0:0:
191,115,184233,1,4,0:3:0:0:
223,70,184307,1,4,0:3:0:0:
191,26,184382,1,8,1:1:0:0:
54,350,184679,70,0,B|29:354|14:375|14:375|-27:334|-28:248|61:225,1,215.999993408203,12|0,0:1|0:0,0:0:0:0:
167,347,185124,2,0,B|222:337|222:337|225:334|225:334|284:324,1,107.999996704102,0|2,1:0|0:0,0:0:0:0:
422,220,185421,53,8,0:1:0:0:
422,220,185570,2,0,B|429:177|393:125|335:146|335:146|339:188,1,161.999995056153,8|0,0:1|0:0,0:0:0:0:
332,246,185867,2,0,P|312:302|260:327,1,107.999996704102,0|0,1:0|0:0,0:0:0:0:
414,126,186164,2,0,P|472:115|520:147,1,107.999996704102,10|0,0:1|0:0,0:0:0:0:
270,115,186461,53,8,0:1:0:0:
270,115,186609,2,0,P|231:69|235:12,1,107.999996704102,8|0,0:1|0:0,0:0:0:0:
0,196,186906,1,2,1:2:0:0:
63,238,187055,1,0,0:0:0:0:
132,206,187203,1,8,0:1:0:0:
78,94,187352,53,2,1:2:0:0:
78,94,187501,1,0,0:0:0:0:
0,196,187649,53,8,0:1:0:0:
0,196,187798,1,0,0:0:0:0:
132,206,187946,54,0,B|202:224|193:305|193:305|168:356,1,175.499991966248,2|0,1:2|0:0,0:0:0:0:
104,377,188243,2,0,P|179:293|309:309,1,215.999993408203,12|0,0:0|0:0,0:0:0:0:
452,383,188689,2,0,B|522:365|513:284|513:284|488:233,1,161.999995056153,2|0,1:2|0:0,0:0:0:0:
498,254,188986,1,8,0:1:0:0:
382,201,189134,54,0,L|428:298,1,107.999996704102,8|0,0:1|0:0,0:0:0:0:
272,130,189431,2,0,L|289:236,1,107.999996704102,0|0,1:0|0:0,0:0:0:0:
185,31,189728,2,0,L|172:138,1,107.999996704102,10|0,0:1|0:0,0:0:0:0:
474,153,190025,54,0,B|521:130|531:52|475:13|475:13|439:33|432:67,1,233.999989288331,12|0,0:2|0:0,0:0:0:0:
294,341,190471,2,0,B|259:380|182:370|159:306|159:306|187:276|221:279,1,233.999989288331,2|8,1:2|0:1,0:0:0:0:
460,312,190916,2,0,B|489:355|489:355|486:358|486:358|425:326,1,107.999996704102,0|8,1:0|3:2,0:0:0:0:
379,295,191139,1,0,3:0:0:0:
365,220,191213,1,8,0:1:0:0:
443,231,191362,53,8,0:1:0:0:
294,341,191510,1,0,1:2:0:0:
324,140,191659,1,2,1:2:0:0:
293,348,191807,54,0,B|238:371|194:318|224:303|176:244|109:273,1,215.999993408203,12|0,0:1|0:0,0:0:0:0:
0,348,192253,2,0,B|-11:361|-8:377|-8:377|10:376|36:354|30:307,1,107.999996704102,2|0,1:2|0:0,0:0:0:0:
55,114,192550,53,8,0:1:0:0:
113,271,192699,2,0,B|102:224|129:180|170:177|170:177|171:196|183:218,1,161.999995056153,8|0,0:1|0:0,0:0:0:0:
252,169,192996,2,0,P|263:112|226:48,1,107.999996704102,0|0,1:0|0:0,0:0:0:0:
113,271,193293,54,0,P|139:322|207:350,1,107.999996704102,10|0,0:1|0:0,0:0:0:0:
476,226,193590,2,0,B|531:190|515:130|515:130|455:121|419:166,1,215.999993408203,8|0,0:1|0:0,0:0:0:0:
298,351,194035,2,0,B|298:367|287:383|287:383|334:379|381:309|331:231,1,215.999993408203,0|8,1:2|0:1,0:0:0:0:
333,44,194481,54,0,B|314:111|383:164|436:137|436:137|441:111|468:91,1,215.999993408203,2|8,1:2|0:1,0:0:0:0:
341,128,194926,1,2,0:0:0:0:
334,236,195075,1,4,1:2:0:0:
425,292,195223,1,0,0:0:0:0:
203,227,195372,54,0,P|104:261|63:357,1,215.999993408203,12|0,0:0|0:0,0:0:0:0:
129,137,195817,2,0,B|110:100|134:62|150:46|150:17|104:14|70:43|109:76,1,161.999995056153,0|0,1:2|0:0,0:0:0:0:
96,60,196114,1,8,0:1:0:0:
204,228,196263,54,0,P|268:249|336:224,1,107.999996704102,2|0,1:2|0:0,0:0:0:0:
266,149,196560,2,0,P|331:132|375:75,1,107.999996704102,8|0,0:1|0:0,0:0:0:0:
276,49,196857,53,10,0:1:0:0:
276,49,197005,1,8,0:1:0:0:
449,158,197154,53,4,1:1:0:0:
276,49,197302,1,8,0:1:0:0:
417,17,197451,1,8,0:1:0:0:
304,194,197600,53,4,1:2:0:0:
420,12,197748,1,8,0:1:0:0:
271,45,197897,1,8,0:1:0:0:
453,161,198045,101,8,3:2:0:0:
457,164,198119,1,0,3:0:0:0:
461,167,198194,1,0,3:0:0:0:
452,278,198342,1,0,1:0:0:0:
366,351,198491,1,0,1:0:0:0:
254,349,198639,1,0,1:2:0:0:
175,270,198788,1,0,1:0:0:0:
297,188,198936,70,0,B|342:234|402:222|424:174|424:174|398:151|396:117,1,215.999993408203,12|0,0:1|0:0,0:0:0:0:
449,0,199382,1,0,1:0:0:0:
492,97,199530,1,2,0:0:0:0:
344,13,199679,1,8,0:1:0:0:
256,103,199827,54,0,P|171:115|102:61,1,161.999995056153,8|0,0:1|0:0,0:0:0:0:
41,103,200124,2,0,P|35:57|87:6,1,107.999996704102,0|0,1:0|0:0,0:0:0:0:
148,289,200421,2,0,P|111:317|40:297,1,107.999996704102,10|0,2:1|0:0,0:0:0:0:
260,107,200718,53,8,0:1:0:0:
260,107,200867,2,0,B|398:117|307:187|449:203,1,215.999993408203,8|0,2:1|1:0,0:0:0:0:
278,202,201312,53,2,0:0:0:0:
433,107,201461,1,8,0:1:0:0:
348,54,201609,53,2,1:2:0:0:
361,254,201758,1,0,0:0:0:0:
442,202,201906,53,10,0:1:0:0:
260,107,202055,1,0,0:0:0:0:
152,231,202203,54,0,B|137:274|88:273|88:273|113:265|130:232,1,135,12|0,0:0|0:0,0:0:0:0:
193,158,202501,54,0,B|227:200|287:203|328:167|328:167|359:116|412:120,1,251.999992309571,12|0,0:1|0:0,0:0:0:0:
378,297,202946,2,0,P|411:369|516:357,1,161.999995056153,0|0,1:2|0:0,0:0:0:0:
486,377,203243,1,8,0:1:0:0:
461,201,203392,54,0,B|425:224|425:224|376:201|302:192,1,161.999995056153,12|0,0:0|0:0,0:0:0:0:
251,239,203689,2,0,B|225:209|239:163|239:163|219:181,1,107.999996704102,0|0,1:0|0:0,0:0:0:0:
145,299,203986,2,0,B|109:324|113:369|113:369|99:346,1,107.999996704102,10|0,2:1|0:0,0:0:0:0:
0,191,204283,54,0,B|42:150|43:73|28:49|4:31|4:31|2:58|11:78|42:97,1,251.999992309571,12|0,0:1|0:0,0:0:0:0:
219,181,204728,2,0,B|289:208|309:272|309:272|303:228|274:198,1,215.999993408203,0|8,1:2|0:1,0:0:0:0:
99,150,205174,2,0,B|77:155|48:147|48:147|30:121|39:75,1,107.999996704102,4|0,1:2|0:0,0:0:0:0:
167,0,205471,53,8,1:3:0:0:
191,35,205545,1,0,3:3:0:0:
231,49,205619,1,0,3:3:0:0:
274,44,205694,1,0,3:3:0:0:
296,61,205768,53,4,3:3:0:0:
320,32,205842,1,0,3:3:0:0:
356,23,205916,1,0,3:3:0:0:
392,34,205991,1,0,3:3:0:0:
415,63,206065,54,0,P|439:144|530:135,2,180,12|0|2,0:1|3:0|0:2,0:0:0:0:
362,3,206807,1,8,0:1:0:0:
442,172,206956,2,0,B|460:213|439:268|394:288|394:288|335:241,1,180,0|8,1:0|0:1,0:0:0:0:
215,219,207401,53,0,3:0:0:0:
261,131,207550,1,2,0:0:0:0:
233,35,207699,1,8,0:1:0:0:
104,118,207847,53,8,0:1:0:0:
104,118,207996,2,0,B|61:102|61:102|13:120|-8:168|21:213,1,180,2|0,3:0|3:0,0:0:0:0:
0,323,208441,2,0,P|43:295|108:294,1,90,2|8,0:3|0:1,0:0:0:0:
292,384,208738,2,0,P|237:332|162:323,1,153.000002918243,0|0,1:0|3:0,0:0:0:0:
308,210,209184,2,0,P|329:251|327:299,1,90,0|2,1:2|0:0,0:0:0:0:
144,186,209481,53,8,0:1:0:0:
144,186,209555,1,2,0:3:0:0:
144,186,209629,2,0,P|227:195|313:117,1,198.000006042481,12|0,0:1|0:0,0:0:0:0:
451,2,210075,2,0,B|403:20|392:65|412:115|412:115|438:121|471:147,1,180,2|0,0:0|0:0,0:0:0:0:
308,210,210520,54,0,L|415:191,1,90,0|0,1:0|0:0,0:0:0:0:
208,117,210817,2,0,L|306:101,1,90,2|0,0:0|3:0,0:0:0:0:
216,329,211114,2,0,L|330:308,1,90,10|0,0:1|0:0,0:0:0:0:
105,177,211411,54,0,B|143:224|111:294|60:303|60:303|42:290|25:285,1,198.000006042481,12|0,0:0|0:0,0:0:0:0:
201,137,211857,2,0,B|198:197|266:234|312:210|312:210|316:193|329:175,1,198.000006042481,8|8,0:1|0:1,0:0:0:0:
484,97,212302,101,4,1:0:0:0:
378,62,212451,1,8,0:1:0:0:
401,228,212600,53,2,2:0:0:0:
273,263,212748,1,8,0:1:0:0:
291,85,212897,53,0,1:0:0:0:
158,48,213045,1,0,1:0:0:0:
46,121,213194,70,0,P|18:214|45:268,1,148.50000453186,12|0,0:1|0:0,0:0:0:0:
6,326,213491,2,0,P|40:305|110:302,1,99.0000030212403,8|0,0:1|0:0,0:0:0:0:
222,384,213788,54,0,B|255:355|255:355|226:320|247:251,1,135,8|0,0:1|0:0,0:0:0:0:
252,249,214085,2,0,P|295:253|344:220,1,90,0|0,1:0|0:0,0:0:0:0:
436,130,214382,53,0,1:0:0:0:
436,130,214530,1,0,0:0:0:0:
472,265,214679,1,0,1:0:0:0:
334,231,214827,1,0,0:0:0:0:
278,165,214976,53,4,1:0:0:0:
286,301,215124,1,8,0:1:0:0:
166,367,215273,1,8,0:1:0:0:
269,177,215421,53,4,1:2:0:0:
297,309,215570,1,8,0:1:0:0:
424,355,215718,1,8,0:1:0:0:
262,189,215867,53,4,1:2:0:0:
254,201,215941,1,0,1:0:0:0:
246,213,216015,1,0,1:0:0:0:
238,225,216090,1,0,1:0:0:0:
230,237,216164,53,8,0:3:0:0:
219,218,216238,1,8,0:3:0:0:
208,199,216312,1,8,0:1:0:0:
197,180,216387,1,8,0:3:0:0:
187,160,216461,53,4,2:3:0:0:
214,155,216535,1,4,2:3:0:0:
242,151,216609,1,4,2:3:0:0:
269,147,216684,1,4,2:3:0:0:
297,143,216758,102,0,B|320:130|334:126|334:126|371:83|346:14|280:12,1,198.000006042481,4|8,1:1|0:1,0:0:0:0:
83,153,217203,2,0,B|46:197|-6:186|-6:186|-16:128|28:93,1,198.000006042481,2|8,1:2|0:1,0:0:0:0:
243,184,217649,69,2,1:2:0:0:
33,288,217797,1,8,0:1:0:0:
83,153,217946,53,2,1:2:0:0:
211,332,218094,1,8,0:1:0:0:
369,277,218243,102,0,P|476:297|509:404,1,198.000006042481,4|8,1:2|0:1,0:0:0:0:
291,243,218688,2,0,P|398:223|431:116,1,198.000006042481,2|8,1:2|0:1,0:0:0:0:
304,0,219134,69,2,1:2:0:0:
268,152,219282,1,8,0:1:0:0:
160,41,219431,53,2,1:2:0:0:
199,220,219579,1,8,0:1:0:0:
59,138,219728,102,0,B|21:137|-3:165|-3:165|-11:225|26:290,1,198.000006042481,4|8,1:2|0:1,0:0:0:0:
303,224,220173,2,0,B|341:223|365:251|365:251|373:311|336:376,1,198.000006042481,2|8,1:2|0:1,0:0:0:0:
119,216,220619,69,2,1:2:0:0:
203,384,220767,1,8,0:1:0:0:
218,178,220916,53,2,1:2:0:0:
107,349,221064,1,8,0:1:0:0:
13,219,221213,38,0,P|-15:131|52:27,1,198.000006042481,4|8,1:2|2:1,0:0:0:0:
193,263,221658,2,0,P|286:296|370:250,1,198.000006042481,2|8,1:2|2:1,0:0:0:0:
507,58,222104,5,8,3:3:0:0:
502,97,222178,1,8,3:3:0:0:
497,136,222253,1,8,3:3:0:0:
492,175,222327,1,8,3:3:0:0:
485,213,222401,53,4,3:3:0:0:
482,193,222475,1,4,3:3:0:0:
478,173,222550,1,4,3:3:0:0:
474,153,222624,1,4,3:3:0:0:
470,133,222698,38,0,B|392:123|373:213|373:213|359:161|310:148,1,215.999993408203,4|0,1:1|0:0,0:0:0:0:
208,34,223144,2,0,B|191:6|155:-1|155:-1|121:50|145:107|204:124,1,215.999993408203,2|0,1:2|0:0,0:0:0:0:
287,232,223589,5,2,1:2:0:0:
330,23,223738,1,8,0:1:0:0:
199,197,223886,53,2,1:2:0:0:
412,53,224035,1,8,0:1:0:0:
204,201,224183,102,0,B|158:240|149:304|186:347|186:347|186:315|156:292,1,215.999993408203,4|8,1:2|0:1,0:0:0:0:
9,174,224629,2,0,B|-4:161|-25:172|-28:205|17:242|93:212|105:131|41:68,1,215.999993408203,2|8,1:2|0:1,0:0:0:0:
102,14,225074,69,2,1:2:0:0:
9,174,225223,1,8,0:1:0:0:
190,69,225371,53,2,1:2:0:0:
158,262,225520,1,8,0:1:0:0:
294,77,225668,102,0,B|310:63|321:39|321:39|398:1|458:63,1,198.000006042481,4|8,1:2|0:1,0:0:0:0:
214,186,226114,2,0,B|271:188|309:232|311:285|311:285|291:307|288:330,1,198.000006042481,2|8,1:2|0:1,0:0:0:0:
378,353,226559,69,2,1:2:0:0:
216,275,226708,1,8,0:1:0:0:
420,215,226857,53,2,1:2:0:0:
202,268,227005,1,8,0:1:0:0:
509,209,227154,38,0,P|488:153|347:164,1,198.000006042481,4|0,1:2|0:0,0:0:0:0:
121,362,227599,38,0,B|99:368|87:378|87:378|49:288|148:214|221:282,1,251.999992309571,4|0,1:1|0:0,0:0:0:0:
415,359,228045,85,0,1:0:0:0:
439,378,228119,1,0,1:0:0:0:
478,374,228193,1,0,1:0:0:0:
494,346,228267,1,0,1:0:0:0:
487,309,228342,1,8,0:3:0:0:
447,283,228416,1,8,0:3:0:0:
388,286,228490,1,4,0:3:0:0:
339,258,228564,1,4,0:3:0:0:
328,199,228639,2,0,P|336:167|386:126,1,62.9999980773926,8|0,1:2|0:0,0:0:0:0:
434,134,228787,53,8,0:1:0:0:
90,50,228936,1,12,0:1:0:0:
90,50,229827,70,0,P|102:31|118:15,1,45,2|0,0:0|0:0,0:0:0:0:
130,9,230421,1,2,0:0:0:0:
59,155,230718,54,0,B|35:160|10:148|10:148|3:137|1:121,1,75
1,114,231609,1,2,0:0:0:0:
167,124,231906,54,0,P|183:121|195:118,1,22.5
261,155,232203,2,0,P|277:152|289:149,1,22.5,2|0,0:0|0:0,0:0:0:0:
351,113,232500,54,0,B|334:71|370:40|370:40|386:62,1,108,4|0,0:1|0:0,0:0:0:0:
390,70,233094,1,0,0:0:0:0:
395,79,233242,1,0,0:0:0:0:
481,143,233391,53,2,0:0:0:0:
431,198,233539,1,0,0:0:0:0:
356,194,233688,1,0,0:0:0:0:
301,272,233836,53,2,0:0:0:0:
336,313,233985,1,0,0:0:0:0:
388,312,234134,1,0,0:0:0:0:
457,360,234282,53,0,0:0:0:0:
295,264,234579,2,0,P|270:250|244:242,1,53.9999983520508,0|2,3:0|0:0,0:0:0:0:
457,360,235173,53,0,3:0:0:0:
177,190,235470,2,0,P|155:209|140:231,1,53.9999983520508,2|8,0:0|0:0,0:0:0:0:
139,238,235693,1,8,0:0:0:0:
137,245,235767,1,8,0:3:0:0:
64,132,235916,1,4,0:3:0:0:
57,348,236064,6,0,B|30:370|30:370|-16:348|-30:284|13:239,1,180,12|10,0:1|0:1,0:0:0:0:
177,190,236510,2,0,P|184:141|154:94,1,90,0|8,3:0|0:1,0:0:0:0:
100,51,236807,1,0,1:0:0:0:
133,258,236955,54,0,B|149:285|176:298|176:298|244:301|290:254,1,180,10|8,0:1|0:1,0:0:0:0:
393,143,237401,1,0,1:0:0:0:
338,87,237549,1,10,3:1:0:0:
317,161,237698,1,0,1:0:0:0:
405,364,237846,54,0,B|435:357|456:335|456:335|480:271|454:218,1,180,12|10,0:0|0:1,0:0:0:0:
331,79,238292,2,0,B|300:54|265:72|265:72|276:76|285:84,1,90,0|8,3:0|0:1,0:0:0:0:
315,151,238589,1,0,1:0:0:0:
487,36,238737,54,0,P|476:84|399:86,1,107.999996704102,8|0,3:1|0:0,0:0:0:0:
167,68,239035,2,0,P|268:59|314:150,1,215.999993408203,8|8,0:1|0:3,0:0:0:0:
408,231,239480,1,0,0:0:0:0:
408,231,239629,102,0,L|420:301,2,72,4|2|0,0:1|0:0|0:0,0:0:0:0:
314,150,240520,54,0,L|302:79,2,62.9999980773926,0|2|0,0:0|0:0|0:0,0:0:0:0:
245,245,241411,54,0,L|254:303,2,53.9999983520508,0|2|0,0:0|0:0|0:0,0:0:0:0:
158,188,242302,54,0,L|150:138,2,45,0|2|0,0:0|0:0|0:0,0:0:0:0:
83,239,243193,85,4,1:0:0:0:
145,334,243341,1,8,0:1:0:0:
247,311,243490,1,8,0:1:0:0:
418,120,243638,53,4,1:2:0:0:
356,215,243787,1,8,0:1:0:0:
254,192,243936,1,8,0:1:0:0:
122,60,244084,53,4,1:2:0:0:
312,97,244233,1,8,0:1:0:0:
96,139,244381,53,0,1:2:0:0:
319,12,244530,1,8,0:1:0:0:
8,26,244678,53,4,1:2:0:0:
171,221,244827,1,8,0:1:0:0:
402,60,244975,102,0,B|406:32|421:13|444:5|456:-17|456:-17|464:-6|489:14|494:59|471:97|471:97|471:97|471:97|503:111|513:145|508:169|522:190|522:190|507:192|478:204|436:186|415:145|415:145|415:145|415:145|415:144|388:166|353:157|334:141|309:142|309:142|315:129|319:98|356:71|402:72,1,691.2,4|12,0:1|0:1,0:0:0:0:
488,219,250322,101,4,0:3:0:0:
364,162,252104,53,8,0:3:0:0:
245,309,253886,53,4,0:3:0:0:
37,256,255668,6,0,P|62:232|41:264,1,107.999996704102,12|0,0:1|0:2,0:0:0:0:
7,337,256114,2,0,P|55:313|151:302,1,135.000005149842,0|0,3:0|3:0,0:0:0:0:
246,246,256559,2,0,P|192:238|144:214,1,107.999996704102,10|0,0:1|0:2,0:0:0:0:
144,214,257005,1,0,3:2:0:0:
216,159,257153,2,0,P|226:139|219:84,1,67.5000025749208,0|0,0:2|0:2,0:0:0:0:
164,35,257450,2,0,B|133:52|133:52|99:34|51:36,1,107.999996704102,10|0,0:1|0:0,0:0:0:0:
79,120,257896,2,0,P|21:135|6:214,1,135.000005149842,0|0,3:2|3:2,0:0:0:0:
70,303,258341,54,0,P|40:298|-20:299,1,62.9999980773926,10|0,0:1|3:2,0:0:0:0:
124,193,258638,2,0,P|134:221|165:272,1,62.9999980773926,2|0,0:2|3:2,0:0:0:0:
1,201,258936,2,0,P|20:177|49:125,1,62.9999980773926,2|0,0:1|3:2,0:0:0:0:
222,103,259233,70,0,P|167:106|91:73,1,121.499996292114,12|0,0:1|0:2,0:0:0:0:
237,91,259530,2,0,P|265:37|311:0,1,121.499996292114,10|0,0:1|0:2,0:0:0:0:
239,109,259827,2,0,P|271:160|281:219,1,121.499996292114,10|0,0:1|0:2,0:0:0:0:
328,305,260124,54,0,B|358:337|406:313|406:313|388:293|347:293,1,135,12|0,0:2|0:2,0:0:0:0:
277,236,260421,2,0,P|232:271|143:258,1,135,10|0,0:1|0:0,0:0:0:0:
88,225,260718,1,10,0:1:0:0:
0,332,260866,53,8,0:1:0:0:
0,332,260940,1,8,0:1:0:0:
0,332,261015,2,0,P|46:340|89:304,1,99.0000030212403,4|8,1:2|0:1,0:0:0:0:
162,182,261312,53,0,1:0:0:0:
159,172,261386,1,0,1:0:0:0:
156,162,261460,2,0,P|150:129|162:96,1,49.5000015106202,8|8,0:1|0:1,0:0:0:0:
283,23,261609,53,8,0:3:0:0:
281,94,261683,1,8,0:3:0:0:
350,116,261757,1,4,0:3:0:0:
392,58,261831,1,4,0:3:0:0:
350,0,261906,1,8,1:1:0:0:
512,230,262797,70,0,B|467:291|394:259|394:259|375:204|322:186,1,233.999989288331,12|0,0:1|0:0,0:0:0:0:
192,147,263242,1,0,1:0:0:0:
226,275,263391,1,2,0:2:0:0:
292,59,263539,1,8,0:1:0:0:
347,199,263688,54,0,B|388:218|444:183|438:126|438:126|402:109,1,175.499991966248,8|0,0:1|0:0,0:0:0:0:
400,120,263985,2,0,P|378:162|422:298,1,175.499991966248,0|0,1:0|0:0,0:0:0:0:
374,350,264282,2,0,P|422:326|476:327,1,99.0000030212403,10|0,2:1|0:0,0:0:0:0:
294,194,264579,53,8,0:1:0:0:
228,239,264728,2,0,B|177:225|177:225|115:150|10:141,1,233.999989288331,8|0,2:1|1:0,0:0:0:0:
222,125,265173,53,2,0:0:0:0:
14,255,265322,1,8,0:1:0:0:
228,239,265470,53,2,1:2:0:0:
21,142,265619,1,0,2:2:0:0:
160,308,265767,53,10,0:1:0:0:
93,69,265916,1,0,0:0:0:0:
166,321,266064,54,0,B|193:370|260:351|260:351|272:332|305:313,1,135,12|0,0:0|0:0,0:0:0:0:
364,315,266361,54,0,B|406:345|406:345|488:361|548:256|490:193,1,270.000010299683,12|0,0:1|0:0,0:0:0:0:
353,55,266807,2,0,B|375:123|443:112|443:112|457:76|443:56,1,175.499991966248,0|0,1:2|0:0,0:0:0:0:
443,56,267104,1,8,0:1:0:0:
266,168,267252,54,0,P|167:178|145:96,1,175.499991966248,12|0,0:0|0:0,0:0:0:0:
257,69,267549,2,0,P|280:117|266:168,1,107.999996704102,0|0,1:0|0:0,0:0:0:0:
51,117,267846,2,0,P|64:65|108:35,1,107.999996704102,8|0,2:1|0:0,0:0:0:0:
277,185,268143,54,0,B|370:206|417:108|417:108|477:95|514:146,1,270.000010299683,12|0,0:1|0:0,0:0:0:0:
397,300,268589,2,0,B|398:369|439:425|532:402|519:322|476:309,1,233.999989288331,0|8,1:2|0:1,0:0:0:0:
337,219,269035,2,0,B|308:231|277:224|277:224|264:196|236:178,1,116.999994644165,4|0,1:2|0:0,0:0:0:0:
41,100,269332,53,8,1:3:0:0:
12,128,269406,1,0,3:3:0:0:
6,168,269480,1,0,3:3:0:0:
24,204,269554,1,0,3:3:0:0:
0,273,269629,53,4,3:3:0:0:
13,261,269703,1,0,3:3:0:0:
29,256,269777,1,0,3:3:0:0:
46,253,269851,1,0,3:3:0:0:
63,257,269926,54,0,B|45:336|106:369|106:369|136:367|162:336,2,180,12|0|2,0:1|3:0|0:2,0:0:0:0:
103,186,270668,1,8,0:1:0:0:
167,364,270817,2,0,B|210:398|283:384|283:384|293:350|331:321,1,180,0|8,1:0|0:1,0:0:0:0:
413,273,271262,53,0,3:0:0:0:
355,191,271411,1,2,0:0:0:0:
369,93,271559,1,8,0:1:0:0:
242,15,271708,53,8,0:1:0:0:
242,15,271856,2,0,B|266:58|243:105|194:120|194:120|173:105|152:102,1,180,2|0,3:0|3:0,0:0:0:0:
0,163,272302,2,0,P|45:136|90:142,1,90,2|8,0:3|0:1,0:0:0:0:
186,330,272599,2,0,P|150:248|150:177,1,153.000002918243,0|0,1:0|3:0,0:0:0:0:
219,50,273044,2,0,P|177:65|153:101,1,90,0|2,1:2|0:0,0:0:0:0:
289,213,273341,53,8,0:1:0:0:
289,213,273416,1,2,0:3:0:0:
289,213,273490,2,0,B|327:224|327:224|392:171|498:174,1,215.999993408203,12|0,0:1|0:0,0:0:0:0:
419,146,273936,1,2,0:0:0:0:
390,78,274084,1,8,0:1:0:0:
390,78,274233,1,0,3:0:0:0:
510,179,274381,54,0,P|517:221|477:288,1,90,0|0,1:0|0:0,0:0:0:0:
380,376,274678,2,0,L|365:270,1,90,2|0,0:0|3:0,0:0:0:0:
262,108,274975,2,0,L|252:204,1,90,10|0,0:1|0:0,0:0:0:0:
77,347,275272,54,0,B|64:353|56:365|56:365|64:306|114:282|114:282|79:252|89:197,1,215.999993408203,12|0,0:0|0:0,0:0:0:0:
205,43,275718,2,0,B|206:105|284:128|326:97|326:97|333:66|364:42,1,215.999993408203,8|8,0:1|0:1,0:0:0:0:
512,26,276163,101,4,1:0:0:0:
483,165,276312,1,8,0:1:0:0:
406,216,276460,53,2,2:0:0:0:
353,50,276609,1,8,0:1:0:0:
277,1,276757,53,0,1:0:0:0:
239,207,276906,1,0,1:0:0:0:
165,157,277054,70,0,P|168:98|68:78,1,161.999995056153,12|0,0:1|0:0,0:0:0:0:
32,126,277351,2,0,L|42:248,1,90,8|0,0:1|0:0,0:0:0:0:
153,279,277648,54,0,B|189:290|224:267|224:267|241:226|280:215,1,148.50000453186,8|0,0:1|0:0,0:0:0:0:
265,146,277945,2,0,B|285:176|316:175|316:175|333:166,1,80.9999975280763,0|0,1:0|0:0,0:0:0:0:
469,91,278242,53,0,1:0:0:0:
469,91,278391,1,0,0:0:0:0:
408,284,278539,53,0,1:0:0:0:
408,284,278688,1,0,0:0:0:0:
265,146,278836,53,4,1:0:0:0:
278,291,278985,1,8,0:1:0:0:
401,368,279134,1,8,0:1:0:0:
276,168,279282,53,4,1:2:0:0:
176,286,279431,1,8,0:1:0:0:
28,243,279579,1,8,0:1:0:0:
129,49,279728,101,4,1:2:0:0:
134,88,279802,1,0,1:0:0:0:
139,127,279876,1,8,1:1:0:0:
144,166,279950,1,0,1:0:0:0:
170,151,280025,53,8,2:3:0:0:
166,119,280099,1,8,2:3:0:0:
162,88,280173,1,4,2:3:0:0:
158,57,280247,1,8,2:1:0:0:
140,69,280322,53,4,2:3:0:0:
143,94,280396,1,4,2:3:0:0:
146,119,280470,1,4,2:3:0:0:
149,144,280544,1,4,2:3:0:0:
170,151,280619,2,0,P|241:154|265:34,1,198.000006042481,12|2,0:1|0:0,0:0:0:0:
212,2,281064,69,0,1:2:0:0:
292,126,281213,2,0,B|312:147|342:150|366:134|366:134|354:98,1,99.0000030212403,0|8,0:1|3:1,0:0:0:0:
420,32,281436,1,0,3:0:0:0:
424,24,281510,2,0,B|436:10|436:10|457:-1|491:5|506:34,1,99.0000030212403,10|0,0:1|0:0,0:0:0:0:
376,328,281807,54,0,B|346:373|286:356|286:356|280:300|327:267,1,198.000006042481,12|0,0:0|3:0,0:0:0:0:
461,176,282252,1,0,1:0:0:0:
210,278,282401,53,12,2:1:0:0:
245,291,282475,1,0,3:0:0:0:
288,290,282549,1,0,3:0:0:0:
260,195,282698,53,0,0:0:0:0:
379,336,282846,2,0,P|432:351|488:331,1,99.0000030212403,0|2,1:0|0:0,0:0:0:0:
256,176,283143,53,8,0:1:0:0:
83,362,283292,2,0,B|80:380|63:384|63:384|56:365|66:336|98:326,1,99.0000030212403,0|8,1:0|0:1,0:0:0:0:
256,176,283589,2,0,P|197:204|145:192,1,99.0000030212403,2|0,0:0|1:0,0:0:0:0:
127,187,283812,1,0,1:0:0:0:
102,155,283886,2,0,B|75:92|132:47|132:47|161:71,1,148.50000453186,10|0,0:1|0:0,0:0:0:0:
175,68,284183,54,0,P|80:85|-32:88,1,198.000006042481,12|0,0:1|0:0,0:0:0:0:
245,0,284629,1,0,1:0:0:0:
102,155,284777,1,2,0:0:0:0:
245,0,284926,1,8,0:1:0:0:
321,196,285074,54,0,P|403:202|530:249,1,198.000006042481,0|12,1:0|0:0,0:0:0:0:
251,128,285520,1,2,0:0:0:0:
394,283,285668,2,0,B|385:307|363:321|363:321|340:325|315:315,1,99.0000030212403,0|0,3:0|1:0,0:0:0:0:
129,186,285891,1,0,1:0:0:0:
102,155,285965,54,0,B|90:137|84:132|84:132|140:109|218:183|156:271,1,215.999993408203,12|2,0:1|0:0,0:0:0:0:
3,373,286411,2,0,B|5:347|23:328|23:328|44:318|71:321,1,99.0000030212403,0|0,1:0|0:0,0:0:0:0:
222,356,286708,1,8,0:1:0:0:
417,53,286856,53,4,1:2:0:0:
251,128,287005,1,8,0:1:0:0:
427,162,287153,1,0,1:0:0:0:
427,162,287228,1,0,1:0:0:0:
427,162,287302,1,0,1:0:0:0:
306,26,287450,1,4,0:3:0:0:
327,208,287598,1,0,1:0:0:0:
185,60,287747,54,0,B|173:40|144:26|144:26|63:21|12:71,1,198.000006042481,12|0,0:1|0:0,0:0:0:0:
32,212,288193,1,0,1:0:0:0:
15,83,288341,2,0,P|76:92|87:157,1,99.0000030212403,2|0,0:0|3:0,0:0:0:0:
152,297,288564,1,0,3:0:0:0:
156,305,288638,2,0,P|199:327|242:307,1,99.0000030212403,0|0,1:0|0:0,0:0:0:0:
92,120,288936,54,0,B|81:85|-3:92|1:195|74:224,1,198.000006042481,12|0,0:0|0:0,0:0:0:0:
149,290,289381,1,0,1:0:0:0:
186,123,289530,53,12,0:1:0:0:
202,80,289604,1,0,3:0:0:0:
239,54,289678,1,0,3:0:0:0:
275,137,289827,1,0,3:0:0:0:
486,7,289975,2,0,P|408:34|380:72,1,99.0000030212403,0|2,1:0|0:0,0:0:0:0:
281,155,290272,1,8,0:1:0:0:
428,352,290421,53,0,1:0:0:0:
288,175,290569,1,8,0:1:0:0:
510,160,290718,2,0,B|492:140|492:140|448:132|421:159,1,99.0000030212403,2|0,0:0|1:0,0:0:0:0:
404,191,290940,1,0,1:0:0:0:
400,229,291015,2,0,B|404:292|340:304|340:304|315:276|324:246,1,161.999995056153,10|0,0:1|0:0,0:0:0:0:
404,190,291312,54,0,P|502:192|510:290,1,215.999993408203,12|0,0:1|0:0,0:0:0:0:
336,357,291757,53,0,1:0:0:0:
267,226,291906,1,2,0:0:0:0:
363,109,292054,1,8,0:1:0:0:
510,290,292203,2,0,P|502:192|404:190,1,215.999993408203,0|12,1:0|0:0,0:0:0:0:
181,264,292648,53,2,0:0:0:0:
250,133,292797,1,0,3:0:0:0:
154,16,292945,1,0,1:0:0:0:
6,197,293094,54,0,P|13:98|112:97,1,215.999993408203,12|8,0:1|0:1,0:0:0:0:
497,127,293539,54,0,P|489:28|390:27,1,215.999993408203,4|8,1:2|0:1,0:0:0:0:
220,358,293985,53,4,1:2:0:0:
232,361,294060,1,0,1:0:0:0:
245,365,294134,1,8,1:1:0:0:
258,369,294208,1,0,1:0:0:0:
268,372,294282,37,0,1:2:0:0:
327,321,294381,1,8,1:3:0:0:
302,247,294480,1,8,1:3:0:0:
230,182,294579,53,4,1:3:0:0:
208,153,294678,1,8,1:3:0:0:
220,119,294777,1,8,1:3:0:0:
294,65,294876,102,0,P|348:80|406:49,1,107.999996704102,12|0,3:1|0:2,0:0:0:0:
450,10,295322,1,0,0:2:0:0:
466,83,295470,1,0,0:2:0:0:
394,61,295619,1,0,0:2:0:0:
341,131,295767,54,0,P|327:172|341:252,1,107.999996704102,2|0,1:2|0:2,0:0:0:0:
379,295,296213,1,0,0:2:0:0:
452,278,296361,1,0,0:2:0:0:
500,336,296510,1,0,0:2:0:0:
450,261,296658,54,0,P|448:232|455:202,2,53.9999983520508,2|0|0,3:2|0:2|0:0,0:0:0:0:
389,325,297104,1,0,0:2:0:0:
389,325,297178,1,0,0:2:0:0:
389,325,297252,2,0,P|354:334|315:329,1,53.9999983520508,0|0,0:2|0:2,0:0:0:0:
253,384,297549,2,0,L|261:313,1,53.9999983520508,0|0,1:2|0:2,0:0:0:0:
177,266,297846,2,0,L|249:253,1,53.9999983520508,0|0,0:2|0:2,0:0:0:0:
298,205,298143,1,2,0:0:0:0:
298,205,298292,1,0,3:0:0:0:
243,138,298440,54,0,P|203:123|126:133,1,107.999996704102,2|0,3:2|0:2,0:0:0:0:
70,161,298886,1,0,0:2:0:0:
75,85,299035,1,0,0:2:0:0:
139,128,299183,1,0,0:2:0:0:
58,179,299332,54,0,P|41:218|55:298,1,107.999996704102,2|0,1:2|0:2,0:0:0:0:
84,346,299777,1,0,0:2:0:0:
157,328,299926,1,0,0:2:0:0:
215,375,300074,1,0,0:2:0:0:
302,332,300223,54,0,P|312:284|295:214,1,107.999996704102,2|0,3:2|0:2,0:0:0:0:
250,171,300668,1,0,0:2:0:0:
324,154,300817,1,0,0:2:0:0:
301,226,300965,1,0,0:2:0:0:
229,167,301114,54,0,P|201:160|164:157,1,53.9999983520508,2|0,1:2|0:0,0:0:0:0:
83,183,301411,1,0,0:2:0:0:
83,183,301485,1,0,0:2:0:0:
83,183,301559,1,0,0:2:0:0:
119,94,301708,1,0,3:2:0:0:
148,239,301856,1,0,3:2:0:0:
229,167,302005,54,0,P|308:139|377:155,1,135.000005149842,12|0,3:1|0:2,0:0:0:0:
430,172,302450,1,0,0:2:0:0:
416,95,302599,1,0,0:2:0:0:
357,146,302747,1,0,0:2:0:0:
445,185,302896,54,0,P|461:243|434:333,1,135.000005149842,2|0,1:2|0:2,0:0:0:0:
404,380,303341,1,0,0:2:0:0:
334,345,303490,1,0,0:2:0:0:
260,370,303638,1,0,0:2:0:0:
185,309,303787,54,0,L|176:232,2,67.5000025749208,2|0|0,3:2|0:2|0:0,0:0:0:0:
267,377,304233,1,0,0:2:0:0:
267,377,304307,1,0,0:2:0:0:
267,377,304381,2,0,P|304:379|337:361,1,67.5000025749208,0|0,0:2|0:2,0:0:0:0:
426,257,304678,53,2,1:2:0:0:
409,333,304827,1,0,3:2:0:0:
351,280,304975,1,2,0:2:0:0:
484,310,305124,1,0,3:2:0:0:
443,181,305272,1,2,3:2:0:0:
443,181,305421,1,0,3:2:0:0:
342,267,305569,54,0,P|281:270|226:213,1,135.000005149842,2|0,3:2|0:2,0:0:0:0:
220,144,306015,1,0,0:2:0:0:
269,84,306163,1,0,0:2:0:0:
219,23,306312,1,0,0:2:0:0:
149,83,306460,54,0,P|72:73|23:121,1,135.000005149842,2|0,1:2|0:2,0:0:0:0:
2,179,306906,1,0,0:2:0:0:
47,241,307054,1,0,0:2:0:0:
32,317,307203,1,0,0:2:0:0:
111,369,307351,54,0,L|259:357,1,135.000005149842,2|0,3:2|0:2,0:0:0:0:
321,373,307797,1,0,0:2:0:0:
297,299,307945,1,0,0:2:0:0:
245,358,308094,1,0,0:2:0:0:
311,285,308242,54,0,P|319:253|303:191,1,67.5000025749208,2|0,1:2|0:0,0:0:0:0:
237,157,308539,2,0,L|199:165,2,33.7500012874604,0|0|0,0:2|0:2|0:2,0:0:0:0:
324,86,308836,37,4,0:3:0:0:
324,86,308985,2,0,B|346:143|491:249|642:167|565:-85|287:-32|346:193|412:284|489:307,1,612,4|0,0:3|3:2,0:0:0:0:
