osu file format v14

[General]
AudioFilename: audio.mp3
AudioLeadIn: 0
PreviewTime: 98206
Countdown: 0
SampleSet: Soft
StackLeniency: 0.6
Mode: 0
LetterboxInBreaks: 0
WidescreenStoryboard: 1

[Editor]
Bookmarks: 36758,65273,99134,113392,145471,173986,198936,222698,248539,280619,294876,312549
DistanceSpacing: 0.87
BeatDivisor: 4
GridSize: 32
TimelineZoom: 2.3

[Metadata]
Title:Scutellaria
TitleUnicode:Scutellaria
Artist:ViANKiE
ArtistUnicode:ViANKiE
Creator:Lasse
Version:Collab Blossom
Source:
Tags:impurepug hishiro chizuru amb1d3x collab japanese pop folk utaite cover 西坂 恭平 nishizaka kyohei kyouhei 鍵倉 秋の匂い 紫のあ いつか花になって スカトル scuttle crab
BeatmapID:2760473
BeatmapSetID:1332323

[Difficulty]
HPDrainRate:5
CircleSize:4
OverallDifficulty:9
ApproachRate:9.3
SliderMultiplier:2
SliderTickRate:1

[Events]
//Background and Video events
0,0,"bbb.jpg",0,0
//Break Periods
//Storyboard Layer 0 (Background)
//Storyboard Layer 1 (Fail)
//Storyboard Layer 2 (Pass)
//Storyboard Layer 3 (Foreground)
//Storyboard Layer 4 (Overlay)
//Storyboard Sound Samples

[TimingPoints]
-2226,400,3,2,35,20,1,0
2174,-200,3,2,35,20,0,0
2574,-142.857142857143,3,2,35,20,0,0
6974,-200,3,2,35,20,0,0
7374,-142.857142857143,3,2,35,20,0,0
11774,-200,3,2,35,20,0,0
12174,-142.857142857143,3,2,35,20,0,0
13374,-166.666666666667,3,2,35,20,0,0
14174,-200,3,2,35,20,0,0
14574,-142.857142857143,3,2,35,20,0,0
16974,-142.857142857143,3,2,35,24,0,0
17074,-142.857142857143,3,2,35,20,0,0
18174,-125,3,2,35,18,0,0
18574,-142.857142857143,3,2,35,20,0,0
18974,-166.666666666667,3,2,35,22,0,0
19374,521.172638436482,3,2,35,25,1,0
19374,-200,3,2,35,25,0,0
19504,-200,3,2,35,5,0,0
20676,-200,3,2,35,18,0,0
20807,-200,3,2,35,10,0,0
21458,-200,3,2,35,16,0,0
21979,-200,3,2,35,24,0,0
22240,-200,3,2,35,30,0,0
22370,-200,3,2,35,5,0,0
22501,297.029702970297,6,2,35,45,1,0
22501,-142.857142857143,6,2,35,45,0,0
29629,-133.333333333333,6,2,35,50,0,0
35718,-133.333333333333,6,2,34,52,0,0
36164,-133.333333333333,6,2,34,54,0,0
36461,-133.333333333333,6,2,35,56,0,0
36609,-100,6,2,35,52,0,0
36758,-100,6,2,34,62,0,0
39208,-100,6,2,34,30,0,0
39283,-100,6,2,34,62,0,0
45001,-100,6,2,34,30,0,0
45076,-100,6,2,34,62,0,0
47451,-125,6,2,34,56,0,0
50421,-125,6,2,34,52,0,0
50718,-125,6,2,34,48,0,0
51015,-200,6,2,35,40,0,0
51164,-200,6,2,35,34,0,0
58144,-166.666666666667,6,2,35,42,0,0
58293,-166.666666666667,6,2,35,36,0,0
64233,-166.666666666667,6,2,34,40,0,0
64679,-166.666666666667,6,2,34,45,0,0
64976,-166.666666666667,6,2,34,48,0,0
65273,-111.111111111111,6,2,34,52,0,0
69951,-111.111111111111,6,2,34,30,0,0
70025,-111.111111111111,6,2,34,52,0,0
73515,-111.111111111111,6,2,34,30,0,0
73589,-111.111111111111,6,2,34,52,0,0
77971,-111.111111111111,6,2,34,30,0,0
78045,-111.111111111111,6,2,34,52,0,0
79085,-111.111111111111,6,2,34,48,0,0
79233,-111.111111111111,6,2,34,46,0,0
79382,-111.111111111111,6,2,34,44,0,0
79530,-100,6,2,99,34,0,0
81312,-100,6,2,35,34,0,0
83095,-100,6,2,99,36,0,0
84877,-100,6,2,35,34,0,0
86213,-100,6,2,34,40,0,0
86659,-100,6,2,34,50,0,0
86882,-100,6,2,34,30,0,0
86956,-100,6,2,34,50,0,0
88441,-100,6,2,34,52,0,0
88664,-100,6,2,34,30,0,0
88738,-100,6,2,34,52,0,0
90223,-200,6,2,34,30,0,0
91114,-222.222222222222,6,2,34,28,0,0
92005,-250,6,2,34,26,0,0
92897,-285.714285714286,6,2,35,24,0,0
93788,-100,6,2,34,60,0,0
94233,-100,6,2,34,62,0,0
94679,-100,6,2,34,64,0,0
94976,-100,6,2,34,66,0,0
95273,-100,6,2,34,63,0,0
95570,-100,6,2,34,20,0,0
96758,-100,6,2,34,30,0,0
97055,-100,6,2,34,40,0,0
97352,-100,6,2,34,50,0,0
97649,-100,6,2,34,60,0,0
97946,-100,6,2,34,70,0,0
98243,-100,6,2,35,30,0,0
99134,-100,6,2,34,70,0,0
104703,-100,6,2,34,30,0,0
104777,-100,6,2,34,70,0,0
104852,-100,6,2,34,30,0,0
104926,-100,6,2,34,70,0,0
107377,-100,6,2,34,30,0,0
107451,-100,6,2,34,70,0,0
108268,-100,6,2,34,30,0,0
108342,-100,6,2,34,70,0,0
108416,-100,6,2,34,30,0,0
108490,-100,6,2,34,70,0,0
111832,-100,6,2,34,30,0,0
111906,-100,6,2,34,70,0,0
111981,-100,6,2,34,30,0,0
112055,-100,6,2,34,70,0,0
112278,-100,6,2,34,30,0,0
112352,-100,6,2,34,70,0,0
112426,-100,6,2,34,30,0,0
112500,-100,6,2,34,62,0,0
112798,-100,6,2,34,65,0,0
113095,-100,6,2,34,68,0,0
113392,-100,6,2,34,70,0,0
118961,-100,6,2,34,30,0,0
119035,-100,6,2,34,70,0,0
120223,-100,6,2,34,68,0,0
120372,-100,6,2,34,66,0,0
120520,-100,6,2,34,65,0,0
127055,-100,6,2,34,67,0,0
127501,-100,6,2,34,68,0,0
127649,-100,6,2,34,70,0,0
127872,-100,6,2,34,30,0,0
127946,-100,6,2,34,70,0,0
128466,-100,6,2,34,30,0,0
128540,-100,6,2,34,70,0,0
130619,-100,6,2,34,68,0,0
130916,-100,6,2,34,65,0,0
131213,-111.111111111111,6,2,34,60,0,0
138342,-200,6,2,35,40,0,0
144877,-200,6,2,35,48,0,0
145174,-200,6,2,34,50,0,0
145471,-111.111111111111,6,2,34,50,0,0
151560,-111.111111111111,6,2,34,52,0,0
152302,-111.111111111111,6,2,34,54,0,0
158169,-111.111111111111,6,2,34,30,0,0
158243,-111.111111111111,6,2,34,54,0,0
158317,-111.111111111111,6,2,34,30,0,0
158392,-111.111111111111,6,2,34,54,0,0
164406,-111.111111111111,6,2,34,30,0,0
164481,-111.111111111111,6,2,34,54,0,0
166411,-111.111111111111,6,2,34,48,0,0
166560,-111.111111111111,6,2,34,46,0,0
166708,-111.111111111111,6,2,34,44,0,0
166857,-100,6,2,99,34,0,0
168639,-100,6,2,35,34,0,0
170421,-100,6,2,99,30,0,0
172203,-100,6,2,35,34,0,0
173986,-100,6,2,34,52,0,0
174208,-100,6,2,34,30,0,0
174283,-100,6,2,34,52,0,0
175768,-100,6,2,34,54,0,0
175991,-100,6,2,34,30,0,0
176065,-100,6,2,34,54,0,0
177550,-200,6,2,34,30,0,0
178441,-222.222222222222,6,2,34,28,0,0
179332,-250,6,2,34,26,0,0
180223,-285.714285714286,6,2,34,24,0,0
181114,-100,6,2,34,60,0,0
181411,-100,6,2,34,61,0,0
181708,-100,6,2,34,62,0,0
182005,-100,6,2,34,63,0,0
182302,-100,6,2,34,64,0,0
182600,-100,6,2,34,65,0,0
182897,-90.9090909090909,6,2,34,66,0,0
184382,-90.9090909090909,6,2,35,66,0,0
184679,-90.9090909090909,6,2,34,72,0,0
192921,-90.9090909090909,6,2,34,30,0,0
192996,-90.9090909090909,6,2,34,72,0,0
204505,-90.9090909090909,6,2,34,30,0,0
204580,-90.9090909090909,6,2,34,72,0,0
204654,-90.9090909090909,6,2,34,30,0,0
204728,-90.9090909090909,6,2,34,72,0,0
204951,-90.9090909090909,6,2,34,30,0,0
205025,-90.9090909090909,6,2,34,72,0,0
205100,-90.9090909090909,6,2,34,30,0,0
205174,-90.9090909090909,6,2,34,72,0,0
205471,-90.9090909090909,6,2,34,70,0,0
205768,-90.9090909090909,6,2,34,68,0,0
206065,-90.9090909090909,6,2,34,66,0,0
212600,-90.9090909090909,6,2,34,68,0,0
212897,-90.9090909090909,6,2,34,70,0,0
213194,-90.9090909090909,6,2,34,72,0,0
213416,-90.9090909090909,6,2,34,30,0,0
213491,-133.333333333333,6,2,34,72,0,0
213788,-90.9090909090909,6,2,34,72,0,0
214010,-90.9090909090909,6,2,34,30,0,0
214085,-133.333333333333,6,2,34,72,0,0
214382,-90.9090909090909,6,2,34,72,0,0
215867,-90.9090909090909,6,2,34,60,0,0
216164,-90.9090909090909,6,2,34,64,0,0
216461,-90.9090909090909,6,2,34,68,0,0
216758,297.029702970297,5,2,34,70,1,0
216758,-90.9090909090909,5,2,34,70,0,0
222401,-90.9090909090909,5,2,34,64,0,0
222698,-83.3333333333333,5,2,34,72,0,0
227154,297.029702970297,6,2,34,70,1,0
227154,-100,6,2,34,70,0,0
227599,-125,6,2,34,65,0,0
228045,-125,6,2,34,64,0,0
228119,-125,6,2,34,63,0,0
228193,-125,6,2,34,62,0,0
228267,-125,6,2,34,61,0,0
228342,-125,6,2,34,60,0,0
228416,-125,6,2,34,59,0,0
228490,-125,6,2,34,58,0,0
228564,-125,6,2,34,57,0,0
228639,-125,6,2,34,56,0,0
228713,-125,6,2,34,54,0,0
228787,-125,6,2,34,52,0,0
228861,-125,6,2,34,50,0,0
228936,297.029702970297,6,2,99,40,1,0
228936,-200,6,2,99,40,0,0
229827,-200,6,2,35,25,0,0
230718,-200,6,2,35,30,0,0
231609,-200,6,2,35,25,0,0
232500,-200,6,2,35,26,0,0
232797,-200,6,2,35,22,0,0
232945,-200,6,2,35,23,0,0
233094,-200,6,2,35,24,0,0
233242,-200,6,2,35,25,0,0
233391,-200,6,2,35,26,0,0
233539,-200,6,2,35,27,0,0
233688,-200,6,2,35,28,0,0
233836,-200,6,2,35,30,0,0
233985,-200,6,2,35,32,0,0
234282,-166.666666666667,6,2,35,30,0,0
234876,-166.666666666667,6,2,35,25,0,0
235173,-166.666666666667,6,2,35,28,0,0
235322,-166.666666666667,6,2,35,30,0,0
235470,-166.666666666667,6,2,35,32,0,0
235619,-166.666666666667,6,2,34,36,0,0
235693,-166.666666666667,6,2,34,37,0,0
235767,-166.666666666667,6,2,34,38,0,0
235916,-166.666666666667,6,2,34,40,0,0
236064,-100,6,2,34,54,0,0
236287,-100,6,2,34,30,0,0
236361,-100,6,2,34,54,0,0
238069,-100,6,2,34,30,0,0
238143,-100,6,2,34,54,0,0
239629,-200,6,2,34,30,0,0
240520,-222.222222222222,6,2,34,28,0,0
241411,-250,6,2,34,26,0,0
242302,-285.714285714286,6,2,34,24,0,0
243193,-100,6,2,34,60,0,0
243638,-100,6,2,34,62,0,0
244084,-100,6,2,34,64,0,0
244381,-100,6,2,34,66,0,0
244678,-100,6,2,34,63,0,0
244975,-1000,6,2,35,34,0,0
245272,-1000,6,2,35,20,0,0
245866,-1000,6,2,34,15,0,0
246757,-100,6,2,35,10,0,0
247574,-100,6,2,34,5,0,0
247611,-100,6,2,34,15,0,0
247797,-100,6,2,34,20,0,0
247945,-100,6,2,34,26,0,0
248094,-100,6,2,34,33,0,0
248242,-100,6,2,34,41,0,0
248391,-100,6,2,34,50,0,0
248539,-100,6,2,99,32,0,0
249431,-100,6,2,35,28,0,0
250322,-100,6,2,35,34,0,0
251213,-100,6,2,35,28,0,0
252104,-100,6,2,99,30,0,0
252995,-100,6,2,35,28,0,0
255668,-166.666666666667,6,2,34,46,0,0
258341,-133.333333333333,6,2,34,48,0,0
259233,-133.333333333333,6,2,34,54,0,0
259455,-133.333333333333,6,2,34,5,0,0
259530,-133.333333333333,6,2,34,52,0,0
259752,-133.333333333333,6,2,34,5,0,0
259827,-133.333333333333,6,2,34,52,0,0
260124,-133.333333333333,6,2,34,58,0,0
260346,-133.333333333333,6,2,34,5,0,0
260421,-133.333333333333,6,2,34,58,0,0
260643,-133.333333333333,6,2,34,5,0,0
260718,-133.333333333333,6,2,34,58,0,0
260792,-133.333333333333,6,2,34,5,0,0
260866,-133.333333333333,6,2,34,60,0,0
261312,-133.333333333333,6,2,34,62,0,0
261609,-133.333333333333,6,2,34,64,0,0
261906,-133.333333333333,6,2,35,68,0,0
262797,-90.9090909090909,6,2,34,74,0,0
269332,-90.9090909090909,6,2,34,72,0,0
269406,-90.9090909090909,6,2,34,71,0,0
269480,-90.9090909090909,6,2,34,70,0,0
269554,-90.9090909090909,6,2,34,69,0,0
269629,-90.9090909090909,6,2,34,68,0,0
269703,-90.9090909090909,6,2,34,67,0,0
269777,-90.9090909090909,6,2,34,66,0,0
269851,-90.9090909090909,6,2,34,65,0,0
269926,-90.9090909090909,6,2,34,66,0,0
276460,-90.9090909090909,6,2,34,68,0,0
276757,-90.9090909090909,6,2,34,70,0,0
277054,-90.9090909090909,6,2,34,72,0,0
277277,-90.9090909090909,6,2,34,30,0,0
277351,-133.333333333333,6,2,34,72,0,0
277648,-90.9090909090909,6,2,34,72,0,0
277871,-90.9090909090909,6,2,34,30,0,0
277945,-133.333333333333,6,2,34,72,0,0
278242,-90.9090909090909,6,2,34,72,0,0
279728,-90.9090909090909,6,2,34,70,0,0
280025,-90.9090909090909,6,2,34,66,0,0
280322,-90.9090909090909,6,2,34,62,0,0
280619,-100,6,2,34,64,0,0
285965,-90.9090909090909,6,2,34,64,0,0
287747,-100,6,2,34,64,0,0
291312,-90.9090909090909,6,2,34,64,0,0
293094,-90.9090909090909,6,2,34,66,0,0
293539,-90.9090909090909,6,2,34,68,0,0
293985,-90.9090909090909,6,2,34,70,0,0
294282,-90.9090909090909,6,2,34,64,0,0
294579,-90.9090909090909,6,2,34,60,0,0
294876,-166.666666666667,6,2,35,50,0,0
295173,-166.666666666667,6,2,34,45,0,0
302005,-133.333333333333,6,2,35,48,0,0
302079,-133.333333333333,6,2,34,48,0,0
308836,-133.333333333333,6,2,35,44,0,0
308985,-333.333333333333,6,2,35,40,0,0
309059,-333.333333333333,6,2,34,5,0,0
312549,-333.333333333333,6,2,99,5,0,0

[Colours]
Combo1 : 200,200,170
Combo2 : 215,220,135
Combo3 : 255,230,160
Combo4 : 220,220,220
Combo5 : 230,220,170
Combo6 : 195,210,170
Combo7 : 255,200,145
Combo8 : 180,180,180

[HitObjects]
113,182,2174,38,0,L|45:178,1,50,0|0,0:2|0:2,0:0:0:0:
37,103,2574,2,0,B|57:141|61:203|60:306|-40:285|-20:207|62:179,1,279.999991455078,2|0,0:2|0:2,0:0:0:0:
139,170,3574,1,0,0:2:0:0:
203,212,3774,1,2,0:2:0:0:
371,360,4574,53,0,0:2:0:0:
371,360,4974,2,0,P|445:373|494:315,1,139.999995727539,2|0,0:2|0:2,0:0:0:0:
482,254,5574,2,0,B|503:232|508:208|508:208|504:136|451:56,1,209.999993591309,0|2,0:2|0:1,0:0:0:0:
178,13,6974,54,0,L|174:79,1,50,0|0,0:2|0:2,0:0:0:0:
211,130,7374,2,0,P|272:148|334:107,2,139.999995727539,2|0|0,0:2|0:2|0:2,0:0:0:0:
144,90,8374,1,0,0:2:0:0:
84,138,8574,2,0,B|64:160|53:185|53:185|59:230|87:277,1,139.999995727539,2|0,0:2|0:2,0:0:0:0:
55,361,9174,2,0,P|86:341|127:335,1,69.9999978637696,0|0,0:2|0:2,0:0:0:0:
118,334,9774,54,0,P|167:357|268:337,1,139.999995727539,2|0,0:2|0:2,0:0:0:0:
316,308,10374,1,0,0:2:0:0:
343,236,10574,1,0,0:2:0:0:
248,125,10840,53,0,0:2:0:0:
248,125,10974,2,0,L|100:139,1,139.999995727539,2|0,0:1|0:2,0:0:0:0:
290,24,11774,54,0,L|355:32,1,50,0|0,0:2|0:2,0:0:0:0:
429,0,12174,2,0,B|383:77|446:150|454:101|523:180|464:262,1,279.999991455078,2|0,0:2|0:2,0:0:0:0:
418,310,13174,1,0,0:2:0:0:
345,293,13374,2,0,P|307:289|246:366,1,119.999996337891,2|0,0:1|0:2,0:0:0:0:
249,340,14174,54,0,L|259:268,1,50,0|0,0:2|0:2,0:0:0:0:
301,226,14574,2,0,B|325:241|348:239|348:239|409:188|386:74,1,209.999993591309,2|0,0:2|0:2,0:0:0:0:
337,34,15374,1,0,0:2:0:0:
275,80,15574,1,0,0:2:0:0:
206,44,15774,2,0,P|137:26|68:30,1,139.999995727539,2|0,0:2|0:2,0:0:0:0:
277,177,16440,53,0,0:2:0:0:
277,177,16574,2,0,P|294:212|295:264,1,69.9999978637696,0|0,0:1|0:2,0:0:0:0:
237,299,16974,54,0,P|102:285|-1:373,1,279.999991455078,2|0,0:1|0:2,0:0:0:0:
82,196,18174,54,0,L|-12:216,1,80,2|0,0:2|0:2,0:0:0:0:
123,101,18574,54,0,L|29:121,1,69.9999978637696,0|0,0:2|0:2,0:0:0:0:
207,241,18974,54,0,L|128:257,1,59.9999981689454,0|0,0:2|0:2,0:0:0:0:
269,150,19374,54,0,B|412:185|354:44|495:78,1,250,2|2,0:1|0:2,0:0:0:0:
256,192,20807,12,0,22370,0:2:0:0:
386,170,22501,70,0,P|432:194|524:154,1,139.999995727539,8|0,0:1|0:2,0:0:0:0:
377,50,22946,1,8,0:2:0:0:
308,87,23095,2,0,B|231:72|259:124|161:102,1,139.999995727539,0|8,3:2|2:2,0:0:0:0:
173,104,23540,1,0,0:2:0:0:
289,179,23689,2,0,P|308:227|309:261,1,69.9999978637696,0|0,3:2|0:2,0:0:0:0:
360,305,23986,2,0,P|347:355|327:383,1,69.9999978637696,0|0,3:2|0:2,0:0:0:0:
233,287,24283,54,0,P|164:295|104:262,1,139.999995727539,2|0,0:2|0:2,0:0:0:0:
31,129,24728,1,8,0:2:0:0:
0,200,24877,2,0,L|14:341,1,139.999995727539,0|8,3:2|0:2,0:0:0:0:
100,281,25322,1,0,0:2:0:0:
173,384,25471,2,0,L|185:300,1,69.9999978637696,0|0,3:2|3:2,0:0:0:0:
311,210,25768,53,4,0:3:0:0:
326,285,25916,1,8,0:3:0:0:
401,269,26065,2,0,P|466:276|512:353,1,139.999995727539,8|0,0:1|0:2,0:0:0:0:
368,384,26510,1,8,0:2:0:0:
293,362,26659,2,0,B|245:353|245:353|221:368|221:368|135:355,1,139.999995727539,0|8,3:2|0:2,0:0:0:0:
158,358,27104,1,0,0:2:0:0:
277,278,27253,2,0,P|290:253|296:196,1,69.9999978637696,0|0,3:2|0:2,0:0:0:0:
259,144,27550,2,0,P|253:109|238:78,1,69.9999978637696,0|0,3:2|0:2,0:0:0:0:
138,29,27847,54,0,B|72:53|72:53|-6:27,1,139.999995727539,2|0,0:2|0:2,0:0:0:0:
5,30,28293,1,8,0:2:0:0:
72,135,28441,2,0,P|67:160|81:208,1,69.9999978637696,0|0,3:2|0:2,0:0:0:0:
152,81,28738,2,0,P|186:88|214:110,1,69.9999978637696,8|0,0:2|0:2,0:0:0:0:
164,245,29035,2,0,P|197:231|220:206,1,69.9999978637696,0|0,3:2|0:2,0:0:0:0:
309,34,29332,53,4,0:3:0:0:
309,34,29481,1,4,0:3:0:0:
386,96,29629,54,0,P|476:102|511:170,1,150.000005722046,12|0,0:1|0:2,0:0:0:0:
401,223,30075,1,8,0:2:0:0:
494,297,30223,2,0,B|499:260|499:260|486:224,1,75.0000028610231,0|0,3:2|0:2,0:0:0:0:
346,312,30520,2,0,B|333:347|333:347|338:384,1,75.0000028610231,8|0,0:2|0:2,0:0:0:0:
257,243,30817,1,0,3:2:0:0:
257,243,30966,1,8,0:2:0:0:
192,294,31114,2,0,L|101:306,1,75.0000028610231,0|0,3:2|0:2,0:0:0:0:
103,179,31411,54,0,P|35:175|5:84,1,150.000005722046,8|0,0:3|0:2,0:0:0:0:
129,7,31857,1,8,0:2:0:0:
196,54,32005,2,0,B|289:46|237:6|340:-2,1,150.000005722046,0|8,3:2|0:2,0:0:0:0:
292,117,32451,1,0,0:2:0:0:
356,176,32600,2,0,P|395:173|436:147,1,75.0000028610231,0|8,3:2|0:2,0:0:0:0:
248,235,32897,2,0,P|282:252|319:254,1,75.0000028610231,0|8,3:2|0:2,0:0:0:0:
206,147,33194,54,0,B|119:145|164:94|48:104,1,150.000005722046,8|0,0:1|0:2,0:0:0:0:
0,235,33639,1,8,0:2:0:0:
37,309,33788,2,0,P|119:312|177:238,1,150.000005722046,0|8,3:2|2:2,0:0:0:0:
320,342,34233,1,0,0:2:0:0:
240,311,34382,2,0,B|232:349|232:349|243:384,1,75.0000028610231,0|8,3:2|0:2,0:0:0:0:
397,377,34679,2,0,B|405:339|405:339|394:304,1,75.0000028610231,0|0,3:3|0:3,0:0:0:0:
512,223,34976,54,0,P|430:226|372:152,1,150.000005722046,4|0,0:3|0:2,0:0:0:0:
346,94,35421,1,8,0:2:0:0:
310,239,35570,1,0,3:2:0:0:
441,114,35718,1,0,1:2:0:0:
441,114,35793,1,0,1:2:0:0:
441,114,35867,1,8,1:2:0:0:
284,26,36015,1,0,1:2:0:0:
153,151,36164,1,8,3:3:0:0:
310,239,36312,1,4,3:3:0:0:
284,26,36461,1,4,3:3:0:0:
143,173,36609,85,8,0:3:0:0:
143,173,36684,1,8,0:3:0:0:
143,173,36758,2,0,P|72:190|3:79,1,200,12|0,0:1|0:2,0:0:0:0:
71,320,37203,53,2,1:2:0:0:
167,289,37352,1,0,3:2:0:0:
261,324,37501,1,8,0:2:0:0:
462,191,37649,2,0,B|351:150|380:234|240:178,1,200,2|10,1:2|0:1,0:0:0:0:
84,0,38095,53,2,0:2:0:0:
85,120,38243,1,0,3:2:0:0:
188,59,38392,1,0,1:2:0:0:
15,226,38540,53,12,0:2:0:0:
97,249,38689,1,0,3:2:0:0:
179,273,38837,1,0,3:2:0:0:
348,258,38986,2,0,P|272:294|259:370,1,150,2|0,1:2|0:2,0:0:0:0:
325,384,39283,1,8,0:2:0:0:
455,251,39431,53,2,1:2:0:0:
404,168,39580,1,8,0:2:0:0:
309,77,39728,53,2,0:2:0:0:
258,160,39877,1,0,1:2:0:0:
186,285,40025,53,2,0:2:0:0:
122,181,40174,1,8,0:2:0:0:
24,54,40322,2,0,B|84:42|84:42|114:61|114:61|223:45,1,200,12|0,0:2|0:2,0:0:0:0:
486,102,40768,53,2,1:2:0:0:
390,133,40916,1,0,3:2:0:0:
296,98,41065,1,8,0:2:0:0:
106,188,41213,2,0,P|203:191|264:268,1,200,2|10,1:2|0:1,0:0:0:0:
63,382,41659,53,2,0:2:0:0:
140,314,41807,1,0,3:2:0:0:
233,363,41956,1,0,1:2:0:0:
465,217,42104,2,0,P|376:258|350:352,1,200,12|0,0:2|0:2,0:0:0:0:
321,192,42550,53,2,1:2:0:0:
304,115,42699,1,0,3:2:0:0:
289,38,42847,1,8,0:2:0:0:
225,88,42996,1,4,1:2:0:0:
366,56,43144,1,8,0:2:0:0:
125,1,43293,53,2,1:2:0:0:
125,1,43367,1,0,1:2:0:0:
125,1,43441,1,0,1:2:0:0:
107,91,43590,1,8,0:3:0:0:
87,182,43738,1,8,0:3:0:0:
0,300,43887,54,0,B|111:259|82:343|222:287,1,200,12|0,0:1|0:2,0:0:0:0:
495,245,44332,53,2,1:2:0:0:
390,199,44481,1,0,3:2:0:0:
309,328,44629,1,8,0:2:0:0:
86,182,44778,2,0,P|155:156|222:185,1,150,0|0,1:2|0:2,0:0:0:0:
285,237,45075,2,0,P|297:184|296:109,1,100,10|0,0:1|0:2,0:0:0:0:
135,7,45372,1,2,3:2:0:0:
108,77,45520,1,0,1:2:0:0:
50,16,45669,53,12,0:2:0:0:
192,67,45817,1,0,3:2:0:0:
327,28,45966,1,0,0:2:0:0:
485,113,46114,1,2,3:2:0:0:
485,113,46189,1,0,3:2:0:0:
485,113,46263,2,0,B|450:119|450:119|432:108|432:108|369:118,1,100,0|0,3:2|3:2,0:0:0:0:
330,167,46486,1,0,3:2:0:0:
323,185,46560,1,2,1:2:0:0:
384,262,46708,1,8,0:2:0:0:
499,336,46857,53,2,1:2:0:0:
399,376,47005,1,8,0:3:0:0:
277,274,47154,53,4,0:3:0:0:
173,238,47302,1,4,0:3:0:0:
61,359,47451,38,0,B|84:315|88:243|87:124|-27:149|-4:239|89:271,1,320,12|0,0:2|0:2,0:0:0:0:
88,270,48194,1,8,0:2:0:0:
259,134,48342,54,0,B|239:149|219:151|219:151|161:143|112:103,1,160,2|0,1:2|3:2,0:0:0:0:
114,105,48788,1,0,1:2:0:0:
302,53,48936,53,2,0:2:0:0:
329,47,49085,1,8,0:2:0:0:
444,131,49233,2,0,B|420:177|420:177|435:232|435:232|430:283,1,160,12|0,0:2|0:2,0:0:0:0:
430,282,49679,1,0,1:2:0:0:
329,362,49827,2,0,L|319:252,1,80,2|8,0:2|0:2,0:0:0:0:
269,63,50124,37,6,1:2:0:0:
218,165,50273,1,8,0:2:0:0:
121,102,50421,53,2,1:2:0:0:
126,207,50570,1,8,0:2:0:0:
35,223,50718,53,0,1:2:0:0:
85,300,50867,1,8,0:2:0:0:
228,298,51015,38,0,P|198:329|167:387,2,100,8|0|0,0:1|0:2|2:2,0:0:0:0:
228,298,51758,1,0,3:3:0:0:
308,347,51906,2,0,B|378:321|398:382|459:347,1,150,8|0,0:2|0:2,0:0:0:0:
381,314,52501,2,0,L|375:377,1,50,0|0,3:2|0:2,0:0:0:0:
469,259,52798,54,0,L|460:159,1,100,4|0,0:3|0:2,0:0:0:0:
411,77,53243,2,0,B|395:64|379:58|379:58|349:63|319:83,1,100,0|0,3:2|0:2,0:0:0:0:
271,210,53689,53,8,2:2:0:0:
253,205,53986,1,8,2:2:0:0:
235,200,54283,1,0,3:3:0:0:
217,195,54431,1,0,3:2:0:0:
135,228,54580,54,0,B|153:238|162:252|162:252|175:301|157:366,1,150,8|0,0:3|0:2,0:0:0:0:
79,377,55174,1,0,2:2:0:0:
79,377,55322,1,0,2:2:0:0:
10,252,55471,54,0,P|1:172|32:105,1,150,8|0,0:2|0:2,0:0:0:0:
89,57,56065,2,0,L|160:63,1,50,0|0,3:2|0:2,0:0:0:0:
272,135,56362,54,0,P|221:164|213:224,1,100,4|0,0:3|0:2,0:0:0:0:
334,193,56807,2,0,P|315:238|271:258,1,100,0|0,3:2|0:2,0:0:0:0:
194,300,57253,53,8,0:2:0:0:
176,295,57550,1,8,0:2:0:0:
158,290,57847,2,0,L|163:353,1,50,4|4,0:3|0:3,0:0:0:0:
33,137,58144,53,8,0:1:0:0:
81,69,58293,2,0,L|152:62,1,59.9999981689454,0|0,3:2|0:2,0:0:0:0:
223,130,58590,1,0,3:2:0:0:
298,156,58738,1,0,0:2:0:0:
360,102,58887,1,0,2:2:0:0:
439,180,59035,2,0,L|357:190,3,59.9999981689454,8|0|0|0,3:3|2:2|2:2|3:2,0:0:0:0:
318,247,59629,1,2,0:2:0:0:
318,247,59778,1,0,3:3:0:0:
460,380,59926,54,0,B|485:326|438:305|470:259,1,119.999996337891,0|0,1:2|0:2,0:0:0:0:
467,263,60372,1,0,3:2:0:0:
382,353,60520,1,0,0:2:0:0:
382,353,60669,1,0,3:2:0:0:
254,293,60817,1,0,1:2:0:0:
254,293,60966,1,0,2:2:0:0:
188,344,61114,2,0,L|106:334,1,59.9999981689454,0|0,3:2|3:2,0:0:0:0:
128,336,61411,1,4,0:3:0:0:
23,180,61560,53,8,0:3:0:0:
73,111,61708,2,0,B|138:92|128:131|195:106,1,119.999996337891,8|0,0:1|0:2,0:0:0:0:
190,107,62154,1,0,3:2:0:0:
256,50,62302,2,0,P|280:98|280:127,1,59.9999981689454,0|0,0:2|0:2,0:0:0:0:
377,259,62600,54,0,P|391:208|408:187,1,59.9999981689454,0|0,1:2|0:2,0:0:0:0:
348,140,62897,2,0,P|399:126|425:130,1,59.9999981689454,0|0,3:2|0:2,0:0:0:0:
441,56,63194,2,0,P|478:93|487:118,1,59.9999981689454,0|0,3:2|0:2,0:0:0:0:
435,309,63491,54,0,B|369:290|379:329|312:304,1,119.999996337891,8|0,0:3|0:2,0:0:0:0:
317,305,63936,1,0,3:2:0:0:
99,247,64085,53,2,0:2:0:0:
166,198,64233,1,0,1:2:0:0:
166,198,64307,1,0,1:2:0:0:
166,198,64382,1,8,3:2:0:0:
189,121,64530,1,0,1:2:0:0:
109,260,64679,53,0,1:2:0:0:
177,208,64827,1,8,3:3:0:0:
274,246,64976,1,4,3:3:0:0:
370,189,65124,1,0,1:2:0:0:
457,282,65273,70,0,B|486:270|501:236|501:236|496:182|460:130,1,179.999994506836,12|0,0:1|0:2,0:0:0:0:
392,47,65718,1,8,0:2:0:0:
370,189,65867,2,0,P|336:189|281:157,1,89.9999972534181,2|0,0:2|0:2,0:0:0:0:
192,4,66164,2,0,P|94:14|26:104,1,179.999994506836,0|0,1:2|0:2,0:0:0:0:
123,247,66609,1,2,1:2:0:0:
38,280,66758,1,0,0:2:0:0:
2,197,66906,1,0,1:2:0:0:
116,132,67055,54,0,B|235:111|185:185|299:161,1,179.999994506836,10|0,0:2|0:2,0:0:0:0:
154,231,67501,2,0,P|132:262|132:330,1,89.9999972534181,8|0,0:2|0:2,0:0:0:0:
183,383,67798,1,8,0:2:0:0:
307,346,67946,2,0,P|384:337|494:419,1,179.999994506836,0|0,1:2|0:2,0:0:0:0:
411,241,68392,53,2,1:2:0:0:
474,165,68540,1,0,0:2:0:0:
450,68,68689,1,0,0:2:0:0:
317,127,68837,54,0,B|253:115|253:115|223:80|223:80|139:64,1,179.999994506836,10|0,0:2|0:2,0:0:0:0:
110,3,69283,1,8,0:2:0:0:
180,154,69431,1,2,0:2:0:0:
302,41,69580,1,0,0:2:0:0:
403,169,69728,2,0,P|412:222|382:305,1,134.999995880127,0|0,1:2|0:2,0:0:0:0:
368,316,70025,2,0,L|276:299,1,89.9999972534181,0|0,0:2|1:2,0:0:0:0:
115,331,70322,53,2,0:2:0:0:
115,331,70471,1,0,0:2:0:0:
26,222,70619,2,0,B|4:237|-14:267|-14:267|-17:324|7:398,1,179.999994506836,10|0,0:2|0:2,0:0:0:0:
206,240,71065,2,0,B|225:179|222:122|222:122|204:92|182:77,1,179.999994506836,8|0,2:2|0:2,0:0:0:0:
89,16,71510,53,0,1:2:0:0:
141,169,71659,1,0,3:2:0:0:
295,214,71807,1,0,3:2:0:0:
425,117,71956,1,0,1:2:0:0:
438,5,72104,53,2,3:2:0:0:
438,5,72253,1,0,3:3:0:0:
512,201,72401,54,0,P|440:144|337:149,1,179.999994506836,12|0,0:2|0:2,0:0:0:0:
218,44,72847,2,0,L|313:34,1,89.9999972534181,8|0,0:2|0:2,0:0:0:0:
307,239,73144,1,2,0:2:0:0:
217,193,73293,2,0,P|150:193|98:234,1,134.999995880127,0|0,1:2|0:2,0:0:0:0:
90,257,73590,2,0,L|82:150,1,89.9999972534181,0|0,0:2|1:2,0:0:0:0:
236,290,73887,54,0,L|229:379,1,89.9999972534181,2|0,0:2|0:2,0:0:0:0:
334,222,74184,2,0,P|422:225|485:158,1,179.999994506836,8|0,0:2|0:2,0:0:0:0:
264,102,74629,53,0,3:2:0:0:
299,1,74778,1,2,0:2:0:0:
163,67,74926,1,0,0:2:0:0:
367,146,75075,1,0,1:2:0:0:
215,268,75223,1,0,0:2:0:0:
268,106,75372,1,2,0:2:0:0:
268,106,75520,2,0,L|78:71,1,179.999994506836,0|0,1:3|0:2,0:0:0:0:
288,222,75966,54,0,P|348:227|410:339,1,179.999994506836,10|0,0:2|0:2,0:0:0:0:
187,384,76411,2,0,P|232:378|293:377,1,89.9999972534181,8|0,0:2|0:2,0:0:0:0:
172,232,76708,1,2,0:2:0:0:
123,173,76857,2,0,P|63:178|1:290,1,179.999994506836,0|0,1:2|0:2,0:0:0:0:
0,270,77302,1,0,1:2:0:0:
165,371,77451,2,0,P|120:365|75:363,1,89.9999972534181,2|0,0:2|0:2,0:0:0:0:
256,278,77748,54,0,B|280:216|230:210|266:132,1,134.999995880127,8|0,0:2|0:2,0:0:0:0:
282,125,78045,2,0,P|324:119|372:109,1,89.9999972534181,2|8,0:2|0:2,0:0:0:0:
493,41,78342,69,2,0:2:0:0:
394,10,78491,1,8,0:2:0:0:
443,199,78639,53,4,1:2:0:0:
304,240,78788,1,8,0:2:0:0:
176,67,78936,53,0,1:2:0:0:
52,103,79085,53,0,3:2:0:0:
0,213,79233,53,8,0:3:0:0:
22,301,79382,101,4,0:3:0:0:
84,347,79530,37,12,0:2:0:0:
412,250,81312,1,8,0:1:0:0:
83,130,83095,1,8,0:2:0:0:
256,7,84877,1,8,0:1:0:0:
183,289,86213,53,0,1:2:0:0:
224,363,86362,1,8,0:3:0:0:
267,291,86510,1,8,0:3:0:0:
139,362,86659,6,0,P|52:360|0:301,1,150,12|0,0:1|0:2,0:0:0:0:
0,295,86956,1,8,0:2:0:0:
184,206,87104,2,0,P|205:162|212:112,1,100,2|8,0:2|0:2,0:0:0:0:
212,111,87401,1,0,1:2:0:0:
347,219,87550,2,0,P|433:222|514:145,1,200,10|8,0:2|0:2,0:0:0:0:
314,18,87996,53,2,1:2:0:0:
297,147,88144,1,8,0:2:0:0:
184,207,88293,1,0,1:2:0:0:
94,40,88441,54,0,P|27:66|5:135,1,150,10|0,0:2|0:2,0:0:0:0:
19,161,88738,1,8,0:2:0:0:
101,313,88887,2,0,P|51:304|1:303,1,100,2|8,0:2|0:2,0:0:0:0:
198,201,89184,1,0,1:2:0:0:
290,364,89332,2,0,P|339:372|389:373,1,100,10|0,0:2|0:2,0:0:0:0:
512,173,89629,53,10,0:2:0:0:
348,233,89778,1,0,1:2:0:0:
503,152,89926,53,8,0:3:0:0:
302,80,90075,1,8,0:3:0:0:
436,4,90223,38,0,L|420:113,2,100,2|0|0,0:2|0:2|0:2,0:0:0:0:
171,83,91114,54,0,L|187:192,2,89.9999972534181,2|0|0,0:2|0:2|0:2,0:0:0:0:
390,204,92005,54,0,L|375:299,2,80,2|0|0,0:2|0:2|0:2,0:0:0:0:
227,296,92897,54,0,L|238:374,2,69.9999978637696,2|0|0,0:2|0:2|0:2,0:0:0:0:
440,90,93788,85,4,1:1:0:0:
407,290,93936,1,8,0:2:0:0:
330,138,94085,1,8,0:2:0:0:
492,164,94233,53,4,1:2:0:0:
262,196,94382,1,8,0:2:0:0:
348,19,94530,1,8,0:2:0:0:
341,244,94679,53,2,1:2:0:0:
246,47,94827,1,8,0:2:0:0:
141,326,94976,53,2,1:2:0:0:
178,107,95124,1,8,0:2:0:0:
0,263,95273,53,2,1:2:0:0:
28,166,95421,1,8,0:2:0:0:
256,192,95570,12,2,98243,0:1:0:0:
253,8,99134,70,0,B|291:110|223:101|257:204,1,200,12|0,0:1|0:2,0:0:0:0:
173,61,99580,1,0,1:2:0:0:
341,158,99728,1,0,2:2:0:0:
256,384,99877,1,8,0:2:0:0:
167,279,100025,2,0,B|254:286|254:286|277:304|277:304|388:314,2,200,10|0|8,0:2|1:2|0:2,0:0:0:0:
106,332,100768,1,0,0:2:0:0:
21,128,100916,54,0,P|77:50|172:60,1,200,10|0,0:2|0:2,0:0:0:0:
210,133,101362,1,0,1:2:0:0:
287,161,101510,1,0,0:2:0:0:
356,116,101659,1,8,0:2:0:0:
512,265,101807,54,0,P|418:288|386:378,1,200,2|8,1:2|0:2,0:0:0:0:
502,384,102253,1,0,0:2:0:0:
355,231,102401,2,0,L|227:242,1,100,2|0,1:2|0:2,0:0:0:0:
46,384,102699,54,0,P|90:301|34:194,1,200,12|0,0:2|0:2,0:0:0:0:
178,23,103144,2,0,P|140:112|185:197,1,200,0|8,1:2|0:2,0:0:0:0:
478,147,103590,54,0,P|430:162|395:198,1,100,10|0,0:2|0:2,0:0:0:0:
329,154,103887,2,0,P|339:103|325:53,1,100,0|0,1:2|0:2,0:0:0:0:
477,64,104184,2,0,P|428:51|391:18,1,100,8|0,0:2|0:2,0:0:0:0:
173,223,104481,54,0,L|324:236,1,150,2|0,1:2|0:2,0:0:0:0:
392,281,104778,2,0,P|398:338|388:375,1,50,8|0,0:2|0:2,0:0:0:0:
253,376,104926,54,0,B|291:274|223:283|257:180,1,200,0|8,1:2|0:2,0:0:0:0:
389,62,105372,2,0,P|361:103|316:122,1,100,2|0,1:2|0:2,0:0:0:0:
195,122,105669,2,0,P|150:103|123:62,1,100,0|0,3:2|3:2,0:0:0:0:
256,8,105966,1,0,1:2:0:0:
256,8,106114,1,0,1:2:0:0:
0,153,106263,54,0,P|72:161|128:265,1,200,12|0,0:2|0:2,0:0:0:0:
71,324,106708,1,0,1:2:0:0:
132,376,106857,1,0,0:2:0:0:
209,351,107005,1,8,0:2:0:0:
290,203,107154,54,0,P|360:183|428:212,1,150,10|0,0:2|0:2,0:0:0:0:
479,279,107451,2,0,L|469:390,1,100,0|0,1:2|0:2,0:0:0:0:
237,368,107748,2,0,L|228:268,1,100,8|0,0:2|0:2,0:0:0:0:
143,79,108045,54,0,B|228:47|217:104|302:65,1,150,10|0,0:2|0:2,0:0:0:0:
355,19,108342,2,0,P|373:35|385:57,1,50,8|0,0:2|0:2,0:0:0:0:
490,202,108491,54,0,B|430:190|430:190|400:209|400:209|291:193,1,200,0|8,1:2|0:2,0:0:0:0:
195,93,108936,1,2,1:2:0:0:
121,96,109085,1,0,3:1:0:0:
48,106,109233,1,8,0:2:0:0:
30,276,109382,53,10,0:2:0:0:
120,282,109530,1,0,1:1:0:0:
211,294,109679,1,0,3:2:0:0:
502,258,109827,54,0,P|410:287|381:379,1,200,14|0,0:2|0:2,0:0:0:0:
299,102,110273,2,0,P|370:166|464:145,1,200,2|8,1:2|0:2,0:0:0:0:
265,356,110718,2,0,P|289:312|285:261,1,100,2|0,1:2|0:2,0:0:0:0:
220,190,111015,2,0,P|173:174|125:188,1,100,8|0,0:2|0:2,0:0:0:0:
116,353,111312,53,8,0:2:0:0:
116,353,111461,1,8,0:2:0:0:
230,182,111609,54,0,L|381:168,1,150,4|0,1:2|0:2,0:0:0:0:
448,206,111906,2,0,P|455:264|446:283,1,50,8|0,0:2|0:2,0:0:0:0:
288,83,112055,54,0,L|136:69,1,150,4|0,1:2|0:2,0:0:0:0:
70,107,112352,2,0,P|63:165|72:184,1,50,8|0,0:2|0:2,0:0:0:0:
121,333,112501,101,10,0:2:0:0:
144,228,112649,1,8,0:2:0:0:
250,188,112798,53,2,1:2:0:0:
265,300,112946,1,0,1:2:0:0:
368,353,113095,53,2,1:2:0:0:
383,241,113243,1,0,1:2:0:0:
493,373,113392,70,0,B|512:337|515:315|515:315|507:244|464:163,1,200,12|0,0:1|0:2,0:0:0:0:
332,46,113837,1,0,1:2:0:0:
383,241,113986,1,0,2:2:0:0:
182,280,114134,1,8,0:2:0:0:
131,85,114283,2,0,P|53:88|6:212,2,200,10|0|8,0:2|1:2|0:2,0:0:0:0:
192,136,115025,1,0,2:2:0:0:
343,30,115174,54,0,P|437:43|474:131,1,200,10|0,0:2|0:2,0:0:0:0:
338,306,115619,1,0,1:2:0:0:
420,382,115768,2,0,P|468:383|517:353,1,100,0|8,0:2|0:2,0:0:0:0:
359,193,116065,53,2,1:2:0:0:
328,282,116213,1,0,3:2:0:0:
239,251,116362,1,8,3:2:0:0:
270,162,116510,1,0,3:2:0:0:
114,275,116659,54,0,P|66:276|17:246,1,100,10|0,0:1|0:2,0:0:0:0:
186,154,116956,2,0,P|194:70|97:11,1,200,12|0,0:2|0:1,0:0:0:0:
326,230,117401,2,0,P|318:314|415:373,1,200,0|8,1:2|0:2,0:0:0:0:
398,116,117847,54,0,P|446:115|495:145,1,100,12|0,2:2|0:2,0:0:0:0:
326,230,118144,2,0,P|368:254|418:253,1,100,2|0,1:1|0:2,0:0:0:0:
257,50,118441,2,0,P|299:25|349:26,1,100,8|0,0:2|0:2,0:0:0:0:
163,166,118738,54,0,B|74:134|98:187|10:163,1,150,12|0,0:1|0:2,0:0:0:0:
0,155,119035,1,8,0:2:0:0:
119,268,119184,2,0,P|153:357|249:360,1,200,0|0,1:2|0:2,0:0:0:0:
470,265,119629,2,0,L|454:403,1,100,4|8,1:2|0:2,0:0:0:0:
458,364,119852,1,8,0:2:0:0:
458,364,119926,1,0,1:2:0:0:
339,249,120075,1,0,3:2:0:0:
426,130,120223,2,0,P|441:82|438:52,1,50,8|8,0:3|0:3,0:0:0:0:
368,52,120372,2,0,P|359:8|340:-17,1,50,8|8,0:3|0:3,0:0:0:0:
280,35,120520,54,0,P|206:17|104:86,2,200,12|0|0,0:1|0:2|0:2,0:0:0:0:
311,108,121263,1,8,0:2:0:0:
135,171,121411,2,0,L|26:179,1,100,0|0,1:2|0:2,0:0:0:0:
170,307,121708,53,10,0:2:0:0:
260,350,121857,1,0,0:2:0:0:
342,292,122005,1,0,3:2:0:0:
342,292,122154,1,0,0:2:0:0:
237,183,122302,54,0,P|213:89|268:9,1,200,10|0,0:2|0:2,0:0:0:0:
467,178,122748,2,0,P|491:272|436:352,1,200,8|8,0:2|0:2,0:0:0:0:
238,184,123194,53,2,1:2:0:0:
215,377,123342,1,0,0:2:0:0:
129,329,123491,53,10,0:2:0:0:
140,218,123639,1,0,1:2:0:0:
50,267,123788,53,10,0:2:0:0:
50,267,123936,1,8,0:2:0:0:
301,332,124085,54,0,L|507:313,1,200,12|0,2:2|0:2,0:0:0:0:
349,227,124530,1,0,0:2:0:0:
299,168,124679,2,0,B|289:118|289:118|310:58,1,100,8|0,0:2|0:2,0:0:0:0:
96,19,124976,2,0,L|206:3,1,100,0|0,1:2|0:2,0:0:0:0:
95,199,125273,2,0,L|193:213,1,100,0|0,3:2|0:2,0:0:0:0:
0,323,125570,53,8,0:2:0:0:
0,323,125718,1,0,0:2:0:0:
182,379,125867,54,0,B|254:359|254:359|280:324|280:324|359:305,1,200,10|0,0:2|0:2,0:0:0:0:
189,180,126312,2,0,B|156:155|149:124|149:124|160:40|201:-4,1,200,8|8,0:2|0:2,0:0:0:0:
409,102,126758,37,6,1:2:0:0:
294,134,126906,1,8,0:2:0:0:
327,30,127055,53,2,0:2:0:0:
375,205,127203,1,8,0:2:0:0:
194,4,127352,53,2,1:2:0:0:
149,247,127501,1,0,1:2:0:0:
424,126,127649,70,0,P|488:159|512:229,1,150,12|0,0:1|0:2,0:0:0:0:
496,305,127946,2,0,L|392:292,1,100,0|0,0:2|0:2,0:0:0:0:
88,181,128243,54,0,P|23:214|0:284,1,150,2|0,0:2|0:2,0:0:0:0:
16,360,128540,2,0,L|120:347,1,100,0|0,1:2|0:2,0:0:0:0:
305,166,128837,53,2,1:2:0:0:
229,333,128986,1,8,0:2:0:0:
209,121,129134,53,2,1:2:0:0:
313,384,129283,1,8,0:2:0:0:
426,173,129431,54,0,P|505:256|493:356,1,200,4|8,1:2|0:2,0:0:0:0:
94,222,129877,2,0,P|15:305|27:405,1,200,4|8,1:2|0:2,0:0:0:0:
209,121,130322,53,0,1:2:0:0:
299,378,130471,1,8,0:2:0:0:
426,173,130619,1,8,3:3:0:0:
420,199,130694,1,8,3:3:0:0:
435,221,130768,1,8,3:3:0:0:
431,248,130842,1,8,3:3:0:0:
441,273,130916,1,4,3:3:0:0:
435,300,130991,1,4,3:3:0:0:
450,322,131065,1,4,3:3:0:0:
447,348,131139,1,4,3:3:0:0:
458,373,131213,86,0,B|485:369|500:348|500:348|514:286|467:226,1,179.999994506836,12|0,0:2|0:2,0:0:0:0:
213,353,131659,2,0,B|187:342|178:317|178:317|181:254|241:209,1,179.999994506836,0|0,3:2|0:2,0:0:0:0:
366,122,132104,54,0,P|381:79|380:35,1,89.9999972534181,0|0,1:2|0:2,0:0:0:0:
257,221,132401,2,0,P|301:222|344:208,1,89.9999972534181,0|0,2:2|3:2,0:0:0:0:
129,147,132699,2,0,P|141:190|167:226,1,89.9999972534181,0|0,2:2|3:2,0:0:0:0:
159,2,132996,53,8,0:2:0:0:
159,2,133144,2,0,P|121:27|95:63,1,89.9999972534181,0|0,3:2|0:2,0:0:0:0:
164,250,133441,2,0,P|85:297|-16:258,1,179.999994506836,0|0,3:2|0:2,0:0:0:0:
156,140,133887,2,0,P|203:124|260:122,1,89.9999972534181,0|0,1:2|0:2,0:0:0:0:
293,345,134184,53,2,0:2:0:0:
423,377,134332,1,0,1:2:0:0:
321,232,134481,1,0,0:2:0:0:
459,187,134629,53,8,0:1:0:0:
459,187,134703,1,8,0:1:0:0:
459,187,134778,2,0,P|480:121|425:2,1,179.999994506836,12|0,0:2|0:2,0:0:0:0:
160,94,135223,2,0,P|139:160|194:279,1,179.999994506836,0|0,3:2|0:2,0:0:0:0:
370,379,135669,2,0,B|303:364|303:364|267:382|267:382|195:364,1,179.999994506836,0|0,1:2|3:2,0:0:0:0:
121,380,136114,1,0,0:2:0:0:
258,295,136263,2,0,B|276:257|276:257|268:199,1,89.9999972534181,0|0,3:2|0:2,0:0:0:0:
116,109,136560,54,0,B|72:129|72:129|1:104|12:24,1,179.999994506836,10|0,0:2|0:2,0:0:0:0:
205,133,137005,2,0,P|243:135|299:101,1,89.9999972534181,0|0,3:2|0:2,0:0:0:0:
370,20,137302,69,0,1:2:0:0:
370,20,137377,1,0,1:2:0:0:
370,20,137451,1,8,3:2:0:0:
362,202,137600,1,0,1:2:0:0:
288,112,137748,1,0,1:2:0:0:
470,69,137897,1,8,3:3:0:0:
417,300,138045,1,4,3:3:0:0:
370,20,138194,1,8,3:1:0:0:
470,69,138342,86,0,P|489:107|486:178,1,100,12|0,0:1|0:2,0:0:0:0:
456,234,138788,2,0,L|404:253,1,50,2|0,0:2|3:2,0:0:0:0:
86,193,139233,2,0,P|67:231|70:302,1,100,0|0,1:2|0:2,0:0:0:0:
100,358,139679,2,0,L|152:377,1,50,2|0,0:2|3:3,0:0:0:0:
296,287,140124,54,0,B|268:217|306:225|279:138,1,150,8|0,0:3|3:2,0:0:0:0:
212,95,140718,2,0,L|146:91,1,50,2|0,0:2|0:2,0:0:0:0:
261,34,141015,2,0,B|323:20|307:51|375:39,1,100,0|0,1:2|3:2,0:0:0:0:
359,41,141461,1,0,3:2:0:0:
444,22,141609,2,0,L|436:83,1,50,2|0,0:2|0:2,0:0:0:0:
483,166,141906,54,0,P|500:207|488:322,1,150,8|0,0:1|3:2,0:0:0:0:
447,378,142501,1,2,0:2:0:0:
315,240,142798,2,0,B|306:193|306:193|313:147|313:147|300:82,1,150,0|0,1:2|3:2,0:0:0:0:
249,34,143392,2,0,L|197:28,1,50,2|0,0:2|0:2,0:0:0:0:
86,59,143689,54,0,P|76:107|76:157,1,100,8|0,0:3|0:2,0:0:0:0:
106,231,144134,2,0,P|96:279|96:329,1,100,0|0,3:2|0:2,0:0:0:0:
154,381,144580,1,0,1:2:0:0:
481,322,144877,69,4,0:3:0:0:
390,289,145025,1,0,1:2:0:0:
463,226,145174,1,8,0:3:0:0:
408,384,145322,1,4,0:3:0:0:
315,223,145471,6,0,B|303:165|303:165|312:109|312:109|299:45,2,179.999994506836,12|0|0,0:1|0:2|0:2,0:0:0:0:
265,299,146213,1,8,0:2:0:0:
166,236,146362,1,2,1:2:0:0:
166,236,146436,1,0,0:2:0:0:
166,236,146510,2,0,B|61:234|105:301|-9:299,1,179.999994506836,0|0,0:2|3:2,0:0:0:0:
78,216,146956,2,0,L|86:311,1,89.9999972534181,2|0,0:2|3:2,0:0:0:0:
0,89,147253,54,0,B|60:101|60:101|90:82|90:82|172:94,1,179.999994506836,10|0,0:2|0:2,0:0:0:0:
307,88,147699,1,0,3:2:0:0:
307,88,147773,1,0,0:2:0:0:
307,88,147847,2,0,P|251:129|233:166,1,89.9999972534181,0|0,0:2|0:2,0:0:0:0:
370,0,148144,2,0,P|451:41|492:126,1,179.999994506836,10|0,1:2|0:2,0:0:0:0:
432,173,148590,1,0,3:2:0:0:
420,254,148738,1,2,0:2:0:0:
471,320,148887,1,0,3:2:0:0:
347,345,149035,54,0,B|247:321|288:386|160:363,1,179.999994506836,12|0,0:2|0:2,0:0:0:0:
173,365,149481,1,0,3:2:0:0:
17,342,149629,2,0,P|60:352|90:384,1,89.9999972534181,2|0,0:2|3:2,0:0:0:0:
125,263,149926,54,0,P|168:186|274:166,1,179.999994506836,2|0,1:2|0:2,0:0:0:0:
251,161,150372,1,0,3:2:0:0:
329,203,150520,1,2,0:2:0:0:
391,151,150669,1,0,3:2:0:0:
207,39,150817,54,0,B|102:37|146:104|31:102,1,179.999994506836,10|0,0:2|0:2,0:0:0:0:
119,19,151263,2,0,L|127:114,1,89.9999972534181,0|0,3:2|0:2,0:0:0:0:
151,296,151560,1,0,1:2:0:0:
151,296,151634,1,0,1:2:0:0:
151,296,151708,1,0,1:2:0:0:
231,336,151857,1,0,1:2:0:0:
350,247,152005,1,8,3:2:0:0:
249,202,152154,1,8,3:3:0:0:
66,263,152302,53,4,3:3:0:0:
34,186,152451,1,4,3:3:0:0:
123,45,152600,102,0,B|129:75|160:96|160:96|214:100|272:74,1,179.999994506836,12|0,0:1|0:2,0:0:0:0:
271,74,153045,1,8,0:2:0:0:
442,85,153194,2,0,P|401:104|371:136,1,89.9999972534181,2|0,0:2|0:2,0:0:0:0:
341,314,153491,2,0,P|334:235|257:166,1,179.999994506836,0|0,1:2|0:2,0:0:0:0:
263,168,153936,1,2,1:2:0:0:
198,217,154085,1,0,0:2:0:0:
125,182,154233,1,0,1:2:0:0:
9,288,154382,54,0,B|123:277|70:381|174:371,1,179.999994506836,10|0,0:2|0:2,0:0:0:0:
342,302,154827,2,0,P|262:267|177:293,1,179.999994506836,8|8,0:2|0:2,0:0:0:0:
102,124,155273,54,0,L|94:213,1,89.9999972534181,0|0,1:2|0:0,0:0:0:0:
94,213,155570,1,0,0:2:0:0:
203,77,155718,2,0,L|210:166,1,89.9999972534181,2|0,1:2|0:2,0:0:0:0:
210,166,156015,1,8,0:2:0:0:
71,0,156164,54,0,B|131:12|131:12|161:-7|161:-7|243:5,1,179.999994506836,12|0,0:2|0:2,0:0:0:0:
243,5,156609,1,8,0:2:0:0:
406,48,156758,1,2,0:2:0:0:
329,85,156906,1,8,0:2:0:0:
210,166,157055,54,0,P|300:181|375:247,1,179.999994506836,0|0,1:2|0:2,0:0:0:0:
367,235,157501,1,0,3:2:0:0:
397,314,157649,1,2,0:2:0:0:
345,371,157798,1,8,0:2:0:0:
231,271,157946,54,0,B|184:274|184:274|166:295|166:295|103:303,1,134.999995880127,10|0,0:2|0:0,0:0:0:0:
35,274,158243,2,0,P|32:251|35:229,1,44.999998626709,0|0,0:2|0:0,0:0:0:0:
79,108,158392,2,0,B|140:113|140:113|164:139|164:139|247:150,1,179.999994506836,8|0,2:2|0:2,0:0:0:0:
453,196,158837,53,0,1:2:0:0:
442,76,158986,1,0,3:2:0:0:
324,87,159134,1,0,3:2:0:0:
333,205,159283,1,0,1:2:0:0:
389,142,159431,53,8,3:3:0:0:
462,272,159580,1,8,3:3:0:0:
369,368,159728,2,0,B|269:331|278:399|195:370,1,179.999994506836,12|0,0:2|0:2,0:0:0:0:
127,331,160174,1,8,0:2:0:0:
102,257,160322,1,0,0:2:0:0:
147,191,160471,1,10,0:2:0:0:
43,100,160619,54,0,P|130:112|209:72,1,179.999994506836,0|0,1:2|0:2,0:0:0:0:
209,72,161065,1,0,3:2:0:0:
355,77,161213,2,0,P|317:100|293:138,1,89.9999972534181,2|8,0:2|0:2,0:0:0:0:
424,334,161510,54,0,P|428:245|381:170,1,179.999994506836,8|0,0:2|0:2,0:0:0:0:
265,278,161956,1,10,2:2:0:0:
265,278,162104,1,0,3:2:0:0:
182,235,162253,1,0,3:2:0:0:
17,384,162401,53,0,1:2:0:0:
89,356,162550,1,0,3:2:0:0:
162,329,162699,1,8,0:2:0:0:
44,175,162847,54,0,L|35:270,1,89.9999972534181,0|0,1:3|0:0,0:0:0:0:
36,264,163144,1,0,1:2:0:0:
273,363,163293,54,0,B|302:353|319:320|319:320|316:265|283:211,1,179.999994506836,12|0,0:2|0:2,0:0:0:0:
396,97,163738,2,0,P|376:146|379:202,1,89.9999972534181,8|0,0:2|0:2,0:0:0:0:
432,252,164035,1,2,0:2:0:0:
289,111,164184,54,0,B|211:97|233:143|150:125,1,134.999995880127,0|0,1:2|0:0,0:0:0:0:
93,86,164481,2,0,P|65:120|56:177,1,89.9999972534181,0|0,0:2|3:2,0:0:0:0:
0,242,164778,2,0,P|15:283|60:319,1,89.9999972534181,2|8,0:2|0:2,0:0:0:0:
405,384,165075,54,0,B|417:324|417:324|398:294|398:294|410:212,1,179.999994506836,8|0,0:2|0:2,0:0:0:0:
410,211,165520,1,8,0:2:0:0:
496,109,165669,2,0,L|504:204,1,89.9999972534181,2|0,0:2|0:2,0:0:0:0:
394,32,165966,69,4,1:2:0:0:
299,0,166114,1,8,0:2:0:0:
268,133,166263,53,0,1:2:0:0:
189,155,166411,1,0,3:2:0:0:
147,44,166560,37,8,0:3:0:0:
77,27,166708,1,4,0:3:0:0:
20,99,166857,101,12,0:2:0:0:
108,285,168639,1,8,0:1:0:0:
256,32,170421,1,8,0:2:0:0:
404,285,172203,1,8,0:1:0:0:
161,33,173986,70,0,P|111:26|25:81,1,150,12|0,0:1|0:2,0:0:0:0:
0,146,174283,2,0,L|12:264,1,100,8|0,0:2|0:2,0:0:0:0:
143,384,174580,1,10,0:2:0:0:
235,199,174728,1,0,1:2:0:0:
342,346,174877,2,0,P|396:357|520:268,1,200,10|8,0:2|0:2,0:0:0:0:
364,177,175322,53,2,1:2:0:0:
485,131,175471,1,8,0:2:0:0:
446,6,175619,1,0,1:2:0:0:
268,74,175768,54,0,P|183:77|111:32,1,150,10|0,0:2|0:2,0:0:0:0:
61,5,176065,1,8,0:2:0:0:
222,169,176213,2,0,P|171:166|104:199,1,100,2|8,0:2|2:2,0:0:0:0:
4,276,176510,1,0,1:2:0:0:
188,378,176659,2,0,P|239:381|306:348,1,100,10|0,0:2|0:2,0:0:0:0:
484,220,176956,53,10,0:2:0:0:
234,196,177104,1,0,1:2:0:0:
438,304,177253,53,8,0:3:0:0:
279,111,177401,1,8,0:3:0:0:
461,59,177550,38,0,P|410:38|353:28,2,100,2|0|0,0:2|0:2|0:2,0:0:0:0:
154,152,178441,54,0,P|205:131|257:123,2,89.9999972534181,2|0|0,0:2|0:2|0:2,0:0:0:0:
394,280,179332,54,0,P|353:266|314:257,2,80,2|0|0,0:2|0:2|0:2,0:0:0:0:
162,375,180223,54,0,P|194:364|230:358,2,69.9999978637696,2|0|0,0:2|0:2|0:2,0:0:0:0:
0,118,181114,69,12,0:1:0:0:
75,40,181411,5,0,1:2:0:0:
44,214,181560,1,8,0:2:0:0:
173,306,181708,53,0,1:2:0:0:
115,138,181857,1,8,0:2:0:0:
269,20,182005,53,0,1:2:0:0:
199,199,182154,1,8,0:2:0:0:
338,349,182302,53,0,1:2:0:0:
278,135,182451,1,8,0:2:0:0:
454,11,182600,53,0,1:2:0:0:
340,234,182748,1,8,0:2:0:0:
432,359,182897,54,0,B|465:384|503:373|503:373|523:290|466:235,1,220.000006713867,4|8,1:1|0:2,0:0:0:0:
75,161,183342,2,0,B|21:212|41:295|41:295|79:306|112:281,1,220.000006713867,4|8,1:2|0:2,0:0:0:0:
351,31,183788,2,0,P|399:6|458:11,1,110.000003356934,4|8,1:2|0:2,0:0:0:0:
148,153,184085,53,8,0:3:0:0:
95,136,184159,1,8,0:3:0:0:
95,81,184233,1,4,0:3:0:0:
148,64,184307,1,4,0:3:0:0:
180,108,184382,1,8,1:1:0:0:
253,376,184679,70,0,B|297:278|214:278|260:157,1,220.000006713867,12|0,2:1|0:2,0:0:0:0:
173,321,185124,1,0,1:2:0:0:
338,228,185273,1,0,0:2:0:0:
222,39,185421,1,8,0:2:0:0:
100,91,185570,2,0,P|83:138|81:214,1,110.000003356934,10|0,0:2|0:2,0:0:0:0:
451,321,185867,2,0,P|447:266|429:214,1,110.000003356934,0|0,1:2|0:2,0:0:0:0:
463,68,186164,54,0,L|338:91,1,110.000003356934,8|0,0:2|0:2,0:0:0:0:
285,256,186461,1,10,0:2:0:0:
270,334,186609,2,0,B|221:356|221:356|164:335,1,110.000003356934,8|0,0:2|0:2,0:0:0:0:
0,275,186906,2,0,L|9:390,1,110.000003356934,0|0,1:2|0:2,0:0:0:0:
134,131,187203,1,8,0:2:0:0:
231,204,187352,2,0,P|313:222|389:122,2,220.000006713867,2|8|0,1:2|0:2|1:2,0:0:0:0:
92,25,188095,53,0,0:2:0:0:
34,80,188243,2,0,P|13:133|33:295,1,220.000006713867,12|0,0:2|2:2,0:0:0:0:
391,168,188689,2,0,P|418:273|393:379,1,220.000006713867,0|8,1:2|0:2,0:0:0:0:
118,134,189134,2,0,P|101:186|111:241,1,110.000003356934,10|0,0:2|0:2,0:0:0:0:
392,67,189431,2,0,P|353:26|301:8,1,110.000003356934,0|0,1:2|0:2,0:0:0:0:
63,119,189728,54,0,L|176:109,1,110.000003356934,8|0,0:2|0:2,0:0:0:0:
453,213,190025,1,10,0:2:0:0:
497,279,190174,2,0,B|513:332|513:332|494:397,1,110.000003356934,8|0,0:2|0:2,0:0:0:0:
371,237,190471,2,0,B|233:232|314:308|164:307,1,220.000006713867,0|8,1:2|0:2,0:0:0:0:
14,384,190916,2,0,B|-1:332|-1:332|15:279,1,110.000003356934,0|0,1:2|0:2,0:0:0:0:
298,130,191213,53,8,3:2:0:0:
172,307,191362,1,0,3:2:0:0:
209,66,191510,53,0,1:2:0:0:
276,347,191659,1,0,1:2:0:0:
466,213,191807,54,0,P|489:141|435:4,1,220.000006713867,12|0,0:2|0:2,0:0:0:0:
372,191,192253,1,0,1:2:0:0:
276,222,192401,1,0,0:2:0:0:
182,187,192550,1,8,0:2:0:0:
63,11,192699,2,0,P|12:69|14:156,1,165.000005035401,10|0,0:2|0:2,0:0:0:0:
0,231,192996,2,0,L|138:210,1,110.000003356934,0|0,1:2|0:2,0:0:0:0:
266,352,193293,54,0,P|317:369|377:371,1,110.000003356934,8|0,0:2|0:2,0:0:0:0:
464,40,193590,2,0,P|391:20|322:26,1,110.000003356934,10|8,0:2|0:2,0:0:0:0:
273,72,193887,1,0,0:2:0:0:
424,152,194035,2,0,P|483:216|458:348,1,220.000006713867,0|0,1:2|0:2,0:0:0:0:
81,194,194481,2,0,P|22:258|47:390,1,220.000006713867,2|8,1:2|0:2,0:0:0:0:
264,196,194926,53,8,0:2:0:0:
166,268,195075,1,2,1:1:0:0:
256,80,195223,1,0,3:2:0:0:
365,300,195372,2,0,P|472:295|506:198,1,220.000006713867,12|0,0:2|0:2,0:0:0:0:
151,284,195817,2,0,P|44:279|10:182,1,220.000006713867,0|8,1:2|0:2,0:0:0:0:
415,106,196263,54,0,B|428:55|428:55|410:0,1,110.000003356934,2|0,1:2|0:2,0:0:0:0:
119,177,196560,2,0,B|106:126|106:126|123:71,1,110.000003356934,8|0,0:2|0:2,0:0:0:0:
326,262,196857,1,8,0:2:0:0:
326,262,197005,1,8,0:2:0:0:
206,123,197154,53,4,1:2:0:0:
133,325,197302,1,8,0:2:0:0:
2,288,197451,1,8,0:2:0:0:
338,168,197600,53,4,1:2:0:0:
384,372,197748,1,8,0:2:0:0:
512,351,197897,1,8,0:2:0:0:
211,222,198045,101,8,0:3:0:0:
211,222,198119,1,8,0:3:0:0:
211,222,198194,1,8,0:3:0:0:
437,120,198342,53,2,1:2:0:0:
351,384,198491,1,0,1:2:0:0:
88,299,198639,1,2,1:2:0:0:
173,34,198788,1,0,1:2:0:0:
50,130,198936,6,0,B|116:116|116:116|149:137|149:137|269:120,1,220.000006713867,12|0,0:1|0:2,0:0:0:0:
474,117,199382,1,0,1:2:0:0:
378,264,199530,1,0,0:2:0:0:
401,48,199679,53,8,0:2:0:0:
474,335,199827,2,0,L|346:346,1,110.000003356934,10|0,0:2|0:2,0:0:0:0:
107,271,200124,54,0,L|216:280,1,110.000003356934,0|0,1:2|0:2,0:0:0:0:
12,362,200421,2,0,L|121:371,1,110.000003356934,8|0,0:2|0:2,0:0:0:0:
90,88,200718,53,10,0:2:0:0:
11,135,200867,2,0,B|113:168|104:85|229:119,1,220.000006713867,8|0,0:2|1:2,0:0:0:0:
460,176,201312,1,0,0:2:0:0:
369,228,201461,1,8,0:2:0:0:
298,56,201609,54,0,B|348:32|348:32|399:49,1,110.000003356934,2|0,1:2|0:2,0:0:0:0:
426,307,201906,2,0,B|376:331|376:331|324:313,1,110.000003356934,8|0,0:2|0:2,0:0:0:0:
169,195,202203,1,10,2:1:0:0:
169,195,202352,1,0,2:2:0:0:
74,343,202501,54,0,B|60:276|60:276|81:243|81:243|64:123,1,220.000006713867,12|0,0:2|0:2,0:0:0:0:
259,66,202946,2,0,B|245:132|245:132|266:165|266:165|249:285,1,220.000006713867,0|8,1:2|0:2,0:0:0:0:
367,99,203392,54,0,P|413:68|475:82,1,110.000003356934,12|0,2:2|0:2,0:0:0:0:
490,179,203689,2,0,P|444:210|382:196,1,110.000003356934,2|0,1:1|0:2,0:0:0:0:
259,66,203986,1,8,2:2:0:0:
0,203,204134,53,0,3:2:0:0:
0,203,204208,1,0,3:2:0:0:
0,203,204283,2,0,B|99:207|64:259|166:257,1,165.000005035401,12|0,0:1|0:2,0:0:0:0:
228,250,204580,2,0,P|239:273|242:301,1,55.0000016784668,8|0,0:2|0:2,0:0:0:0:
339,379,204728,54,0,P|331:293|384:228,1,165.000005035401,0|0,1:2|0:2,0:0:0:0:
445,190,205025,2,0,P|406:141|391:134,1,55.0000016784668,8|0,0:2|0:2,0:0:0:0:
256,32,205174,53,4,1:2:0:0:
93,287,205471,53,8,3:3:0:0:
38,286,205545,1,8,3:3:0:0:
21,236,205619,1,8,3:3:0:0:
63,203,205694,1,8,3:3:0:0:
107,234,205768,1,4,3:3:0:0:
93,287,205842,1,4,3:3:0:0:
136,317,205916,1,4,3:3:0:0:
179,284,205991,1,4,3:3:0:0:
161,234,206065,2,0,B|111:182|106:80|209:19,2,220.000006713867,12|0|0,0:1|0:2|0:2,0:0:0:0:
324,340,206807,53,8,0:2:0:0:
386,290,206956,2,0,B|436:238|441:136|338:75,1,220.000006713867,0|2,1:2|0:2,0:0:0:0:
296,64,207401,1,8,0:2:0:0:
233,114,207550,1,0,3:2:0:0:
158,81,207699,1,8,0:2:0:0:
7,193,207847,54,0,P|92:188|174:284,1,220.000006713867,10|0,0:2|0:2,0:0:0:0:
173,283,208293,1,8,0:2:0:0:
334,291,208441,2,0,P|287:318|268:369,1,110.000003356934,0|8,3:2|0:2,0:0:0:0:
247,236,208738,53,2,1:2:0:0:
218,146,208887,1,0,3:2:0:0:
218,146,209035,1,8,2:2:0:0:
340,0,209184,53,2,1:2:0:0:
311,90,209332,1,0,3:2:0:0:
375,145,209481,1,8,0:2:0:0:
505,238,209629,54,0,P|399:263|324:341,1,220.000006713867,12|0,0:2|0:2,0:0:0:0:
324,341,210075,1,8,0:2:0:0:
184,214,210223,2,0,P|237:224|282:255,1,110.000003356934,0|0,3:2|0:2,0:0:0:0:
27,360,210520,54,0,B|13:294|13:294|34:261|34:261|17:141,2,220.000006713867,2|0|8,1:2|3:2|0:2,0:0:0:0:
222,325,211263,1,0,3:2:0:0:
222,325,211337,1,0,3:2:0:0:
222,325,211411,2,0,B|236:259|236:259|215:226|215:226|232:106,1,220.000006713867,10|0,0:2|0:2,0:0:0:0:
230,113,211857,1,8,0:2:0:0:
109,34,212005,2,0,L|120:161,1,110.000003356934,0|8,3:2|0:2,0:0:0:0:
326,291,212302,37,6,1:2:0:0:
431,145,212451,1,8,0:2:0:0:
345,112,212600,53,2,0:2:0:0:
400,344,212748,1,8,0:2:0:0:
512,248,212897,53,2,1:2:0:0:
252,186,213045,1,0,1:2:0:0:
25,275,213194,70,0,B|114:272|99:346|178:338,1,165.000005035401,12|0,0:1|0:2,0:0:0:0:
242,310,213491,2,0,L|250:402,1,75.0000028610231,0|0,0:2|0:2,0:0:0:0:
512,135,213788,54,0,B|422:132|437:206|358:198,1,165.000005035401,10|0,0:2|0:2,0:0:0:0:
295,170,214085,2,0,L|286:270,1,75.0000028610231,0|0,1:2|0:2,0:0:0:0:
146,129,214382,53,2,1:2:0:0:
121,37,214530,1,8,0:2:0:0:
57,108,214679,1,2,1:2:0:0:
211,58,214827,1,8,0:2:0:0:
501,91,214976,54,0,P|420:103|355:222,1,220.000006713867,4|8,1:2|0:2,0:0:0:0:
143,383,215421,2,0,P|172:307|102:191,1,220.000006713867,4|8,1:2|0:2,0:0:0:0:
201,32,215867,53,8,3:1:0:0:
232,30,215941,1,8,3:1:0:0:
264,27,216015,1,8,3:1:0:0:
296,24,216090,1,8,3:1:0:0:
315,48,216164,1,8,3:3:0:0:
284,50,216238,1,8,3:3:0:0:
252,53,216312,1,8,3:3:0:0:
220,56,216387,1,8,3:3:0:0:
201,32,216461,1,4,3:3:0:0:
232,30,216535,1,4,3:3:0:0:
264,27,216609,1,4,3:3:0:0:
296,24,216684,1,4,3:3:0:0:
330,16,216758,38,0,P|429:56|468:155,1,220.000006713867,4|8,1:1|0:2,0:0:0:0:
181,367,217203,2,0,P|82:327|43:228,1,220.000006713867,2|8,1:2|0:2,0:0:0:0:
319,154,217649,69,2,1:2:0:0:
214,240,217797,1,8,0:2:0:0:
248,109,217946,53,2,1:2:0:0:
289,282,218094,1,8,0:2:0:0:
181,16,218243,102,0,P|82:56|43:155,1,220.000006713867,2|8,1:1|0:2,0:0:0:0:
330,367,218688,2,0,P|429:327|468:228,1,220.000006713867,2|8,1:2|0:2,0:0:0:0:
175,140,219134,69,2,1:2:0:0:
315,255,219282,1,8,0:2:0:0:
270,80,219431,53,2,1:2:0:0:
215,310,219579,1,8,0:2:0:0:
498,102,219728,102,0,B|376:112|418:3|291:12,1,220.000006713867,4|8,1:2|0:2,0:0:0:0:
14,209,220173,2,0,B|136:219|94:110|221:119,1,220.000006713867,2|8,1:2|0:2,0:0:0:0:
440,212,220619,69,2,1:2:0:0:
275,258,220767,1,8,0:2:0:0:
346,369,220916,53,2,1:2:0:0:
180,323,221064,1,8,0:2:0:0:
23,93,221213,102,0,P|118:103|172:216,1,220.000006713867,2|8,1:1|0:2,0:0:0:0:
470,26,221658,2,0,P|375:36|321:149,1,220.000006713867,2|8,1:2|0:2,0:0:0:0:
256,384,222104,69,8,3:3:0:0:
256,352,222178,1,8,3:3:0:0:
256,320,222253,1,8,3:3:0:0:
256,288,222327,1,8,3:3:0:0:
256,256,222401,53,4,3:3:0:0:
256,277,222475,1,4,3:3:0:0:
257,299,222550,1,4,3:3:0:0:
256,320,222624,1,4,3:3:0:0:
245,350,222698,102,0,B|213:372|183:380|183:380|112:376|5:332,1,239.999992675781,4|8,1:1|0:2,0:0:0:0:
267,34,223144,2,0,B|299:12|329:4|329:4|400:8|507:52,1,239.999992675781,2|8,1:2|0:2,0:0:0:0:
180,188,223589,69,2,1:2:0:0:
369,278,223738,1,8,0:2:0:0:
314,123,223886,53,2,1:2:0:0:
245,350,224035,1,8,0:2:0:0:
453,229,224183,102,0,B|521:285|498:383|498:383|458:397|429:370,1,239.999992675781,2|8,1:1|0:2,0:0:0:0:
59,229,224629,2,0,B|-9:285|14:383|14:383|54:397|83:370,1,239.999992675781,2|8,1:2|0:2,0:0:0:0:
332,131,225074,69,2,1:2:0:0:
212,344,225223,1,8,0:2:0:0:
225,105,225371,53,2,1:2:0:0:
321,364,225520,1,8,0:2:0:0:
453,229,225668,102,0,P|484:90|437:-1,1,239.999992675781,4|8,0:2|0:2,0:0:0:0:
59,229,226114,2,0,P|28:90|75:-1,1,239.999992675781,2|8,1:2|2:2,0:0:0:0:
390,173,226559,69,2,1:2:0:0:
139,268,226708,1,8,0:2:0:0:
311,98,226857,53,2,1:2:0:0:
434,340,227005,1,8,0:2:0:0:
194,366,227154,38,0,B|55:344|143:409|-17:376,1,200,2|8,1:1|0:2,0:0:0:0:
274,238,227599,38,0,B|374:235|311:194|428:187,1,160,10|0,0:2|0:2,0:0:0:0:
197,7,228045,53,0,1:2:0:0:
209,65,228119,53,0,1:2:0:0:
195,116,228193,53,0,1:2:0:0:
162,150,228267,53,0,1:2:0:0:
123,161,228342,53,8,3:3:0:0:
88,150,228416,53,8,3:3:0:0:
71,122,228490,53,8,3:3:0:0:
74,94,228564,53,8,3:3:0:0:
91,80,228639,53,4,3:3:0:0:
109,76,228713,53,4,3:3:0:0:
123,84,228787,53,4,3:3:0:0:
129,94,228861,53,4,3:3:0:0:
127,101,228936,53,4,2:2:0:0:
17,195,229827,37,2,0:2:0:0:
65,327,230718,53,2,0:1:0:0:
198,371,231609,53,2,0:2:0:0:
320,261,232500,54,0,P|322:192|305:149,1,100,2|0,0:1|0:2,0:0:0:0:
289,144,232945,1,0,0:2:0:0:
256,139,233094,1,0,0:2:0:0:
223,159,233242,1,0,0:2:0:0:
208,212,233391,1,2,0:2:0:0:
232,267,233539,1,0,0:2:0:0:
225,340,233688,1,0,0:2:0:0:
161,384,233836,1,0,0:2:0:0:
84,364,233985,1,0,0:2:0:0:
15,229,234282,54,0,P|1:268|1:352,2,119.999996337891,2|0|0,0:1|0:2|0:2,0:0:0:0:
230,153,235173,53,0,0:2:0:0:
304,191,235322,1,0,0:2:0:0:
300,108,235470,1,2,0:2:0:0:
153,56,235619,1,0,1:2:0:0:
153,56,235693,1,0,1:2:0:0:
153,56,235767,1,8,3:3:0:0:
360,0,235916,1,4,3:3:0:0:
457,87,236064,6,0,P|484:154|443:256,1,150,12|0,0:1|0:2,0:0:0:0:
422,288,236361,1,8,0:2:0:0:
275,206,236510,2,0,P|243:185|162:185,1,100,2|8,0:2|0:2,0:0:0:0:
54,223,236807,1,0,1:2:0:0:
285,309,236955,2,0,P|238:355|86:334,1,200,10|8,0:2|0:2,0:0:0:0:
23,217,237401,53,2,1:2:0:0:
160,193,237549,1,8,0:2:0:0:
134,54,237698,1,0,1:2:0:0:
286,7,237846,54,0,P|349:43|366:115,1,150,10|0,0:2|0:2,0:0:0:0:
332,182,238143,1,8,0:2:0:0:
419,329,238292,2,0,P|470:330|516:305,1,100,2|8,0:2|0:2,0:0:0:0:
332,182,238589,1,0,1:2:0:0:
233,371,238737,2,0,P|183:372|139:350,1,100,10|0,0:2|0:2,0:0:0:0:
47,158,239035,53,10,0:2:0:0:
12,380,239183,1,0,1:2:0:0:
171,142,239332,53,8,0:3:0:0:
233,371,239480,1,8,0:3:0:0:
332,182,239629,38,0,P|322:226|316:296,2,100,2|0|0,0:2|0:2|0:2,0:0:0:0:
93,150,240520,54,0,P|102:189|107:253,2,89.9999972534181,2|0|0,0:2|0:2|0:2,0:0:0:0:
319,99,241411,54,0,P|311:132|306:184,2,80,2|0|0,0:2|0:2|0:2,0:0:0:0:
107,70,242302,54,0,P|113:99|117:146,2,69.9999978637696,2|0|0,0:2|0:2|0:2,0:0:0:0:
398,220,243193,85,4,1:1:0:0:
335,66,243341,1,8,0:2:0:0:
242,203,243490,1,8,0:2:0:0:
416,335,243638,53,4,1:2:0:0:
335,66,243787,1,8,0:2:0:0:
201,312,243936,1,8,0:2:0:0:
476,146,244084,53,2,1:2:0:0:
146,201,244233,1,8,0:2:0:0:
492,237,244381,53,2,1:2:0:0:
181,115,244530,1,8,0:2:0:0:
307,304,244678,53,2,1:2:0:0:
335,66,244827,1,8,0:2:0:0:
251,169,244975,86,0,B|279:230|347:218|347:218|360:191|387:179,1,175,2|0,0:1|0:0,0:0:0:0:
256,192,247611,12,12,248539,0:2:0:0:
64,192,250322,117,8,0:1:0:0:
256,352,252104,1,8,0:2:0:0:
448,192,253886,1,8,0:1:0:0:
272,208,255668,6,0,P|330:199|386:218,1,119.999996337891,12|0,0:2|0:2,0:0:0:0:
438,277,256114,1,0,3:2:0:0:
440,353,256262,1,0,0:2:0:0:
370,384,256411,1,0,3:2:0:0:
238,284,256559,54,0,P|179:275|123:294,1,119.999996337891,10|0,0:2|0:2,0:0:0:0:
123,294,257005,1,0,3:2:0:0:
39,364,257153,2,0,L|32:284,1,59.9999981689454,0|0,0:2|0:2,0:0:0:0:
18,140,257450,54,0,B|74:119|90:169|162:140,1,119.999996337891,10|0,0:2|0:2,0:0:0:0:
294,84,257896,2,0,P|237:85|215:137,1,119.999996337891,0|0,3:2|3:2,0:0:0:0:
490,204,258341,54,0,L|496:129,1,75.0000028610231,10|0,0:2|3:2,0:0:0:0:
402,254,258638,2,0,L|396:179,1,75.0000028610231,2|0,0:2|3:2,0:0:0:0:
482,380,258936,2,0,L|488:305,1,75.0000028610231,2|0,0:2|3:2,0:0:0:0:
288,304,259233,70,0,P|231:300|188:265,1,112.500004291535,4|0,0:2|0:2,0:0:0:0:
88,158,259530,2,0,P|111:208|103:263,1,112.500004291535,10|0,0:1|0:2,0:0:0:0:
91,382,259827,2,0,P|113:352|146:335,1,75.0000028610231,10|0,0:1|0:2,0:0:0:0:
272,190,260124,54,0,P|331:186|378:149,1,112.500004291535,12|0,0:2|0:2,0:0:0:0:
484,34,260421,2,0,P|458:87|467:146,1,112.500004291535,10|0,0:1|0:2,0:0:0:0:
457,244,260718,2,0,P|442:232|426:224,1,37.5000014305115,10|0,0:1|0:2,0:0:0:0:
256,288,260866,53,8,0:2:0:0:
256,288,260940,1,8,0:2:0:0:
256,288,261015,1,0,1:2:0:0:
166,227,261163,1,8,0:2:0:0:
312,120,261312,1,0,1:2:0:0:
312,120,261386,1,0,1:2:0:0:
312,120,261460,2,0,L|316:167,1,37.5000014305115,8|8,0:2|0:2,0:0:0:0:
134,90,261609,53,8,0:3:0:0:
104,42,261683,1,8,0:3:0:0:
139,0,261757,1,4,0:3:0:0:
191,21,261832,1,4,0:3:0:0:
187,76,261906,1,8,1:1:0:0:
253,376,262797,6,0,B|293:269|216:271|260:157,1,220.000006713867,12|0,0:1|0:2,0:0:0:0:
173,323,263242,1,0,1:2:0:0:
341,226,263391,1,0,0:2:0:0:
256,0,263539,1,8,0:2:0:0:
166,90,263688,53,10,0:2:0:0:
345,65,263836,1,0,3:2:0:0:
435,205,263985,53,2,1:2:0:0:
256,180,264134,1,0,3:2:0:0:
99,263,264282,2,0,L|108:374,1,110.000003356934,8|0,0:2|0:2,0:0:0:0:
403,372,264579,53,10,0:2:0:0:
464,300,264728,2,0,P|485:247|465:85,1,220.000006713867,8|0,0:2|1:2,0:0:0:0:
272,26,265173,1,0,2:2:0:0:
245,116,265322,1,8,2:2:0:0:
338,94,265470,53,2,1:1:0:0:
178,48,265619,1,0,3:2:0:0:
0,181,265767,53,10,0:2:0:0:
144,139,265916,1,0,3:2:0:0:
298,245,266064,2,0,P|250:268|221:314,1,110.000003356934,10|0,0:1|0:2,0:0:0:0:
462,352,266361,54,0,P|483:299|463:137,1,220.000006713867,12|0,1:2|0:2,0:0:0:0:
39,257,266807,2,0,P|12:152|37:46,1,220.000006713867,0|8,1:2|0:2,0:0:0:0:
315,190,267252,54,0,L|203:199,1,110.000003356934,10|0,0:1|0:2,0:0:0:0:
291,27,267549,2,0,L|355:118,1,110.000003356934,0|0,1:2|0:2,0:0:0:0:
208,30,267846,2,0,L|161:129,1,110.000003356934,8|0,0:2|0:2,0:0:0:0:
286,384,268143,53,12,0:2:0:0:
355,339,268292,2,0,B|369:287|369:287|345:235,1,110.000003356934,8|0,0:2|0:2,0:0:0:0:
90,145,268589,1,2,1:2:0:0:
21,190,268737,2,0,B|7:242|7:242|30:293,1,110.000003356934,8|0,0:2|0:2,0:0:0:0:
314,160,269035,53,2,1:2:0:0:
105,239,269183,1,8,0:2:0:0:
142,35,269332,1,8,3:3:0:0:
200,62,269406,1,8,3:3:0:0:
235,108,269480,1,8,3:3:0:0:
244,160,269554,1,8,3:3:0:0:
228,201,269629,1,4,3:3:0:0:
194,225,269703,1,4,3:3:0:0:
159,221,269777,1,4,3:3:0:0:
135,202,269851,1,4,3:3:0:0:
136,175,269926,2,0,B|250:131|265:226|383:175,2,220.000006713867,12|0|0,2:1|0:2|0:2,0:0:0:0:
402,360,270668,53,8,0:2:0:0:
458,304,270817,2,0,P|479:251|459:89,1,220.000006713867,0|2,1:2|0:2,0:0:0:0:
400,42,271262,1,0,0:2:0:0:
322,39,271411,1,0,3:2:0:0:
266,94,271559,1,8,0:2:0:0:
44,3,271708,54,0,P|23:56|43:218,1,220.000006713867,10|0,0:2|0:2,0:0:0:0:
106,257,272153,1,0,3:2:0:0:
137,329,272302,1,8,0:2:0:0:
81,382,272450,1,0,3:2:0:0:
225,302,272599,53,2,1:2:0:0:
413,351,272747,1,8,2:2:0:0:
413,351,272896,1,8,0:2:0:0:
292,360,273044,53,2,1:2:0:0:
273,231,273193,1,8,2:2:0:0:
255,103,273341,1,8,0:2:0:0:
434,0,273490,54,0,B|420:65|420:65|441:99|441:99|424:219,1,220.000006713867,12|0,0:2|0:2,0:0:0:0:
425,211,273936,1,0,3:2:0:0:
300,340,274084,2,0,L|288:212,1,110.000003356934,8|0,0:2|0:2,0:0:0:0:
137,8,274381,54,0,P|83:10|47:50,1,110.000003356934,0|0,1:2|0:2,0:0:0:0:
193,150,274678,2,0,P|217:102|201:51,1,110.000003356934,0|0,3:2|0:2,0:0:0:0:
42,127,274975,2,0,P|70:172|123:183,1,110.000003356934,8|0,0:2|0:2,0:0:0:0:
411,16,275272,54,0,B|472:66|451:154|451:154|415:167|389:142,1,220.000006713867,10|0,0:2|0:2,0:0:0:0:
107,192,275718,2,0,B|45:242|66:330|66:330|102:343|128:318,1,220.000006713867,8|8,0:2|0:2,0:0:0:0:
256,144,276163,2,0,B|277:93|239:80|256:34,1,110.000003356934,4|0,1:2|0:2,0:0:0:0:
139,171,276460,37,2,0:2:0:0:
362,229,276609,1,8,0:2:0:0:
446,315,276757,53,2,1:2:0:0:
223,373,276906,1,0,1:2:0:0:
0,120,277054,6,0,B|90:117|75:191|154:183,1,165.000005035401,12|0,0:1|0:2,0:0:0:0:
217,155,277351,2,0,L|226:255,1,75.0000028610231,0|0,0:2|0:2,0:0:0:0:
512,247,277648,54,0,B|422:244|437:318|358:310,1,165.000005035401,10|0,0:2|0:2,0:0:0:0:
295,282,277945,2,0,L|286:382,1,75.0000028610231,2|0,1:2|0:2,0:0:0:0:
30,356,278242,53,2,1:2:0:0:
42,229,278391,1,8,0:2:0:0:
168,241,278539,1,2,1:2:0:0:
157,367,278688,1,8,0:2:0:0:
55,142,278836,54,0,P|144:135|175:4,1,220.000006713867,4|8,1:2|0:2,0:0:0:0:
457,142,279282,2,0,P|369:135|338:4,1,220.000006713867,4|8,1:2|0:2,0:0:0:0:
256,352,279728,101,10,3:1:0:0:
256,328,279802,1,8,3:1:0:0:
256,305,279876,2,0,L|256:240,1,55.0000016784668,8|8,3:1|3:1,0:0:0:0:
250,77,280025,1,8,3:3:0:0:
197,78,280099,1,8,3:3:0:0:
180,127,280173,1,8,3:3:0:0:
221,158,280247,1,8,3:3:0:0:
263,128,280322,1,4,3:3:0:0:
250,77,280396,1,4,3:3:0:0:
291,48,280470,1,4,3:3:0:0:
333,80,280544,1,4,3:3:0:0:
315,128,280619,2,0,B|282:176|282:176|280:256|346:302,1,200,12|0,0:1|0:2,0:0:0:0:
464,181,281064,69,2,1:2:0:0:
512,268,281213,1,0,3:2:0:0:
489,365,281361,1,8,0:2:0:0:
331,279,281510,2,0,B|220:238|257:318|122:283,1,200,2|10,1:2|0:1,0:0:0:0:
0,194,281955,53,2,0:2:0:0:
10,357,282104,1,0,3:2:0:0:
0,194,282252,1,0,1:2:0:0:
137,286,282401,53,12,0:2:0:0:
90,153,282549,1,0,3:2:0:0:
147,25,282698,1,0,3:2:0:0:
283,74,282846,53,0,1:2:0:0:
283,74,282921,1,0,3:2:0:0:
283,74,282995,1,2,3:2:0:0:
187,106,283143,1,8,2:2:0:0:
322,161,283292,53,2,1:2:0:0:
447,175,283440,1,8,0:2:0:0:
289,250,283589,53,2,0:2:0:0:
152,279,283737,1,0,1:2:0:0:
346,329,283886,53,2,0:2:0:0:
512,368,284035,1,8,0:2:0:0:
447,175,284183,2,0,B|401:123|439:40|439:40|384:4,1,200,12|0,2:2|0:2,0:0:0:0:
316,170,284629,53,2,1:2:0:0:
224,210,284777,1,0,3:2:0:0:
134,165,284926,1,8,0:2:0:0:
0,327,285074,2,0,P|95:313|165:400,1,200,2|10,1:2|0:1,0:0:0:0:
224,112,285520,53,2,0:2:0:0:
316,170,285668,1,0,3:2:0:0:
413,117,285817,1,0,1:2:0:0:
512,316,285965,2,0,P|419:297|330:404,1,220.000006713867,12|0,0:2|0:2,0:0:0:0:
171,221,286411,53,2,1:2:0:0:
224,112,286559,1,0,3:2:0:0:
157,11,286708,1,8,0:2:0:0:
276,4,286856,53,12,0:2:0:0:
104,118,287005,1,8,0:2:0:0:
231,120,287153,53,2,1:2:0:0:
231,120,287228,1,0,1:2:0:0:
231,120,287302,1,0,0:2:0:0:
44,219,287450,1,8,0:3:0:0:
224,332,287599,1,8,0:3:0:0:
319,276,287747,54,0,B|455:241|388:325|525:293,1,200,12|0,0:1|0:2,0:0:0:0:
366,159,288193,53,2,1:2:0:0:
465,206,288341,1,0,3:2:0:0:
509,105,288490,1,8,0:2:0:0:
318,63,288638,2,0,B|393:46|393:46|418:21|418:21|516:0,1,200,2|10,1:2|0:1,0:0:0:0:
366,159,289084,53,2,0:2:0:0:
317,246,289233,1,0,3:2:0:0:
335,343,289381,1,0,1:2:0:0:
411,278,289530,53,12,0:2:0:0:
241,310,289678,1,0,3:2:0:0:
92,220,289827,1,0,3:2:0:0:
52,141,289975,53,0,1:2:0:0:
52,141,290049,1,0,3:2:0:0:
52,141,290124,1,2,3:2:0:0:
20,275,290272,1,8,2:2:0:0:
109,310,290421,53,2,1:2:0:0:
147,148,290569,1,8,0:2:0:0:
242,157,290718,53,2,0:2:0:0:
198,345,290866,1,0,1:2:0:0:
287,380,291015,53,2,0:2:0:0:
337,165,291163,1,8,0:2:0:0:
423,308,291312,54,0,B|451:330|489:325|489:325|518:254|465:168,1,220.000006713867,12|0,0:2|0:2,0:0:0:0:
364,25,291757,53,2,1:2:0:0:
253,75,291906,1,0,3:2:0:0:
139,35,292054,1,8,0:2:0:0:
19,193,292203,2,0,B|-26:265|2:336|2:336|40:341|68:319,1,220.000006713867,2|10,1:2|0:1,0:0:0:0:
267,166,292648,53,2,0:2:0:0:
318,262,292797,1,0,3:2:0:0:
287,368,292945,1,0,1:2:0:0:
148,213,293094,53,4,1:2:0:0:
440,257,293242,1,8,0:2:0:0:
191,319,293391,1,8,0:2:0:0:
331,77,293539,53,4,1:2:0:0:
431,380,293688,1,8,0:2:0:0:
472,99,293836,1,8,0:2:0:0:
137,233,293985,53,4,1:2:0:0:
499,325,294134,1,8,0:2:0:0:
325,31,294282,101,8,1:3:0:0:
317,84,294381,1,8,0:3:0:0:
311,138,294480,1,8,0:3:0:0:
303,192,294579,53,4,0:3:0:0:
295,166,294678,1,4,0:3:0:0:
286,139,294777,1,4,0:3:0:0:
276,111,294876,102,0,P|217:105|160:122,1,119.999996337891,12|0,3:1|0:2,0:0:0:0:
103,193,295322,1,0,0:2:0:0:
105,224,295470,1,0,0:2:0:0:
108,256,295619,1,0,0:2:0:0:
214,354,295767,54,0,B|255:345|255:345|276:358|276:358|352:347,1,119.999996337891,2|0,1:2|0:2,0:0:0:0:
401,288,296213,1,0,0:2:0:0:
404,256,296361,1,0,0:2:0:0:
406,225,296510,1,0,0:2:0:0:
317,129,296658,54,0,L|322:188,1,59.9999981689454,2|0,3:2|0:2,0:0:0:0:
322,188,296955,1,0,0:2:0:0:
429,80,297104,1,0,0:2:0:0:
429,80,297178,1,0,0:2:0:0:
429,80,297252,2,0,L|423:139,1,59.9999981689454,0|0,0:2|0:2,0:0:0:0:
250,31,297549,54,0,P|220:22|189:21,1,59.9999981689454,0|0,1:2|0:2,0:0:0:0:
176,100,297846,2,0,P|206:109|237:110,1,59.9999981689454,0|0,0:2|0:2,0:0:0:0:
110,44,298143,2,0,L|78:46,3,29.9999990844727,0|0|0|0,0:2|0:2|0:2|0:2,0:0:0:0:
43,79,298440,54,0,P|66:117|61:194,1,119.999996337891,2|0,3:2|0:2,0:0:0:0:
8,259,298886,1,0,0:2:0:0:
2,288,299035,1,0,0:2:0:0:
10,317,299183,1,0,0:2:0:0:
209,252,299332,54,0,P|164:249|99:290,1,119.999996337891,2|0,1:2|0:2,0:0:0:0:
159,375,299777,1,0,0:2:0:0:
187,372,299926,1,0,0:2:0:0:
215,360,300074,1,0,0:2:0:0:
332,290,300223,54,0,B|386:271|407:311|461:287,1,119.999996337891,2|0,3:2|0:2,0:0:0:0:
504,210,300668,1,0,0:2:0:0:
501,178,300817,1,0,0:2:0:0:
498,146,300965,1,0,0:2:0:0:
416,64,301114,53,2,1:2:0:0:
336,106,301262,1,0,0:2:0:0:
182,38,301411,1,0,3:2:0:0:
182,38,301485,1,0,3:2:0:0:
182,38,301559,1,0,3:2:0:0:
238,113,301708,53,0,3:2:0:0:
281,33,301856,1,0,3:2:0:0:
142,118,302005,54,0,B|132:163|132:163|146:186|146:186|135:268,1,150.000005722046,12|0,3:1|0:2,0:0:0:0:
85,321,302450,1,0,0:2:0:0:
153,363,302599,1,0,0:2:0:0:
226,336,302747,1,0,0:2:0:0:
361,367,302896,54,0,B|351:321|351:321|365:298|365:298|354:216,1,150.000005722046,2|0,1:2|0:2,0:0:0:0:
304,162,303341,1,0,0:2:0:0:
355,102,303490,1,0,0:2:0:0:
429,116,303638,1,0,0:2:0:0:
275,25,303787,54,0,P|237:23|203:38,1,75.0000028610231,2|0,3:2|0:2,0:0:0:0:
157,106,304084,1,0,0:2:0:0:
47,17,304233,1,0,0:2:0:0:
47,17,304307,1,0,0:2:0:0:
47,17,304381,2,0,P|84:15|118:30,1,75.0000028610231,0|0,0:2|0:2,0:0:0:0:
211,181,304678,53,2,1:2:0:0:
175,255,304827,1,0,3:2:0:0:
131,191,304975,1,2,0:2:0:0:
253,248,305124,1,0,3:2:0:0:
411,225,305272,53,2,3:2:0:0:
341,187,305421,1,0,3:2:0:0:
341,187,305495,1,0,3:2:0:0:
341,187,305569,2,0,P|330:243|349:346,1,150.000005722046,2|0,3:2|0:2,0:0:0:0:
411,377,306015,1,0,0:2:0:0:
481,348,306163,1,0,0:2:0:0:
496,274,306312,1,0,0:2:0:0:
341,187,306460,54,0,B|262:166|270:220|165:187,1,150.000005722046,2|0,1:2|0:2,0:0:0:0:
132,153,306906,1,0,0:2:0:0:
91,89,307054,1,0,0:2:0:0:
144,35,307203,1,0,0:2:0:0:
49,163,307351,54,0,B|39:208|39:208|53:231|53:231|42:313,1,150.000005722046,2|0,3:2|0:2,0:0:0:0:
72,384,307797,1,0,0:2:0:0:
147,377,307945,1,0,0:2:0:0:
220,369,308094,1,0,0:2:0:0:
386,347,308242,53,2,1:2:0:0:
386,347,308391,1,0,0:2:0:0:
424,271,308539,2,0,L|468:278,2,37.5000014305115,0|0|0,0:2|0:2|0:2,0:0:0:0:
235,256,308836,69,4,0:3:0:0:
235,256,308985,2,0,B|305:193|284:97|284:97|355:115|438:86|455:13|390:-69|290:-37|294:62|294:62|243:14|207:27|187:54|172:88|208:124,1,719.999978027344,4|0,0:3|3:2,0:0:0:0:
