osu file format v14

[General]
AudioFilename: audio.mp3
AudioLeadIn: 0
PreviewTime: -1
Countdown: 0
SampleSet: None
StackLeniency: 0.5
Mode: 0
LetterboxInBreaks: 0
WidescreenStoryboard: 0

[Editor]
Bookmarks: 15457,30817,46177,53857,69217
DistanceSpacing: 0.8
BeatDivisor: 4
GridSize: 8
TimelineZoom: 1

[Metadata]
Title:Masked Heroes
TitleUnicode:Masked Heroes
Artist:Vexento
ArtistUnicode:Vexento
Creator:RealXantoo
Version:Cute Song
Source:
Tags:
BeatmapID:1605414
BeatmapSetID:763537

[Difficulty]
HPDrainRate:6
CircleSize:4
OverallDifficulty:8
ApproachRate:9
SliderMultiplier:1.7
SliderTickRate:1

[Events]
//Background and Video events
0,0,"Vexento masked heroes.jpg",0,0
//Break Periods
2,29097,45577
//Storyboard Layer 0 (Background)
//Storyboard Layer 1 (Fail)
//Storyboard Layer 2 (Pass)
//Storyboard Layer 3 (Foreground)
//Storyboard Sound Samples

[TimingPoints]
577.831316790857,480,4,1,0,100,1,0
53737,-66.6666666666667,4,1,0,100,0,0

[HitObjects]
128,80,577,5,0,0:0:0:0:
320,160,817,1,0,0:0:0:0:
320,160,1057,1,0,0:0:0:0:
320,160,1297,1,0,0:0:0:0:
176,32,1537,5,0,0:0:0:0:
104,224,1777,1,0,0:0:0:0:
104,224,2017,1,0,0:0:0:0:
104,224,2257,1,0,0:0:0:0:
208,96,2497,5,0,0:0:0:0:
216,264,2737,1,0,0:0:0:0:
320,96,2977,1,0,0:0:0:0:
320,304,3217,1,0,0:0:0:0:
440,96,3457,1,0,0:0:0:0:
432,344,3697,1,0,0:0:0:0:
360,120,3937,5,0,0:0:0:0:
360,120,4177,1,0,0:0:0:0:
120,120,4417,1,0,0:0:0:0:
360,120,4657,1,0,0:0:0:0:
360,120,4897,5,0,0:0:0:0:
360,120,5137,1,0,0:0:0:0:
208,288,5377,1,0,0:0:0:0:
120,80,5617,1,0,0:0:0:0:
120,80,5857,5,0,0:0:0:0:
120,80,6097,1,0,0:0:0:0:
296,67,6337,1,0,0:0:0:0:
166,245,6577,1,0,0:0:0:0:
375,177,6817,1,0,0:0:0:0:
166,109,7057,1,0,0:0:0:0:
296,288,7297,1,0,0:0:0:0:
296,67,7537,1,0,0:0:0:0:
166,245,7777,5,0,0:0:0:0:
166,245,8017,1,0,0:0:0:0:
112,56,8257,1,0,0:0:0:0:
352,120,8497,1,0,0:0:0:0:
352,120,8737,5,0,0:0:0:0:
352,120,8977,1,0,0:0:0:0:
256,320,9217,1,0,0:0:0:0:
240,72,9457,1,0,0:0:0:0:
240,72,9697,1,0,0:0:0:0:
240,72,9937,1,0,0:0:0:0:
368,232,10177,6,0,L|280:288,1,85
384,56,10657,2,0,L|424:144,1,85
192,56,11137,2,0,L|288:16,1,85
200,240,11617,5,0,0:0:0:0:
200,240,11857,1,0,0:0:0:0:
416,280,12097,1,0,0:0:0:0:
368,80,12337,1,0,0:0:0:0:
368,80,12577,5,0,0:0:0:0:
368,80,12817,1,0,0:0:0:0:
304,304,13057,2,0,P|256:296|216:272,1,85
160,80,13537,1,0,0:0:0:0:
160,80,13777,1,0,0:0:0:0:
368,168,14017,5,0,0:0:0:0:
104,160,14257,1,0,0:0:0:0:
344,256,14497,1,0,0:0:0:0:
40,240,14737,1,0,0:0:0:0:
320,344,14977,1,0,0:0:0:0:
208,88,15217,1,0,0:0:0:0:
112,320,15457,5,4,0:0:0:0:
400,64,15937,6,0,L|424:160,2,85
288,104,16657,1,0,0:0:0:0:
176,152,16897,2,0,L|200:248,2,85
48,200,17617,1,0,0:0:0:0:
224,32,17857,5,0,0:0:0:0:
208,168,18097,1,0,0:0:0:0:
80,48,18337,1,0,0:0:0:0:
368,72,18577,1,0,0:0:0:0:
184,296,18817,1,0,0:0:0:0:
80,48,19057,1,0,0:0:0:0:
320,64,19297,6,0,L|376:144,2,85
184,72,20017,1,0,0:0:0:0:
256,176,20257,1,0,0:0:0:0:
296,72,20497,1,0,0:0:0:0:
152,160,20737,2,0,L|64:216,2,85
272,88,21457,1,0,0:0:0:0:
432,200,21697,5,0,0:0:0:0:
240,320,21937,1,0,0:0:0:0:
352,336,22177,1,0,0:0:0:0:
160,208,22417,2,0,L|64:144,1,85
336,152,22897,1,0,0:0:0:0:
128,288,23137,5,4,0:0:0:0:
88,104,23377,1,0,0:0:0:0:
216,208,23617,2,0,L|136:240,2,85
336,160,24337,1,0,0:0:0:0:
480,96,24577,1,0,0:0:0:0:
416,232,24817,2,0,L|368:144,1,85
328,40,25297,1,0,0:0:0:0:
120,56,25537,5,0,0:0:0:0:
336,192,25777,1,0,0:0:0:0:
88,248,26017,1,0,0:0:0:0:
320,96,26257,1,0,0:0:0:0:
288,304,26497,1,0,0:0:0:0:
128,80,26737,1,0,0:0:0:0:
368,168,26977,6,0,L|400:248,2,85
328,320,27697,2,0,L|232:344,1,85
256,144,28177,1,0,0:0:0:0:
432,240,28417,2,0,L|336:184,1,85
88,64,28897,1,0,0:0:0:0:
376,80,46177,6,0,L|416:216,1,127.5
424,248,46657,1,0,0:0:0:0:
384,231,46777,1,0,0:0:0:0:
345,214,46897,1,0,0:0:0:0:
176,152,47137,2,0,P|208:88|288:80,2,127.5
288,336,48097,5,0,0:0:0:0:
336,304,48217,1,0,0:0:0:0:
352,248,48337,1,0,0:0:0:0:
168,256,48577,1,0,0:0:0:0:
352,112,48817,1,0,0:0:0:0:
232,344,49057,2,0,P|176:312|144:224,1,127.5
136,216,49537,1,0,0:0:0:0:
304,120,49777,1,0,0:0:0:0:
432,248,50017,1,0,0:0:0:0:
152,280,50497,6,0,P|136:256|136:224,1,42.5
136,200,50737,1,0,0:0:0:0:
320,312,50977,1,0,0:0:0:0:
280,72,51457,2,0,L|368:128,1,85
384,136,51817,1,0,0:0:0:0:
344,112,51937,1,0,0:0:0:0:
112,216,52177,1,0,0:0:0:0:
248,72,52417,1,0,0:0:0:0:
272,320,52657,1,0,0:0:0:0:
104,80,52897,1,0,0:0:0:0:
424,144,53137,1,0,0:0:0:0:
112,312,53377,1,0,0:0:0:0:
336,40,53617,1,0,0:0:0:0:
320,336,53857,6,0,P|232:328|200:296,1,127.500004863739
320,72,54337,1,0,0:0:0:0:
384,288,54577,1,0,0:0:0:0:
400,320,54817,1,0,0:0:0:0:
128,112,55057,2,0,P|184:64|248:56,1,127.500004863739
304,304,55537,1,0,0:0:0:0:
128,128,55777,1,0,0:0:0:0:
408,104,56017,1,0,0:0:0:0:
160,264,56257,5,0,0:0:0:0:
328,32,56497,1,0,0:0:0:0:
368,264,56737,5,0,0:0:0:0:
152,56,56977,1,0,0:0:0:0:
120,192,57217,5,0,0:0:0:0:
424,144,57457,1,0,0:0:0:0:
216,280,57697,2,0,L|88:312,1,127.500004863739
104,256,58057,1,0,0:0:0:0:
128,208,58177,1,0,0:0:0:0:
264,64,58417,1,0,0:0:0:0:
384,200,58657,1,0,0:0:0:0:
176,208,58897,2,0,B|144:160|80:184|80:120,1,127.500004863739
344,128,59377,2,0,B|376:80|440:104|440:40,1,127.500004863739
232,80,59857,1,0,0:0:0:0:
104,256,60097,1,0,0:0:0:0:
336,144,60337,6,0,L|400:104,2,63.7500024318696
304,272,60817,1,0,0:0:0:0:
184,312,61057,1,0,0:0:0:0:
64,272,61297,1,0,0:0:0:0:
160,96,61537,2,0,P|216:152|224:216,1,127.500004863739
64,96,62017,5,0,0:0:0:0:
104,72,62137,1,0,0:0:0:0:
152,80,62257,1,0,0:0:0:0:
192,272,62497,2,0,L|72:336,1,127.500004863739
160,128,62977,1,0,0:0:0:0:
360,184,63217,1,0,0:0:0:0:
432,352,63457,1,0,0:0:0:0:
296,216,63697,1,0,0:0:0:0:
208,80,63937,6,0,P|136:112|64:176,1,127.500004863739
376,232,64417,2,0,P|384:160|360:104,1,127.500004863739
160,232,64897,1,0,0:0:0:0:
352,288,65137,1,0,0:0:0:0:
320,40,65377,1,0,0:0:0:0:
160,232,65617,1,0,0:0:0:0:
432,96,65857,6,0,L|376:64,2,63.7500024318696
432,240,66337,2,0,P|360:304|280:280,1,127.500004863739
320,160,66817,1,0,0:0:0:0:
120,64,67057,1,0,0:0:0:0:
152,264,67297,1,0,0:0:0:0:
320,56,67537,6,0,L|352:144,1,63.7500024318696
384,240,67777,2,0,L|352:160,1,63.7500024318696
408,40,68017,2,0,L|376:128,1,63.7500024318696
288,232,68257,2,0,L|352:128,1,63.7500024318696
344,136,68497,1,0,0:0:0:0:
368,200,68617,1,0,0:0:0:0:
344,264,68737,1,0,0:0:0:0:
288,288,68857,1,0,0:0:0:0:
232,264,68977,1,0,0:0:0:0:
224,216,69097,1,0,0:0:0:0:
248,184,69217,1,4,0:0:0:0:
