osu file format v14

[General]
AudioFilename: audio.mp3
AudioLeadIn: 0
PreviewTime: 63284
Countdown: 0
SampleSet: None
StackLeniency: 0.7
Mode: 0
LetterboxInBreaks: 0
WidescreenStoryboard: 0

[Editor]
Bookmarks: 38736
DistanceSpacing: 0.8
BeatDivisor: 4
GridSize: 4
TimelineZoom: 2.3

[Metadata]
Title:Eyes Closed
TitleUnicode:Eyes Closed
Artist:Vexento
ArtistUnicode:Vexento
Creator:DJ Fish
Version:Insane
Source:
Tags:Vexento Eyes Closed DJ Fish
BeatmapID:1100949
BeatmapSetID:518222

[Difficulty]
HPDrainRate:6
CircleSize:4
OverallDifficulty:7
ApproachRate:9
SliderMultiplier:1.4
SliderTickRate:1

[Events]
//Background and Video events
0,0,"eyes closed.jpg",0,0
//Break Periods
2,52934,61365
2,84253,94332
//Storyboard Layer 0 (Background)
//Storyboard Layer 1 (Fail)
//Storyboard Layer 2 (Pass)
//Storyboard Layer 3 (Foreground)
//Storyboard Sound Samples

[TimingPoints]
1306,329.67032967033,4,1,0,100,1,0
21086,-142.857142857143,4,2,1,30,0,0
28998,-142.857142857143,4,2,1,5,0,0
29657,-142.857142857143,4,2,1,30,0,0
31635,-100,4,2,1,45,0,1
32954,-100,4,3,1,20,0,1
33284,-100,4,2,1,45,0,1
35591,-100,4,3,1,20,0,1
35921,-100,4,2,1,45,0,1
45646,-100,4,3,1,20,0,1
46141,-100,4,2,1,45,0,1
51086,-100,4,3,1,20,0,1
51415,-100,4,2,1,45,0,1
52734,-100,4,3,1,30,0,0
63284,-100,4,2,1,45,0,1
66910,-100,4,3,1,20,0,1
67240,-100,4,2,1,45,0,1
77459,-100,4,3,1,20,0,1
77789,-100,4,2,1,45,0,1
84382,-100,4,3,1,45,0,0
94932,-200,4,3,1,30,0,0
116031,-142.857142857143,4,2,1,30,0,0
125262,-142.857142857143,4,3,1,15,0,0
126580,-100,4,2,1,45,0,1
168778,-100,4,2,1,45,0,0

[Colours]
Combo1 : 255,128,0
Combo2 : 255,255,0
Combo3 : 255,128,64
Combo4 : 255,255,128

[HitObjects]
372,152,21086,6,0,B|301:135|301:135|234:144|234:144|156:126,1,195.999994018555,0|8,0:0|0:0,0:0:0:0:
180,48,22404,2,0,P|92:120|124:192,1,195.999994018555,0|8,0:0|0:0,0:0:0:0:
188,256,23723,6,0,B|276:224|292:288|388:256,1,195.999994018555,0|8,0:0|0:0,0:0:0:0:
426,174,25042,2,0,P|464:284|390:358,1,195.999994018555,0|8,0:0|0:0,0:0:0:0:
332,376,26360,6,0,B|300:368|300:368|268:376|268:376|228:368|228:368|188:376|188:376|140:368,1,195.999994018555,0|8,0:0|0:0,0:0:0:0:
52,328,27679,2,0,P|14:218|88:144,1,195.999994018555,0|8,0:0|0:0,0:0:0:0:
168,248,28998,5,2,0:0:0:0:
168,248,29657,1,0,0:0:0:0:
256,288,29822,1,0,0:0:0:0:
344,248,29987,1,0,0:0:0:0:
440,280,30152,1,0,0:0:0:0:
488,192,30316,5,0,0:0:0:0:
485,176,30399,1,0,0:0:0:0:
482,160,30481,6,0,L|470:88,1,48.9999985046387
356,40,30811,6,0,L|364:88,1,48.9999985046387
280,196,31141,6,0,L|272:148,1,48.9999985046387
224,72,31470,1,0,0:0:0:0:
149,18,31635,5,6,0:0:0:0:
117,34,31800,1,0,0:0:0:0:
85,50,31965,2,0,L|237:74,1,140,2|8,0:0|0:0,0:0:0:0:
360,36,32459,1,0,0:0:0:0:
360,36,32624,2,0,L|352:132,1,70,2|0,0:0|0:0,0:0:0:0:
320,208,32954,5,0,0:0:0:0:
302,205,33036,1,0,0:0:0:0:
285,203,33119,1,0,0:0:0:0:
268,200,33201,1,0,0:0:0:0:
252,196,33284,2,0,L|255:120,1,70,0|2,0:0|0:0,0:0:0:0:
164,84,33613,2,0,L|156:244,1,140,10|2,0:0|0:0,0:0:0:0:
60,244,34108,5,0,0:0:0:0:
80,340,34273,1,2,0:0:0:0:
172,376,34437,1,0,0:0:0:0:
257,317,34602,2,0,L|249:157,1,140,2|8,0:0|0:0,0:0:0:0:
384,248,35097,1,0,0:0:0:0:
384,248,35262,2,0,L|488:252,1,70,2|0,0:0|0:0,0:0:0:0:
496,324,35591,5,0,0:0:0:0:
480,324,35674,1,0,0:0:0:0:
464,324,35756,1,0,0:0:0:0:
448,324,35838,1,0,0:0:0:0:
432,324,35921,2,0,B|412:252|412:252|424:188,1,140,0|10,0:0|0:0,0:0:0:0:
320,244,36745,5,2,0:0:0:0:
232,288,36910,1,0,0:0:0:0:
136,268,37075,2,0,P|102:260|67:264,1,70,0|2,0:0|0:0,0:0:0:0:
100,336,37404,1,0,0:0:0:0:
100,336,37569,2,0,L|104:192,1,140,8|2,0:0|0:0,0:0:0:0:
192,144,38064,5,0,0:0:0:0:
192,144,38229,2,0,L|276:148,1,70
252,48,38558,2,0,L|332:40,1,70,0|2,0:0|0:0,0:0:0:0:
412,84,38888,2,0,P|440:172|412:240,1,140,8|2,0:0|0:0,0:0:0:0:
364,160,39382,1,0,0:0:0:0:
364,160,39547,2,0,L|264:164,1,70,2|0,0:0|0:0,0:0:0:0:
224,104,39877,2,0,P|212:172|240:235,1,140,2|8,0:0|0:0,0:0:0:0:
380,288,40371,5,0,0:0:0:0:
380,288,40536,2,0,L|296:296,1,70,2|0,0:0|0:0,0:0:0:0:
254,364,40866,2,0,P|226:301|239:234,1,140,0|8,0:0|0:0,0:0:0:0:
340,204,41360,2,0,L|320:132,1,70,0|2,0:0|0:0,0:0:0:0:
228,56,42020,5,0,0:0:0:0:
212,60,42075,1,0,0:0:0:0:
196,64,42130,1,0,0:0:0:0:
180,68,42185,2,0,L|256:84,1,70,2|0,0:0|0:0,0:0:0:0:
332,52,42514,2,0,L|383:-5,1,70,2|2,0:0|0:0,0:0:0:0:
416,92,42844,2,0,L|408:240,1,140,14|2,0:0|0:0,0:0:0:0:
472,308,43338,1,2,0:0:0:0:
388,360,43503,2,0,L|308:352,1,70
240,296,43833,2,0,L|156:288,1,70,0|2,0:0|0:0,0:0:0:0:
88,348,44163,2,0,P|64:284|108:212,1,140,10|0,0:0|0:0,0:0:0:0:
188,184,44657,5,0,0:0:0:0:
188,184,44822,2,0,L|264:196,1,70,2|0,0:0|0:0,0:0:0:0:
324,260,45152,2,0,P|353:198|329:134,1,140,2|8,0:0|0:0,0:0:0:0:
276,68,45646,5,0,0:0:0:0:
260,64,45729,1,0,0:0:0:0:
244,68,45811,1,2,0:0:0:0:
228,64,45893,1,0,0:0:0:0:
212,68,45976,1,0,0:0:0:0:
196,64,46058,1,0,0:0:0:0:
180,68,46141,2,0,P|150:129|174:193,1,140
232,136,46635,5,0,0:0:0:0:
232,136,46800,2,0,B|188:132|188:132|120:152|120:152|84:148,1,140,10|0,0:0|0:0,0:0:0:0:
0,144,47295,1,0,0:0:0:0:
0,144,47459,2,0,L|4:236,1,70,2|0,0:0|0:0,0:0:0:0:
88,264,47789,2,0,L|248:284,1,140,2|8,0:0|0:0,0:0:0:0:
312,372,48284,5,0,0:0:0:0:
312,372,48448,2,0,L|312:292,1,70,2|0,0:0|0:0,0:0:0:0:
392,384,48778,2,0,L|392:220,1,140
456,172,49273,1,2,0:0:0:0:
456,172,49437,2,0,P|412:144|324:176,1,140,10|2,0:0|0:0,0:0:0:0:
248,280,49932,5,0,0:0:0:0:
248,280,50097,2,0,L|244:200,1,70,2|0,0:0|0:0,0:0:0:0:
168,140,50426,2,0,L|160:220,1,70,2|2,0:0|0:0,0:0:0:0:
88,284,50756,2,0,L|76:192,1,70,8|0,0:0|0:0,0:0:0:0:
36,104,51086,5,2,0:0:0:0:
52,100,51168,1,0,0:0:0:0:
68,96,51251,1,0,0:0:0:0:
84,92,51333,1,0,0:0:0:0:
100,88,51415,2,0,B|152:40|152:40|232:36|232:36,1,140
200,136,51910,1,0,0:0:0:0:
200,136,52075,2,0,B|228:176|228:176|240:224|240:224|280:276,1,140,2|0,0:0|0:0,0:0:0:0:
312,188,52569,1,0,2:0:0:0:
160,212,52734,1,0,2:0:0:0:
397,92,61965,5,0,0:0:0:0:
381,90,62047,1,0,0:0:0:0:
365,87,62130,1,0,0:0:0:0:
352,192,62295,1,0,0:0:0:0:
280,36,62459,1,0,0:0:0:0:
256,152,62624,5,0,0:0:0:0:
460,104,62954,1,0,0:0:0:0:
460,104,63284,6,0,L|452:196,1,70,2|2,0:0|0:0,0:0:0:0:
504,236,63613,2,0,P|420:244|372:180,1,140,2|12,0:0|0:0,0:0:0:0:
292,132,64108,1,0,0:0:0:0:
292,132,64273,2,0,L|300:216,1,70,2|2,0:0|0:0,0:0:0:0:
344,288,64602,1,0,0:0:0:0:
344,288,64767,2,0,P|284:296|260:288,1,70
204,228,65097,1,2,0:0:0:0:
204,228,65262,2,0,B|136:212|136:212|64:232,1,140,10|0,0:0|0:0,0:0:0:0:
140,300,65756,5,0,0:0:0:0:
140,300,65921,2,0,L|132:216,1,70,2|0,0:0|0:0,0:0:0:0:
92,148,66251,2,0,L|188:140,1,70,2|2,0:0|0:0,0:0:0:0:
244,100,66580,2,0,L|252:180,1,70,8|0,0:0|0:0,0:0:0:0:
232,256,66910,5,2,0:0:0:0:
249,255,66992,1,0,0:0:0:0:
265,253,67075,1,0,0:0:0:0:
282,252,67157,1,0,0:0:0:0:
300,252,67240,2,0,B|376:264|376:264|460:236,1,140
364,176,67734,5,0,0:0:0:0:
364,176,67899,2,0,B|371:221|371:221|364:284|364:284|372:324,1,140,8|0,0:0|0:0,0:0:0:0:
440,352,68393,1,0,0:0:0:0:
440,352,68558,2,0,P|352:388|312:356,1,140,2|2,0:0|0:0,0:0:0:0:
268,320,69053,1,2,0:0:0:0:
268,320,69218,2,0,L|264:248,1,70,8|0,0:0|0:0,0:0:0:0:
184,192,69547,2,0,L|188:340,1,140,2|0,0:0|0:0,0:0:0:0:
111,288,70042,2,0,L|108:208,1,70
80,80,70371,5,2,0:0:0:0:
80,80,70536,2,0,B|132:80|132:80|180:68|180:68|248:72,1,140,10|2,0:0|0:0,0:0:0:0:
316,52,71031,1,0,0:0:0:0:
316,52,71196,2,0,L|328:136,1,70
340,200,71525,2,0,L|352:284,1,70
432,320,71855,2,0,B|369:359|369:359|286:349,1,140,8|0,0:0|0:0,0:0:0:0:
244,276,72349,5,0,0:0:0:0:
244,276,72514,2,0,L|159:281,1,70
92,336,72844,2,0,L|92:244,1,70,0|8,0:0|0:0,0:0:0:0:
72,116,73174,5,0,0:0:0:0:
92,266,73503,1,0,0:0:0:0:
204,144,73833,5,2,0:0:0:0:
204,144,73998,2,0,L|208:228,1,70,2|0,0:0|0:0,0:0:0:0:
304,212,74327,1,0,0:0:0:0:
304,212,74492,2,0,L|296:72,1,140,10|0,0:0|0:0,0:0:0:0:
344,4,74987,6,0,P|376:-4|420:4,1,70,2|0,0:0|0:0,0:0:0:0:
476,60,75316,1,0,0:0:0:0:
476,60,75481,2,0,L|484:148,1,70,0|2,0:0|0:0,0:0:0:0:
512,224,75811,2,0,B|468:220|468:220|408:236|408:236|344:232,1,140,2|0,0:0|0:0,0:0:0:0:
300,160,76306,1,0,0:0:0:0:
300,160,76470,2,0,B|284:228|284:228|304:312,1,140,2|2,0:0|0:0,0:0:0:0:
224,360,76965,1,2,0:0:0:0:
128,340,77130,2,0,P|93:332|56:336,1,70,8|0,0:0|0:0,0:0:0:0:
0,256,77459,5,2,0:0:0:0:
0,240,77542,1,0,0:0:0:0:
0,224,77624,1,0,0:0:0:0:
0,208,77707,1,0,0:0:0:0:
0,192,77789,2,0,B|48:184|48:184|92:192|92:192|152:184,1,140
184,112,78284,1,0,0:0:0:0:
184,112,78448,2,0,P|224:184|208:240,1,140,8|0,0:0|0:0,0:0:0:0:
144,296,78943,1,0,0:0:0:0:
144,296,79108,6,0,P|204:324|276:296,1,140,2|2,0:0|0:0,0:0:0:0:
356,296,79602,1,2,0:0:0:0:
364,216,79767,1,0,0:0:0:0:
440,258,79932,1,0,0:0:0:0:
440,258,80097,2,0,P|454:192|412:140,1,140,2|0,0:0|0:0,0:0:0:0:
352,68,80591,1,0,0:0:0:0:
276,120,80756,2,0,L|204:124,1,70,0|2,0:0|0:0,0:0:0:0:
124,68,81086,2,0,L|116:212,1,140,10|2,0:0|0:0,0:0:0:0:
48,272,81580,5,0,0:0:0:0:
120,328,81745,2,0,L|200:336,1,70
276,308,82075,2,0,P|312:320|352:312,1,70
416,272,82404,2,0,P|427:236|415:188,1,70,8|0,0:0|0:0,0:0:0:0:
444,124,82734,5,0,0:0:0:0:
426,121,82816,1,0,0:0:0:0:
409,123,82899,1,0,0:0:0:0:
394,129,82981,1,0,0:0:0:0:
376,136,83064,2,0,P|296:144|228:112,1,140
316,64,83558,1,0,0:0:0:0:
297,221,83723,5,8,0:0:0:0:
140,56,84053,5,0,0:0:0:0:
144,316,94932,5,0,1:0:0:0:
144,316,95591,2,0,B|56:276|60:168|60:168|44:224|76:296,1,280,0|8,0:0|0:0,0:0:0:0:
164,208,97569,6,0,B|252:156|252:156|336:144|336:144|420:84,1,280,0|0,1:0|0:0,0:0:0:0:
304,68,99547,1,8,0:0:0:0:
304,68,100207,6,0,B|344:128|344:128|344:212|344:212|392:260|392:260|408:332,1,280
404,312,101855,1,0,0:0:0:0:
428,180,102185,6,0,L|336:212,1,70
348,280,102844,2,0,B|300:276|272:228|276:180|304:148|304:148|280:124|272:88|280:56|308:36,1,280,0|0,1:0|0:0,0:0:0:0:
295,48,104822,1,0,0:0:0:0:
356,92,105481,6,0,L|425:82,1,70
496,144,106141,2,0,B|496:180|464:196|464:196|432:228|428:264|440:296|460:324|460:324|420:312|384:320,1,280,8|0,0:0|0:0,0:0:0:0:
512,260,108119,1,0,1:0:0:0:
512,260,108778,6,0,B|440:244|440:244|376:260|376:260|304:244|304:244|236:260,1,280,8|8,0:0|0:0,0:0:0:0:
232,356,110756,6,0,P|160:296|248:160,1,280,0|0,1:0|0:0,0:0:0:0:
240,160,112404,1,0,0:0:0:0:
316,200,112734,6,0,P|324:156|304:112,1,70,8|0,0:0|0:0,0:0:0:0:
392,68,113393,2,0,B|316:48|316:48|252:68|252:68|224:64|180:56|180:56|140:76|128:104|128:104|112:140|136:176|136:176,1,350,0|0,1:0|0:0,0:0:0:0:
200,136,115371,5,8,0:0:0:0:
244,216,115701,1,0,0:0:0:0:
164,316,116031,6,0,L|224:320,1,48.9999985046387,2|0,0:0|0:0,0:0:0:0:
348,368,116360,2,0,P|364:308|348:272,1,97.9999970092774,2|0,0:0|0:0,0:0:0:0:
280,244,116855,6,0,L|272:172,1,48.9999985046387,2|0,0:0|0:0,0:0:0:0:
356,144,117185,2,0,L|356:196,1,48.9999985046387,2|0,0:0|0:0,0:0:0:0:
428,256,117514,1,0,0:0:0:0:
440,292,117679,1,0,0:0:0:0:
452,328,117844,2,0,L|468:240,1,48.9999985046387,2|0,0:0|0:0,0:0:0:0:
448,145,118174,1,2,0:0:0:0:
448,145,118338,2,0,L|464:192,1,48.9999985046387,2|0,0:0|0:0,0:0:0:0:
464,64,118668,6,0,L|416:68,1,48.9999985046387,2|0,0:0|0:0,0:0:0:0:
368,140,118998,2,0,L|304:136,1,48.9999985046387
296,48,119327,2,0,L|184:36,1,97.9999970092774,2|0,0:0|0:0,0:0:0:0:
116,124,119822,5,0,0:0:0:0:
116,124,119987,2,0,L|108:60,1,48.9999985046387
28,64,120316,2,0,L|44:200,1,97.9999970092774,0|2,0:0|0:0,0:0:0:0:
92,296,120811,5,0,0:0:0:0:
92,296,120976,2,0,L|148:292,1,48.9999985046387,0|2,0:0|0:0,0:0:0:0:
164,160,121306,1,0,0:0:0:0:
164,160,121470,1,0,0:0:0:0:
164,160,121635,2,0,P|208:141|256:150,1,97.9999970092774,2|0,0:0|0:0,0:0:0:0:
220,220,122130,1,0,0:0:0:0:
219,219,122295,2,0,L|228:324,1,97.9999970092774,2|0,0:0|0:0,0:0:0:0:
300,372,122789,5,0,0:0:0:0:
364,316,122954,2,0,L|412:320,1,48.9999985046387,0|2,0:0|0:0,0:0:0:0:
492,368,123284,2,0,P|508:324|488:264,1,97.9999970092774,0|2,0:0|0:0,0:0:0:0:
444,208,123943,6,0,B|384:200|384:200|344:212|344:212|296:204,1,146.999995513916
248,288,124602,1,0,0:0:0:0:
208,208,124767,1,0,0:0:0:0:
244,128,124932,1,0,0:0:0:0:
332,116,125097,1,0,0:0:0:0:
228,128,125262,5,2,0:0:0:0:
208,128,125344,1,0,0:0:0:0:
188,128,125426,1,0,0:0:0:0:
168,128,125509,1,0,0:0:0:0:
148,128,125591,5,2,0:0:0:0:
152,160,125674,1,0,0:0:0:0:
156,192,125756,1,0,0:0:0:0:
160,224,125838,1,0,0:0:0:0:
164,256,125921,5,2,0:0:0:0:
196,240,126003,1,0,0:0:0:0:
232,232,126086,1,0,0:0:0:0:
268,232,126168,1,0,0:0:0:0:
304,244,126251,1,2,0:0:0:0:
340,256,126333,1,0,0:0:0:0:
376,256,126415,1,0,0:0:0:0:
408,240,126498,1,0,0:0:0:0:
432,208,126580,6,0,P|444:148|404:76,1,140,2|2,0:0|0:0,0:0:0:0:
328,36,127075,1,2,0:0:0:0:
332,40,127240,2,0,B|268:64|268:64|180:44,1,140,12|2,0:0|0:0,0:0:0:0:
124,8,127734,2,0,P|116:48|124:92,1,70,2|0,0:0|0:0,0:0:0:0:
100,152,128064,2,0,P|108:188|104:220,1,70
36,312,128393,1,2,0:0:0:0:
36,312,128558,2,0,P|104:340|176:296,1,140,10|2,0:0|0:0,0:0:0:0:
252,304,129053,5,0,0:0:0:0:
252,304,129218,2,0,L|244:212,1,70,2|0,0:0|0:0,0:0:0:0:
336,252,129547,2,0,L|342:321,1,70,2|2,0:0|0:0,0:0:0:0:
416,376,129877,1,8,0:0:0:0:
472,304,130042,1,0,0:0:0:0:
472,304,130207,2,0,L|448:152,1,140,2|0,0:0|0:0,0:0:0:0:
508,96,130701,5,0,0:0:0:0:
508,96,130866,2,0,B|440:80|440:80|412:96,1,70,0|10,0:0|0:0,0:0:0:0:
304,40,131196,1,0,0:0:0:0:
184,216,131690,5,2,0:0:0:0:
212,308,131855,1,0,0:0:0:0:
308,324,132020,1,2,0:0:0:0:
384,260,132185,2,0,L|360:180,1,70,2|0,0:0|0:0,0:0:0:0:
378,114,132514,2,0,P|342:114|306:134,1,70,8|0,0:0|0:0,0:0:0:0:
228,120,132844,2,0,P|196:134|161:134,1,70,2|0,0:0|0:0,0:0:0:0:
180,64,133174,2,0,L|216:220,1,140
288,244,133668,5,2,0:0:0:0:
288,244,133833,2,0,B|232:288|232:288|156:268,1,140,10|2,0:0|0:0,0:0:0:0:
96,224,134327,1,0,0:0:0:0:
96,224,134492,2,0,P|84:188|88:148,1,70,2|0,0:0|0:0,0:0:0:0:
113,68,134822,2,0,B|149:76|149:76|189:60,1,70,2|2,0:0|0:0,0:0:0:0:
244,116,135152,2,0,B|288:108|288:108|344:120|344:120|400:112,1,140,8|2,0:0|0:0,0:0:0:0:
416,40,135646,5,0,0:0:0:0:
416,40,135811,2,0,P|460:104|440:176,1,140
432,268,136306,2,0,B|420:300|420:300|428:348,1,70,0|10,0:0|0:0,0:0:0:0:
339,357,136965,5,0,0:0:0:0:
319,351,137020,1,0,0:0:0:0:
299,345,137075,1,0,0:0:0:0:
280,340,137130,2,0,B|284:308|284:308|268:268,1,70,0|2,0:0|0:0,0:0:0:0:
228,196,137459,2,0,P|216:156|228:116,1,70,2|2,0:0|0:0,0:0:0:0:
296,156,137789,6,0,L|152:168,1,140,14|2,0:0|0:0,0:0:0:0:
96,92,138284,1,2,0:0:0:0:
48,168,138448,2,0,L|56:260,1,70
112,300,138778,2,0,B|148:288|148:288|204:292,1,70,0|2,0:0|0:0,0:0:0:0:
256,328,139108,2,0,P|328:340|408:296,1,140,10|0,0:0|0:0,0:0:0:0:
316,264,139602,5,2,0:0:0:0:
316,264,139767,2,0,B|312:224|312:224|320:192|320:192|312:156|312:156|320:116,1,140,2|2,0:0|0:0,0:0:0:0:
244,192,140262,1,2,0:0:0:0:
244,192,140426,2,0,L|404:192,1,140,8|2,0:0|0:0,0:0:0:0:
448,128,140921,1,0,0:0:0:0:
448,128,141086,2,0,P|472:204|436:264,1,140
458,323,141580,5,0,0:0:0:0:
458,323,141745,2,0,L|445:247,1,70,10|0,0:0|0:0,0:0:0:0:
348,272,142075,1,0,0:0:0:0:
312,360,142240,1,2,0:0:0:0:
232,304,142404,1,0,0:0:0:0:
232,304,142569,6,0,B|224:264|224:264|232:220,1,70,0|2,0:0|0:0,0:0:0:0:
288,132,142899,1,0,0:0:0:0:
288,132,143064,2,0,L|204:132,1,70,8|0,0:0|0:0,0:0:0:0:
176,60,143393,2,0,P|139:120|156:186,1,140,2|0,0:0|0:0,0:0:0:0:
160,264,143888,2,0,B|152:300|152:300|160:344,1,70
232,304,144218,5,2,0:0:0:0:
232,304,144382,2,0,L|88:304,1,140,10|0,0:0|0:0,0:0:0:0:
28,360,144877,1,2,0:0:0:0:
16,272,145042,2,0,L|24:192,1,70,2|0,0:0|0:0,0:0:0:0:
56,120,145371,2,0,L|64:40,1,70,2|0,0:0|0:0,0:0:0:0:
136,0,145701,2,0,P|176:-8|216:8,1,70,10|0,0:0|0:0,0:0:0:0:
268,60,146031,5,2,0:0:0:0:
272,76,146113,1,0,0:0:0:0:
268,92,146196,1,0,0:0:0:0:
272,108,146278,1,0,0:0:0:0:
272,124,146360,2,0,L|172:128,1,70
131,157,146690,2,0,P|123:124|136:88,1,70
200,208,147020,1,10,0:0:0:0:
200,208,147349,2,0,L|192:296,1,70
124,324,147679,6,0,P|192:364|256:328,1,140,2|0,0:0|0:0,0:0:0:0:
340,360,148174,1,2,0:0:0:0:
424,312,148338,2,0,L|424:228,1,70,10|0,0:0|0:0,0:0:0:0:
432,144,148668,2,0,L|432:72,1,70,2|2,0:0|0:0,0:0:0:0:
348,132,148998,2,0,L|220:152,1,105
188,92,149492,1,0,0:0:0:0:
188,92,149657,2,0,P|164:152|216:224,1,140,10|0,0:0|0:0,0:0:0:0:
360,216,150152,5,0,0:0:0:0:
376,216,150234,1,0,0:0:0:0:
392,216,150316,2,0,P|425:274|401:338,1,140,2|2,0:0|0:0,0:0:0:0:
252,328,150811,1,2,0:0:0:0:
252,328,150976,2,0,B|216:320|216:320|168:328,1,70,8|0,0:0|0:0,0:0:0:0:
108,296,151306,5,2,0:0:0:0:
100,280,151388,1,0,0:0:0:0:
96,264,151470,1,0,0:0:0:0:
96,248,151553,1,0,0:0:0:0:
100,232,151635,2,0,P|112:184|84:96,1,140
36,176,152130,5,0,0:0:0:0:
36,176,152295,2,0,B|112:156|116:208|192:176,1,140,10|0,0:0|0:0,0:0:0:0:
216,84,152789,1,0,0:0:0:0:
240,60,152954,2,0,L|244:148,1,70,2|0,0:0|0:0,0:0:0:0:
256,216,153284,2,0,L|260:304,1,70,2|0,0:0|0:0,0:0:0:0:
200,336,153613,2,0,P|272:364|324:324,1,140,8|2,0:0|0:0,0:0:0:0:
400,380,154108,5,0,0:0:0:0:
400,380,154273,2,0,B|412:332|412:332|396:284|396:284|404:240,1,140
476,200,154767,1,2,0:0:0:0:
476,200,154932,2,0,P|404:164|340:192,1,140,10|0,0:0|0:0,0:0:0:0:
280,228,155426,2,0,B|240:236|240:236|200:224,1,70
155,167,155756,2,0,B|152:136|152:136|164:100,1,70
232,28,156086,1,0,0:0:0:0:
320,76,156251,1,8,0:0:0:0:
400,20,156415,5,0,0:0:0:0:
424,0,156580,2,0,L|420:84,1,70
452,156,156910,2,0,B|404:164|404:164|356:148|356:148|300:156,1,140
236,100,157404,1,0,0:0:0:0:
236,100,157569,2,0,B|220:168|220:168|252:236,1,140,8|0,0:0|0:0,0:0:0:0:
420,264,158229,6,0,P|460:256|488:260,1,70,2|2,0:0|0:0,0:0:0:0:
456,336,158558,1,0,0:0:0:0:
368,336,158723,2,0,P|328:344|300:340,1,70,0|10,0:0|0:0,0:0:0:0:
228,280,159053,1,0,0:0:0:0:
228,280,159218,2,0,B|192:272|192:272|148:284,1,70,2|2,0:0|0:0,0:0:0:0:
196,344,159547,2,0,L|188:192,1,140
116,132,160042,5,0,0:0:0:0:
92,108,160207,2,0,L|168:100,1,70,10|0,0:0|0:0,0:0:0:0:
244,40,160536,2,0,L|252:116,1,70,2|0,0:0|0:0,0:0:0:0:
192,164,160866,2,0,P|272:188|324:144,1,140,2|2,0:0|0:0,0:0:0:0:
368,92,161360,1,2,0:0:0:0:
392,64,161525,2,0,L|396:148,1,70,8|0,0:0|0:0,0:0:0:0:
448,212,161855,5,2,0:0:0:0:
432,216,161937,1,0,0:0:0:0:
416,220,162020,1,0,0:0:0:0:
400,224,162102,1,0,0:0:0:0:
384,228,162185,2,0,B|340:240|340:240|464:256,1,140
508,192,162679,1,0,0:0:0:0:
512,196,162844,2,0,P|524:280|492:332,1,140,8|0,0:0|0:0,0:0:0:0:
424,360,163338,5,0,0:0:0:0:
424,360,163503,2,0,L|354:352,1,70,2|0,0:0|0:0,0:0:0:0:
260,352,163833,2,0,L|184:360,1,70,2|0,0:0|0:0,0:0:0:0:
112,328,164163,2,0,B|100:292|100:292|108:256|108:256|96:216|96:216|108:176,1,140,8|2,0:0|0:0,0:0:0:0:
164,136,164657,1,0,0:0:0:0:
236,180,164822,2,0,B|272:188|272:188|312:176,1,70
344,248,165152,1,0,0:0:0:0:
400,328,165316,1,2,0:0:0:0:
488,292,165481,1,0,0:0:0:0:
488,292,165646,1,0,0:0:0:0:
488,292,165811,2,0,L|488:216,1,70,2|0,0:0|0:0,0:0:0:0:
512,136,166141,6,0,L|436:144,1,70
356,160,166470,2,0,L|280:168,1,70
208,216,166800,2,0,L|196:136,1,70,8|0,0:0|0:0,0:0:0:0:
112,68,167130,5,0,0:0:0:0:
108,84,167212,1,0,0:0:0:0:
112,100,167295,1,0,0:0:0:0:
108,116,167377,1,0,0:0:0:0:
112,132,167459,2,0,L|104:224,1,70
64,280,167789,2,0,B|100:292|100:292|160:276,1,70
216,332,168119,5,2,0:0:0:0:
312,160,168448,5,2,0:0:0:0:
220,236,168778,5,0,0:0:0:0:
