osu file format v14

[General]
AudioFilename: audio.mp3
AudioLeadIn: 0
PreviewTime: 123306
Countdown: 0
SampleSet: Soft
StackLeniency: 0.7
Mode: 0
LetterboxInBreaks: 0
WidescreenStoryboard: 1

[Editor]
Bookmarks: -20,6837,13694,27408,54837,78842,82265,95980,123408,150837,164551,178265
DistanceSpacing: 1
BeatDivisor: 4
GridSize: 8
TimelineZoom: 1

[Metadata]
Title:Wilt
TitleUnicode:Wilt
Artist:VerseQuence
ArtistUnicode:VerseQuence
Creator:Mir
Version:Normal
Source:VOEZ
Tags:low bpm cute flower arphimigon avieri rayark inc mjq eri verse quence
BeatmapID:1401191
BeatmapSetID:661844

[Difficulty]
HPDrainRate:2
CircleSize:3
OverallDifficulty:4
ApproachRate:5
SliderMultiplier:1
SliderTickRate:1

[Events]
//Background and Video events
0,0,"nottotoro.jpg",0,0
//Break Periods
//Storyboard Layer 0 (Background)
//Storyboard Layer 1 (Fail)
//Storyboard Layer 2 (Pass)
//Storyboard Layer 3 (Foreground)
//Storyboard Sound Samples

[TimingPoints]
6839,428.571428571429,4,2,1,30,1,0
6839,-100,4,2,1,30,0,0
13695,-100,4,2,1,60,0,0
27410,-100,4,2,1,40,0,0
54839,-100,4,2,1,80,0,1
82267,-100,4,2,1,70,0,0
95981,-100,4,2,1,40,0,0
123410,-100,4,2,1,80,0,1
150839,-100,4,2,1,70,0,0
164553,-100,4,2,1,40,0,0
166160,-100,4,2,2,5,0,0
166267,-100,4,2,1,40,0,0
167874,-100,4,2,2,5,0,0
167981,-100,4,2,1,40,0,0
169589,-100,4,2,2,5,0,0
169696,-100,4,2,1,40,0,0
173017,-100,4,2,2,5,0,0
173124,-100,4,2,1,40,0,0
174731,-100,4,2,2,5,0,0
174838,-100,4,2,1,40,0,0
176446,-100,4,2,2,5,0,0
176553,-100,4,2,1,40,0,0
178160,-100,4,2,2,5,0,0
178267,-100,4,2,1,40,0,0

[Colours]
Combo1 : 247,166,166
Combo2 : 206,255,254
Combo3 : 202,226,255
Combo4 : 248,120,139

[HitObjects]
87,95,6838,6,0,P|142:82|205:98,1,100,2|2,3:2|3:2,0:0:0:0:
225,117,7481,1,0,3:2:0:0:
225,117,7696,2,0,P|212:162|216:221,1,100,8|0,0:2|0:2,0:0:0:0:
245,309,8553,1,2,3:2:0:0:
343,290,8981,2,0,P|373:293|407:298,1,50,0|0,3:2|3:2,0:0:0:0:
441,305,9410,1,8,0:2:0:0:
422,206,9839,1,0,0:2:0:0:
452,110,10267,6,0,P|390:98|337:100,1,100,2|0,3:2|0:2,0:0:0:0:
309,123,10910,1,0,3:2:0:0:
309,123,11124,2,0,P|247:135|194:133,1,100,8|0,0:2|0:2,0:0:0:0:
157,49,11981,2,0,P|126:83|104:151,1,100,2|0,3:2|0:2,0:0:0:0:
97,182,12624,1,0,3:2:0:0:
97,182,12839,1,8,0:2:0:0:
152,265,13267,2,0,P|168:242|173:217,1,50,8|8,0:2|2:2,0:0:0:0:
222,216,13696,6,0,P|279:222|334:241,1,100,6|2,3:2|0:2,0:0:0:0:
365,214,14339,1,0,3:2:0:0:
365,214,14553,2,0,P|379:171|380:101,1,100,10|0,0:2|0:2,0:0:0:0:
339,26,15410,2,0,P|391:23|411:25,2,50,2|0|2,3:2|0:2|3:2,0:0:0:0:
293,23,16053,1,0,3:2:0:0:
293,23,16267,1,10,0:2:0:0:
203,68,16696,1,0,0:2:0:0:
112,30,17124,6,0,P|100:73|108:140,1,100,2|2,3:2|0:2,0:0:0:0:
115,176,17767,1,0,3:2:0:0:
115,176,17981,2,0,P|127:219|119:286,1,100,10|0,0:2|0:2,0:0:0:0:
147,370,18839,2,0,P|197:343|259:343,1,100,2|2,3:2|0:2,0:0:0:0:
287,368,19481,1,0,3:2:0:0:
287,368,19696,1,10,0:2:0:0:
367,308,20124,2,0,P|388:262|388:248,1,50,10|8,0:2|0:2,0:0:0:0:
377,216,20553,6,0,P|355:157|351:109,1,100,2|2,3:2|0:2,0:0:0:0:
353,70,21196,1,0,3:2:0:0:
353,70,21410,2,0,P|311:55|247:59,1,100,10|0,0:2|0:2,0:0:0:0:
156,69,22267,2,0,P|110:68|89:64,2,50,2|0|2,3:2|0:2|3:2,0:0:0:0:
177,114,22910,1,0,3:2:0:0:
177,114,23124,1,10,0:2:0:0:
188,212,23553,1,0,0:2:0:0:
215,308,23981,6,0,P|175:321|97:313,1,100,2|2,3:2|0:2,0:0:0:0:
70,303,24624,1,0,3:2:0:0:
70,303,24839,2,0,P|83:263|75:185,1,100,10|0,0:2|0:2,0:0:0:0:
46,111,25696,2,0,P|86:89|150:81,1,100,2|2,3:2|0:2,0:0:0:0:
183,102,26339,1,0,3:2:0:0:
183,102,26553,1,10,0:2:0:0:
282,89,26981,2,0,P|305:93|354:90,1,50,10|8,0:2|0:2,0:0:0:0:
380,77,27410,6,0,P|400:131|383:226,1,150,6|0,3:2|3:2,0:0:0:0:
393,269,28267,2,0,P|358:262|338:254,1,50,10|2,0:2|0:2,0:0:0:0:
297,239,28696,1,2,0:2:0:0:
202,206,29124,2,0,P|147:213|60:270,1,150,2|0,3:2|3:2,0:0:0:0:
42,305,29981,1,8,0:2:0:0:
122,363,30410,1,0,0:2:0:0:
199,299,30839,6,0,P|254:306|341:363,1,150,2|0,3:2|3:2,0:0:0:0:
375,381,31696,2,0,P|399:380|442:373,2,50,10|2|2,0:2|0:2|0:2,0:0:0:0:
397,283,32553,2,0,P|404:216|369:129,1,150,2|0,3:2|3:2,0:0:0:0:
339,105,33410,2,0,P|311:103|275:109,2,50,8|0|2,0:2|3:2|0:2,0:0:0:0:
395,23,34267,5,2,3:2:0:0:
295,14,34696,1,0,0:2:0:0:
203,53,35124,2,0,P|180:72|163:91,1,50,10|2,0:2|0:2,0:0:0:0:
143,131,35553,1,2,0:2:0:0:
69,198,35981,2,0,P|167:183|231:204,1,150,2|0,3:2|3:2,0:0:0:0:
235,241,36839,1,8,0:2:0:0:
322,193,37267,1,0,0:2:0:0:
401,131,37696,6,0,P|421:182|383:273,1,150,2|0,3:2|3:0,0:0:0:0:
357,306,38553,2,0,P|335:305|300:309,1,50,10|2,0:2|0:2,0:0:0:0:
262,329,38981,2,0,P|220:339|144:325,2,100,2|2|0,0:2|3:2|0:2,0:0:0:0:
276,281,40053,1,0,3:2:0:0:
276,281,40267,1,8,0:2:0:0:
197,219,40696,2,0,P|185:196|178:164,1,50,2|8,0:2|0:2,0:0:0:0:
162,125,41124,6,0,P|222:115|318:153,1,150,2|0,3:2|3:2,0:0:0:0:
336,181,41981,2,0,P|363:176|398:161,1,50,10|2,0:2|0:2,0:0:0:0:
410,125,42410,1,2,0:2:0:0:
483,56,42839,2,0,P|503:93|485:200,1,150,2|0,3:2|3:2,0:0:0:0:
465,240,43696,1,8,0:2:0:0:
463,339,44124,1,0,0:2:0:0:
366,335,44553,6,0,P|248:321|212:336,1,150,2|0,3:2|3:2,0:0:0:0:
180,359,45410,2,0,P|153:353|126:357,2,50,10|2|2,0:2|0:2|0:2,0:0:0:0:
180,258,46267,2,0,P|181:210|118:126,1,150,2|0,3:2|3:2,0:0:0:0:
74,136,47124,2,0,P|68:161|66:187,2,50,8|0|2,0:2|3:2|0:2,0:0:0:0:
65,36,47981,5,2,3:2:0:0:
164,31,48410,1,0,0:2:0:0:
264,31,48839,2,0,P|300:41|324:54,1,50,10|2,0:2|0:2,0:0:0:0:
350,77,49267,1,2,0:2:0:0:
269,136,49696,2,0,P|254:170|310:273,1,150,2|0,3:2|3:2,0:0:0:0:
341,289,50553,1,8,0:2:0:0:
434,252,50981,1,0,0:2:0:0:
412,349,51410,6,0,P|369:379|307:375,1,100,2|0,3:2|0:2,0:0:0:0:
274,362,52053,1,0,3:2:0:0:
274,362,52267,2,0,P|250:357|226:361,1,50,10|2,0:2|0:2,0:0:0:0:
175,366,52696,2,0,P|125:363|85:334,2,100,2|2|0,0:2|3:2|0:2,0:0:0:0:
197,268,53981,2,0,P|202:234|200:206,1,50,8|0,0:2|3:2,0:0:0:0:
161,188,54410,2,0,P|156:154|158:126,1,50,10|8,0:2|0:2,0:0:0:0:
166,89,54839,6,0,P|226:70|285:75,1,100,6|0,3:2|0:2,0:0:0:0:
309,86,55481,1,0,3:2:0:0:
353,108,55696,2,0,P|413:127|472:122,1,100,10|0,0:2|0:2,0:0:0:0:
493,216,56553,2,0,P|493:274|475:318,1,100,2|0,3:2|3:2,0:0:0:0:
434,337,57196,1,0,3:2:0:0:
434,337,57410,1,10,0:2:0:0:
346,287,57839,1,0,0:2:0:0:
247,305,58267,6,0,P|167:299|137:278,1,100,2|0,3:2|0:2,0:0:0:0:
113,256,58910,1,0,3:2:0:0:
125,207,59124,2,0,P|148:170|153:114,1,100,10|0,0:2|0:2,0:0:0:0:
126,71,59767,1,0,0:2:0:0:
99,28,59981,2,0,P|171:27|205:33,1,100,2|0,3:2|3:2,0:0:0:0:
247,40,60624,1,0,3:2:0:0:
247,40,60839,1,10,0:2:0:0:
302,122,61267,1,0,3:2:0:0:
396,88,61696,6,0,P|409:63|416:37,2,50,2|2|2,3:2|0:2|0:2,0:0:0:0:
392,138,62339,1,0,3:2:0:0:
393,187,62553,2,0,P|396:234|420:290,1,100,10|0,0:2|0:2,0:0:0:0:
412,382,63410,2,0,P|461:380|476:374,2,50,2|2|2,3:2|0:2|3:2,0:0:0:0:
379,343,64053,1,0,3:2:0:0:
330,330,64267,2,0,P|274:318|216:322,1,100,10|0,0:2|0:2,0:0:0:0:
131,318,65124,6,0,P|128:366|131:383,2,50,2|2|2,3:2|0:2|0:2,0:0:0:0:
152,272,65767,1,0,3:2:0:0:
179,230,65981,2,0,P|185:170|169:119,1,100,10|0,0:2|0:2,0:0:0:0:
151,34,66839,2,0,P|217:40|264:22,1,100,2|0,3:2|0:2,0:0:0:0:
303,35,67481,1,0,3:2:0:0:
303,35,67696,1,10,0:2:0:0:
397,67,68124,2,0,P|405:108|405:128,1,50,8|8,0:2|0:2,0:0:0:0:
413,165,68553,6,0,P|414:229|388:276,1,100,6|0,3:2|0:2,0:0:0:0:
371,302,69196,1,0,3:2:0:0:
342,342,69410,2,0,P|290:324|229:330,1,100,10|0,0:2|0:2,0:0:0:0:
142,325,70267,2,0,P|124:278|128:229,1,100,2|0,3:2|3:2,0:0:0:0:
147,182,70910,1,0,3:2:0:0:
147,182,71124,1,10,0:2:0:0:
91,98,71553,1,0,0:2:0:0:
182,58,71981,6,0,P|233:67|293:51,1,100,2|0,3:2|0:2,0:0:0:0:
327,40,72624,1,0,3:2:0:0:
327,40,72839,1,10,0:2:0:0:
409,96,73267,1,0,0:2:0:0:
354,179,73696,2,0,P|329:182|299:177,2,50,2|0|0,3:2|0:2|3:2,0:0:0:0:
382,220,74339,1,0,3:2:0:0:
408,262,74553,2,0,P|417:299|394:367,1,100,10|0,0:2|3:0,0:0:0:0:
304,332,75410,6,0,P|301:359|306:383,2,50,2|2|2,3:2|0:2|0:2,0:0:0:0:
262,303,76053,1,0,3:2:0:0:
219,276,76267,2,0,P|171:259|112:260,1,100,10|0,0:2|0:2,0:0:0:0:
61,178,77124,2,0,P|32:207|19:224,2,50,2|2|2,3:2|0:2|3:2,0:0:0:0:
96,142,77767,1,0,3:2:0:0:
126,102,77981,2,0,P|152:70|163:6,1,100,10|0,0:2|0:2,0:0:0:0:
257,48,78839,6,0,P|262:10|262:-8,2,50,2|2|2,3:2|0:2|0:2,0:0:0:0:
284,89,79481,1,0,3:2:0:0:
331,105,79696,2,0,P|370:98|438:110,1,100,10|0,0:2|0:2,0:0:0:0:
448,205,80553,2,0,P|444:257|451:305,1,100,2|0,3:2|0:2,0:0:0:0:
462,353,81196,1,0,3:2:0:0:
462,353,81410,1,10,0:2:0:0:
363,337,81839,2,0,P|332:337|296:332,1,50,8|8,0:2|0:2,0:0:0:0:
266,314,82267,5,6,3:2:0:0:
210,230,82696,1,2,0:2:0:0:
239,134,83124,1,10,0:2:0:0:
54,56,83981,5,2,3:2:0:0:
138,1,84410,1,2,3:2:0:0:
234,29,84838,1,10,0:2:0:0:
419,107,85696,5,2,3:2:0:0:
335,162,86125,1,2,0:2:0:0:
239,134,86553,1,10,0:2:0:0:
138,306,87410,5,2,3:2:0:0:
43,275,87839,1,2,0:2:0:0:
43,175,88268,1,10,0:2:0:0:
138,147,88696,2,0,P|162:173|174:201,1,50,10|8,0:2|0:2,0:0:0:0:
194,228,89125,5,2,3:2:0:0:
293,221,89553,1,2,0:2:0:0:
375,164,89981,1,10,0:2:0:0:
175,142,90839,5,2,3:2:0:0:
76,135,91267,1,2,3:2:0:0:
1,68,91695,1,10,0:2:0:0:
199,55,92553,5,2,3:2:0:0:
298,48,92981,1,2,0:2:0:0:
388,6,93409,1,10,0:2:0:0:
378,200,94267,5,2,3:2:0:0:
473,169,94696,1,2,0:2:0:0:
473,69,95125,1,10,0:2:0:0:
378,41,95553,2,0,P|354:67|342:95,1,50,10|8,0:2|0:2,0:0:0:0:
322,122,95981,6,0,P|252:138|174:93,1,150,6|0,3:2|3:2,0:0:0:0:
157,62,96839,2,0,P|133:49|99:43,1,50,10|2,0:2|0:2,0:0:0:0:
61,36,97267,1,2,0:2:0:0:
71,135,97696,2,0,P|61:187|73:287,1,150,2|0,3:2|3:2,0:0:0:0:
87,330,98553,1,8,0:2:0:0:
182,302,98981,1,0,0:2:0:0:
264,358,99410,6,0,P|335:364|411:336,1,150,2|0,3:2|3:2,0:0:0:0:
421,289,100267,2,0,P|458:277|489:272,2,50,10|2|2,0:2|0:2|0:2,0:0:0:0:
332,241,101124,2,0,P|318:187|369:97,1,150,2|0,3:2|3:2,0:0:0:0:
404,86,101981,2,0,P|441:74|472:69,2,50,8|0|2,0:2|3:2|0:2,0:0:0:0:
323,26,102839,5,2,3:2:0:0:
223,25,103267,1,0,0:2:0:0:
136,75,103696,2,0,P|116:115|113:127,1,50,10|2,0:2|0:2,0:0:0:0:
114,169,104124,1,2,0:2:0:0:
133,267,104553,2,0,P|204:249|283:274,1,150,2|0,3:2|3:2,0:0:0:0:
312,303,105410,1,8,0:2:0:0:
394,359,105839,1,0,0:2:0:0:
449,275,106267,6,0,P|471:232|459:128,1,150,2|0,3:2|3:2,0:0:0:0:
443,86,107124,2,0,P|406:87|376:83,1,50,10|2,0:2|0:2,0:0:0:0:
343,82,107553,1,2,0:2:0:0:
245,61,107981,2,0,P|171:49|136:52,1,100,2|0,3:2|0:2,0:0:0:0:
104,78,108624,1,0,3:2:0:0:
104,78,108839,1,8,0:2:0:0:
140,170,109267,2,0,P|142:213|139:228,1,50,2|8,0:2|0:2,0:0:0:0:
115,263,109696,6,0,P|176:257|266:269,1,150,2|0,3:2|3:2,0:0:0:0:
304,296,110553,2,0,P|348:302|360:301,1,50,10|2,0:2|0:2,0:0:0:0:
402,293,110981,1,2,0:2:0:0:
467,217,111410,2,0,P|465:169|429:122,1,100,2|0,3:2|0:2,0:0:0:0:
390,107,112053,1,0,3:2:0:0:
390,107,112267,1,8,0:2:0:0:
322,33,112696,1,0,0:2:0:0:
237,85,113124,6,0,P|176:95|96:51,1,150,2|0,3:2|3:2,0:0:0:0:
50,47,113981,2,0,P|25:41|-8:42,2,50,10|2|2,0:2|0:2|0:2,0:0:0:0:
71,145,114839,2,0,P|78:210|30:280,1,150,2|0,3:2|3:2,0:0:0:0:
16,325,115696,2,0,P|13:352|17:379,2,50,8|0|2,0:2|3:2|0:2,0:0:0:0:
116,327,116553,5,2,3:2:0:0:
215,315,116981,1,0,0:2:0:0:
286,245,117410,2,0,P|294:220|297:180,1,50,10|2,0:2|0:2,0:0:0:0:
300,146,117839,1,2,0:2:0:0:
247,60,118267,2,0,P|351:66|408:85,1,150,2|0,3:2|3:2,0:0:0:0:
440,99,119124,1,8,0:2:0:0:
466,195,119553,1,0,0:2:0:0:
421,284,119981,6,0,P|358:295|307:279,1,100,2|0,3:2|0:2,0:0:0:0:
282,258,120624,1,0,3:2:0:0:
282,258,120839,2,0,P|246:258|225:253,1,50,10|2,0:2|0:2,0:0:0:0:
189,280,121267,2,0,P|140:288|91:277,2,100,2|2|0,0:2|3:2|0:2,0:0:0:0:
184,180,122553,2,0,P|190:152|186:124,1,50,8|0,0:2|3:2,0:0:0:0:
138,122,122981,2,0,P|132:94|136:66,1,50,10|8,0:2|0:2,0:0:0:0:
164,32,123410,6,0,P|211:40|279:26,1,100,6|0,3:2|0:2,0:0:0:0:
309,49,124053,1,0,3:2:0:0:
356,34,124267,2,0,P|379:62|375:132,1,100,10|0,0:2|0:2,0:0:0:0:
338,214,125124,2,0,P|322:278|336:328,1,100,2|0,3:2|3:2,0:0:0:0:
361,347,125767,1,0,3:2:0:0:
361,347,125981,1,10,0:2:0:0:
262,366,126410,1,0,0:2:0:0:
167,333,126839,6,0,P|127:274|129:236,1,100,2|0,3:2|0:2,0:0:0:0:
151,204,127481,1,0,3:2:0:0:
195,181,127696,2,0,P|235:122|233:84,1,100,10|0,0:2|0:2,0:0:0:0:
198,61,128339,1,0,0:2:0:0:
155,35,128553,2,0,P|102:34|46:43,1,100,2|0,3:2|3:2,0:0:0:0:
12,66,129196,1,0,3:2:0:0:
12,66,129410,1,10,0:2:0:0:
47,159,129839,1,0,3:2:0:0:
28,257,130267,6,0,P|21:280|19:315,2,50,2|2|2,3:2|0:2|0:2,0:0:0:0:
72,233,130910,1,0,3:2:0:0:
118,215,131124,2,0,P|188:212|225:217,1,100,10|0,0:2|0:2,0:0:0:0:
275,297,131981,2,0,P|266:325|266:355,2,50,2|2|2,3:2|0:2|3:2,0:0:0:0:
319,273,132624,1,0,3:2:0:0:
365,255,132838,2,0,P|435:252|472:257,1,100,10|0,0:2|0:2,0:0:0:0:
472,155,133696,6,0,P|479:129|480:95,2,50,2|2|2,3:2|0:2|0:2,0:0:0:0:
422,146,134339,1,0,3:2:0:0:
373,133,134553,2,0,P|281:131|255:135,1,100,10|0,0:2|0:2,0:0:0:0:
204,59,135410,2,0,P|174:121|176:160,1,100,2|0,3:2|0:2,0:0:0:0:
186,199,136053,1,0,3:2:0:0:
186,199,136267,1,10,0:2:0:0:
171,298,136696,2,0,P|202:305|240:308,1,50,8|8,0:2|0:2,0:0:0:0:
268,293,137124,6,0,P|329:282|381:302,1,100,6|0,3:2|0:2,0:0:0:0:
406,319,137767,1,0,3:2:0:0:
446,348,137981,2,0,P|465:297|465:245,1,100,10|0,0:2|0:2,0:0:0:0:
375,209,138839,2,0,P|356:158|356:106,1,100,2|0,3:2|3:2,0:0:0:0:
346,63,139481,1,0,3:2:0:0:
346,63,139696,1,10,0:2:0:0:
250,33,140124,1,0,0:2:0:0:
157,71,140553,6,0,P|169:146|156:185,1,100,2|0,3:2|0:2,0:0:0:0:
130,206,141196,1,0,3:2:0:0:
102,247,141410,2,0,P|90:322|103:361,1,100,10|0,0:2|0:2,0:0:0:0:
134,376,142053,1,0,0:2:0:0:
180,357,142267,2,0,P|211:360|236:355,2,50,2|0|0,3:2|0:2|3:2,0:0:0:0:
180,306,142910,1,0,3:2:0:0:
180,306,143124,1,10,0:2:0:0:
249,234,143553,1,0,3:2:0:0:
171,170,143981,6,0,P|146:169|115:172,2,50,2|2|2,3:2|0:2|0:2,0:0:0:0:
204,133,144624,1,0,3:2:0:0:
235,93,144839,2,0,P|258:62|269:-3,1,100,10|0,0:2|0:2,0:0:0:0:
348,69,145696,2,0,P|399:65|409:62,2,50,2|2|2,3:2|0:2|3:2,0:0:0:0:
329,115,146339,1,0,3:2:0:0:
318,163,146553,2,0,P|325:212|352:253,1,100,10|0,0:2|0:2,0:0:0:0:
410,335,147410,6,0,P|440:334|467:343,2,50,2|2|2,3:2|0:2|0:2,0:0:0:0:
360,343,148053,1,0,3:2:0:0:
310,350,148267,2,0,P|236:355|199:339,1,100,10|0,0:2|0:2,0:0:0:0:
120,307,149124,2,0,P|139:241|139:200,1,100,2|0,3:2|0:2,0:0:0:0:
119,164,149767,1,0,3:2:0:0:
119,164,149981,1,10,0:2:0:0:
89,68,150410,2,0,P|138:70|146:73,1,50,8|8,0:2|0:2,0:0:0:0:
187,82,150839,5,6,3:2:0:0:
280,47,151267,1,2,0:2:0:0:
371,87,151696,2,0,P|373:139|343:198,1,100,10|0,1:3|0:2,0:0:0:0:
189,185,152553,5,2,3:2:0:0:
96,150,152981,1,2,3:2:0:0:
14,208,153410,2,0,P|12:260|42:319,1,100,10|0,1:3|0:2,0:0:0:0:
190,298,154267,5,2,3:2:0:0:
283,263,154695,1,2,0:2:0:0:
350,336,155124,2,0,P|404:330|454:300,1,100,10|0,1:3|0:2,0:0:0:0:
438,208,155981,5,2,3:2:0:0:
352,155,156410,1,2,0:2:0:0:
251,151,156839,1,10,1:3:0:0:
155,185,157267,2,0,P|150:236|154:255,1,50,10|8,0:2|0:2,0:0:0:0:
179,275,157696,5,2,3:2:0:0:
277,289,158124,1,2,0:2:0:0:
352,223,158553,2,0,P|401:193|458:180,1,100,10|0,1:3|0:2,0:0:0:0:
423,83,159410,5,2,3:2:0:0:
343,23,159838,1,2,3:2:0:0:
247,52,160267,2,0,P|191:57|135:39,1,100,10|0,1:3|0:2,0:0:0:0:
82,120,161124,5,2,3:2:0:0:
154,188,161552,1,2,0:2:0:0:
248,156,161981,2,0,P|298:152|361:157,1,100,10|0,1:3|0:2,0:0:0:0:
406,236,162839,5,2,3:2:0:0:
332,305,163268,1,2,0:2:0:0:
232,312,163697,1,10,1:3:0:0:
139,275,164125,2,0,P|136:231|139:211,1,50,10|8,0:2|0:2,0:0:0:0:
102,188,164554,5,6,3:2:0:0:
374,81,166267,1,2,0:2:0:0:
107,84,167981,1,2,0:2:0:0:
347,204,169696,1,2,0:2:0:0:
243,6,171196,1,4,3:3:0:0:
243,6,171410,5,2,3:3:0:0:
239,309,173124,1,2,0:2:0:0:
410,156,174839,1,2,0:2:0:0:
86,151,176553,1,2,0:2:0:0:
256,357,178267,5,6,3:3:0:0:
