osu file format v14

[General]
AudioFilename: audio.mp3
AudioLeadIn: 0
PreviewTime: 123306
Countdown: 0
SampleSet: Soft
StackLeniency: 0.7
Mode: 0
LetterboxInBreaks: 0
WidescreenStoryboard: 0

[Editor]
Bookmarks: -20,6837,13694,27408,54837,82265,95980,123408,150837,164551,178265
DistanceSpacing: 1.2
BeatDivisor: 4
GridSize: 32
TimelineZoom: 1

[Metadata]
Title:Wilt
TitleUnicode:Wilt
Artist:VerseQuence
ArtistUnicode:VerseQuence
Creator:Mir
Version:Arphimigon's Hard
Source:VOEZ
Tags:low bpm cute flower arphimigon avieri rayark inc mjq eri verse quence
BeatmapID:1401126
BeatmapSetID:661844

[Difficulty]
HPDrainRate:4
CircleSize:3.5
OverallDifficulty:6
ApproachRate:7
SliderMultiplier:2
SliderTickRate:1

[Events]
//Background and Video events
0,0,"nottotoro.jpg",0,0
//Break Periods
//Storyboard Layer 0 (Background)
//Storyboard Layer 1 (Fail)
//Storyboard Layer 2 (Pass)
//Storyboard Layer 3 (Foreground)
//Storyboard Sound Samples

[TimingPoints]
6839,428.571428571429,4,2,1,30,1,0
6839,-142.857142857143,4,2,1,30,0,0
13696,-125,4,2,1,60,0,0
27410,-125,4,2,1,40,0,0
54839,-100,4,2,1,80,0,1
82267,-111.111111111111,4,2,1,70,0,0
95981,-125,4,2,1,40,0,0
123410,-100,4,2,1,80,0,1
150839,-111.111111111111,4,2,1,70,0,0
164553,-142.857142857143,4,2,1,40,0,0

[Colours]
Combo1 : 5,224,33
Combo2 : 0,128,192
Combo3 : 255,94,94

[HitObjects]
120,119,6838,5,0,3:2:0:0:
274,186,7267,1,0,0:2:0:0:
348,147,7481,1,0,3:2:0:0:
427,174,7696,2,0,P|420:104|364:65,1,139.999995727539,8|0,0:2|0:2,0:0:0:0:
200,91,8553,5,0,3:2:0:0:
272,242,8982,1,0,3:2:0:0:
198,281,9196,1,0,3:2:0:0:
129,234,9411,2,0,P|117:301|158:355,1,139.999995727539,8|0,0:2|0:2,0:0:0:0:
326,345,10267,5,0,3:2:0:0:
447,228,10696,1,0,0:2:0:0:
392,164,10910,1,0,3:2:0:0:
444,98,11124,2,0,P|378:79|319:120,1,139.999995727539,8|0,0:2|0:2,0:0:0:0:
259,271,11981,5,0,3:2:0:0:
94,235,12410,1,0,0:2:0:0:
142,166,12624,1,0,3:2:0:0:
106,89,12839,1,8,0:2:0:0:
56,156,13053,1,0,3:2:0:0:
47,159,13160,1,0,3:2:0:0:
39,162,13267,1,8,0:2:0:0:
106,89,13481,1,8,2:2:0:0:
242,168,13696,6,0,P|301:177|333:169,1,80,6|0,3:2|0:2,0:0:0:0:
411,143,14124,1,2,0:2:0:0:
208,67,14553,1,10,0:2:0:0:
119,238,14981,2,0,P|109:296|117:328,1,80,0|0,0:2|0:2,0:0:0:0:
217,319,15410,2,0,P|225:259|218:227,1,80,2|0,3:2|0:2,0:0:0:0:
174,159,15839,1,2,3:2:0:0:
318,261,16267,2,0,P|388:252|446:175,1,160,10|0,0:2|0:2,0:0:0:0:
277,44,17124,6,0,P|226:46|186:61,1,80,2|0,3:2|0:2,0:0:0:0:
112,102,17553,1,2,0:2:0:0:
268,269,17981,1,10,0:2:0:0:
80,344,18410,1,0,0:2:0:0:
54,251,18624,1,0,0:2:0:0:
88,160,18839,1,2,3:2:0:0:
92,152,19267,1,2,0:2:0:0:
96,144,19696,1,10,0:2:0:0:
186,112,19910,1,0,3:2:0:0:
190,104,20017,1,0,3:2:0:0:
194,96,20124,1,10,0:2:0:0:
240,188,20339,1,8,0:2:0:0:
322,138,20553,6,0,P|316:73|288:42,1,80,2|0,3:2|0:2,0:0:0:0:
225,14,20981,1,2,0:2:0:0:
91,150,21410,1,10,0:2:0:0:
261,224,21839,2,0,P|312:218|345:227,1,80,0|0,0:2|0:2,0:0:0:0:
340,328,22267,2,0,P|289:334|256:325,1,80,2|0,3:2|0:2,0:0:0:0:
181,273,22696,1,2,3:2:0:0:
210,58,23124,2,0,P|124:66|63:124,1,160,10|0,0:2|0:2,0:0:0:0:
114,340,23981,6,0,P|170:341|204:326,1,80,2|0,3:2|0:2,0:0:0:0:
256,257,24410,1,2,0:2:0:0:
437,194,24839,1,10,0:2:0:0:
256,257,25267,1,0,0:2:0:0:
267,65,25696,1,2,3:2:0:0:
259,61,26124,1,2,0:2:0:0:
251,57,26553,1,10,0:2:0:0:
157,48,26767,1,0,3:2:0:0:
149,44,26874,1,0,3:2:0:0:
141,40,26981,1,10,0:2:0:0:
175,149,27196,1,8,0:2:0:0:
79,269,27410,5,6,3:2:0:0:
267,306,27839,1,0,0:2:0:0:
354,267,28053,1,0,3:2:0:0:
440,308,28267,2,0,P|448:248|381:172,2,160,10|2|2,0:2|0:2|3:2,0:0:0:0:
267,306,29553,1,0,0:2:0:0:
238,214,29767,1,0,3:2:0:0:
286,131,29981,2,0,P|213:120|146:185,2,160,8|0|2,0:2|0:2|3:2,0:0:0:0:
251,320,31267,6,0,P|215:335|175:337,1,80,0|0,0:2|3:2,0:0:0:0:
85,301,31696,1,10,0:2:0:0:
50,112,32124,1,2,0:2:0:0:
142,138,32339,1,0,0:2:0:0:
118,45,32553,1,2,3:2:0:0:
271,159,32981,1,0,0:2:0:0:
366,145,33196,1,0,3:2:0:0:
306,70,33410,1,8,0:2:0:0:
271,159,33624,1,0,3:2:0:0:
366,145,33839,2,0,P|426:157|453:178,1,80,2|8,0:2|0:2,0:0:0:0:
483,252,34267,5,2,3:2:0:0:
256,337,34696,1,0,0:2:0:0:
29,252,35124,1,10,0:2:0:0:
256,170,35553,2,0,P|251:118|171:38,1,160,2|2,0:2|3:2,0:0:0:0:
60,167,36410,2,0,P|82:207|118:234,1,80,0|0,0:0|0:2,0:0:0:0:
199,260,36839,1,8,0:2:0:0:
388,223,37267,1,0,0:2:0:0:
332,38,37696,5,2,3:2:0:0:
484,192,38124,1,0,0:2:0:0:
332,346,38553,1,10,0:2:0:0:
186,192,38981,2,0,P|179:113|222:47,1,160,2|2,0:2|3:2,0:0:0:0:
408,97,39839,2,0,P|416:137|417:188,1,80,0|0,0:2|3:2,0:0:0:0:
324,155,40267,2,0,P|332:195|333:246,1,80,8|0,0:2|3:2,0:0:0:0:
238,219,40696,2,0,P|246:259|247:310,1,80,2|8,0:2|0:2,0:0:0:0:
172,357,41124,5,2,3:2:0:0:
62,199,41553,1,0,0:2:0:0:
145,152,41767,1,0,3:2:0:0:
235,184,41981,2,0,P|286:178|320:159,1,80,10|2,0:2|0:2,0:0:0:0:
335,72,42410,2,0,P|388:107|394:214,1,160,2|2,0:2|3:2,0:0:0:0:
251,317,43267,1,0,0:2:0:0:
160,286,43481,1,0,3:2:0:0:
67,323,43696,2,0,P|60:278|138:186,2,160,8|0|2,0:2|0:2|3:2,0:0:0:0:
256,338,44981,5,0,0:2:0:0:
347,308,45196,1,0,3:2:0:0:
386,220,45410,1,10,0:2:0:0:
256,338,45839,1,2,0:2:0:0:
165,308,46054,1,0,0:2:0:0:
126,220,46268,1,2,3:2:0:0:
304,104,46696,1,0,0:2:0:0:
334,195,46910,1,0,3:2:0:0:
256,251,47124,1,8,0:2:0:0:
178,195,47339,1,0,3:2:0:0:
208,104,47553,2,0,P|170:47|139:37,1,80,2|8,0:2|0:2,0:0:0:0:
72,30,47981,5,2,3:2:0:0:
147,235,48410,1,0,0:2:0:0:
365,235,48839,1,10,0:2:0:0:
440,30,49267,2,0,P|353:34|296:95,1,160,2|2,0:2|3:2,0:0:0:0:
436,214,50124,2,0,P|437:253|431:293,1,80,0|0,0:2|3:2,0:0:0:0:
359,357,50553,1,0,0:0:0:0:
356,162,50981,1,0,0:2:0:0:
173,102,51410,5,2,3:2:0:0:
148,292,51839,1,0,0:2:0:0:
364,292,52267,1,10,0:2:0:0:
339,102,52696,2,0,P|276:121|256:205,1,160,2|2,0:2|3:2,0:0:0:0:
408,322,53553,2,0,P|416:282|417:231,1,80,0|0,0:2|3:2,0:0:0:0:
324,264,53981,1,8,0:2:0:0:
337,168,54196,1,0,3:2:0:0:
338,160,54303,1,0,3:2:0:0:
339,152,54410,1,10,0:2:0:0:
324,264,54624,1,8,0:2:0:0:
210,81,54839,6,0,P|120:51|40:117,1,200,6|0,3:2|0:2,0:0:0:0:
81,333,55696,2,0,P|171:363|251:297,1,200,10|0,0:2|0:2,0:0:0:0:
429,91,56553,2,0,P|487:165|453:263,1,200,2|0,3:2|3:2,0:0:0:0:
248,303,57410,2,0,P|226:258|228:194,1,100,10|0,0:2|0:2,0:0:0:0:
294,61,57839,2,0,P|316:106|314:170,1,100,0|0,0:2|0:2,0:0:0:0:
154,82,58267,6,0,P|59:89|20:176,2,200,2|0|10,3:2|0:2|0:2,0:0:0:0:
204,317,59552,1,0,0:2:0:0:
86,343,59767,1,0,0:2:0:0:
0,258,59981,1,2,3:2:0:0:
308,317,60410,1,0,3:2:0:0:
426,343,60625,1,0,3:2:0:0:
500,249,60839,1,10,0:2:0:0:
476,131,61053,1,0,0:2:0:0:
358,105,61267,2,0,P|291:112|258:132,1,100,0|0,3:2|0:0,0:0:0:0:
133,283,61696,5,2,3:2:0:0:
195,180,61910,1,2,0:2:0:0:
250,286,62124,2,0,P|330:285|356:269,1,100,2|0,0:2|3:2,0:0:0:0:
399,169,62553,2,0,P|462:251|446:346,1,200,10|0,0:2|0:2,0:0:0:0:
208,354,63410,5,2,3:2:0:0:
93,317,63624,1,2,0:2:0:0:
181,236,63838,2,0,P|180:156|164:130,1,100,2|0,3:2|3:2,0:0:0:0:
63,87,64267,2,0,P|145:24|240:40,1,200,10|0,0:2|0:2,0:0:0:0:
430,177,65124,5,2,3:2:0:0:
407,295,65339,1,2,0:2:0:0:
314,218,65553,2,0,P|264:211|218:228,1,100,2|0,0:2|3:2,0:0:0:0:
154,330,65981,2,0,P|101:249|122:154,2,200,10|0|2,0:2|0:2|3:2,0:0:0:0:
395,322,67267,5,0,0:2:0:0:
465,251,67481,1,0,3:2:0:0:
439,153,67696,1,10,0:2:0:0:
365,221,67910,1,0,3:2:0:0:
355,222,68017,1,0,3:2:0:0:
345,224,68124,1,8,0:2:0:0:
465,251,68338,1,8,0:2:0:0:
277,325,68553,6,0,P|221:247|251:139,1,200,6|0,3:2|0:2,0:0:0:0:
448,13,69410,2,0,P|504:91|474:199,1,200,10|0,0:2|0:2,0:0:0:0:
139,82,70267,2,0,P|217:26|325:56,1,200,2|0,3:2|3:2,0:0:0:0:
315,331,71124,2,0,P|267:345|218:338,1,100,10|0,0:2|0:2,0:0:0:0:
151,196,71553,2,0,P|198:182|247:189,1,100,0|0,0:2|0:2,0:0:0:0:
425,236,71981,6,0,P|433:151|349:53,2,200,2|0|10,3:2|0:2|0:2,0:0:0:0:
217,357,73267,2,0,P|149:356|122:340,1,100,0|0,0:2|0:2,0:0:0:0:
40,252,73696,1,2,3:2:0:0:
158,232,73910,1,0,0:2:0:0:
139,113,74124,1,0,3:2:0:0:
21,133,74338,1,0,3:2:0:0:
74,24,74553,2,0,P|169:10|239:77,1,200,10|0,0:2|3:2,0:0:0:0:
340,339,75410,5,2,3:2:0:0:
455,307,75624,1,2,0:2:0:0:
368,221,75839,2,0,P|318:219|269:242,1,100,2|0,0:2|3:2,0:0:0:0:
226,348,76267,2,0,P|163:288|168:180,1,200,10|0,0:2|0:2,0:0:0:0:
389,89,77124,5,2,3:2:0:0:
384,209,77339,1,2,0:2:0:0:
281,145,77553,2,0,P|262:191|266:240,1,100,2|0,3:2|3:2,0:0:0:0:
355,320,77981,2,0,P|266:360|178:320,1,200,10|0,0:2|0:2,0:0:0:0:
32,128,78839,5,2,3:2:0:0:
144,169,79053,1,2,0:2:0:0:
120,51,79267,2,0,P|170:48|215:70,1,100,2|0,0:2|3:2,0:0:0:0:
265,177,79696,2,0,P|326:102|314:6,2,200,10|0|2,0:2|0:2|3:2,0:0:0:0:
72,35,80981,5,0,0:2:0:0:
2,106,81195,1,0,3:2:0:0:
28,204,81410,1,10,0:2:0:0:
102,136,81624,1,0,3:2:0:0:
112,135,81731,1,0,3:2:0:0:
122,132,81838,1,8,0:2:0:0:
28,204,82053,1,8,0:2:0:0:
210,182,82267,6,0,P|241:236|244:277,1,89.9999972534181,6|0,3:2|0:2,0:0:0:0:
219,367,82696,1,2,0:2:0:0:
416,276,83124,1,10,0:2:0:0:
280,109,83553,2,0,P|281:54|291:16,1,89.9999972534181,0|0,0:2|0:2,0:0:0:0:
404,32,83981,2,0,P|403:87|393:125,1,89.9999972534181,2|0,3:2|0:2,0:0:0:0:
331,211,84410,1,2,3:2:0:0:
140,135,84839,2,0,P|65:173|31:263,1,179.999994506836,10|0,0:2|0:2,0:0:0:0:
221,366,85696,6,0,P|247:330|257:286,1,89.9999972534181,2|0,3:2|0:2,0:0:0:0:
254,175,86124,1,2,0:2:0:0:
134,11,86553,1,10,0:2:0:0:
356,40,86981,1,0,0:2:0:0:
412,132,87196,1,0,0:2:0:0:
378,234,87410,1,2,3:2:0:0:
376,242,87839,1,2,0:2:0:0:
374,250,88267,1,10,0:2:0:0:
270,280,88481,1,0,3:2:0:0:
268,288,88589,1,0,3:2:0:0:
266,296,88696,1,10,0:2:0:0:
203,198,88910,1,8,0:2:0:0:
118,289,89124,6,0,P|90:253|81:209,1,89.9999972534181,2|0,3:2|0:2,0:0:0:0:
84,96,89553,1,2,0:2:0:0:
266,3,89981,1,10,0:2:0:0:
371,179,90410,2,0,P|360:222|336:259,1,89.9999972534181,0|0,0:2|0:2,0:0:0:0:
238,208,90839,2,0,P|248:164|272:127,1,89.9999972534181,2|0,3:2|0:2,0:0:0:0:
353,85,91267,1,2,3:2:0:0:
258,293,91696,2,0,P|177:326|102:282,1,179.999994506836,10|0,0:2|0:2,0:0:0:0:
99,67,92553,6,0,P|183:60|210:65,1,89.9999972534181,2|0,3:2|0:2,0:0:0:0:
284,111,92981,1,2,0:2:0:0:
371,308,93410,1,10,0:2:0:0:
497,130,93839,1,0,0:2:0:0:
282,132,94267,1,2,3:2:0:0:
274,130,94696,1,2,0:2:0:0:
266,128,95124,1,10,0:2:0:0:
161,156,95339,1,2,3:2:0:0:
153,154,95446,1,0,3:2:0:0:
145,152,95553,1,10,0:2:0:0:
212,254,95767,1,8,0:2:0:0:
37,305,95981,5,6,3:2:0:0:
224,346,96410,1,0,0:2:0:0:
311,306,96624,1,0,3:2:0:0:
396,356,96839,2,0,P|408:314|346:213,2,160,10|2|2,0:2|0:2|3:2,0:0:0:0:
217,286,98124,1,0,0:2:0:0:
130,246,98338,1,0,3:2:0:0:
45,296,98553,2,0,P|33:254|95:153,2,160,8|0|2,0:2|0:2|3:2,0:0:0:0:
220,218,99839,6,0,P|226:181|218:130,1,80,0|0,0:2|3:2,0:0:0:0:
192,48,100267,1,10,0:2:0:0:
8,106,100696,1,2,0:2:0:0:
220,218,101124,1,2,3:2:0:0:
315,204,101339,1,0,0:2:0:0:
300,109,101553,1,0,0:2:0:0:
205,123,101768,1,0,3:2:0:0:
220,218,101981,1,8,0:2:0:0:
315,204,102196,1,0,3:2:0:0:
409,189,102410,2,0,P|406:228|388:264,1,80,2|8,0:2|0:2,0:0:0:0:
304,312,102839,5,2,3:2:0:0:
136,240,103267,1,0,0:2:0:0:
208,72,103696,1,10,0:2:0:0:
376,144,104124,2,0,P|381:222|340:289,1,160,2|2,0:2|3:2,0:0:0:0:
145,283,104981,2,0,P|141:243|146:203,1,80
192,96,105410,1,8,3:2:0:0:
391,153,105839,1,0,0:0:0:0:
306,327,106267,5,2,3:2:0:0:
256,141,106696,1,0,0:2:0:0:
206,327,107124,1,10,0:2:0:0:
335,184,107553,2,0,P|340:107|284:53,1,160,2|2,0:2|3:2,0:0:0:0:
94,120,108410,2,0,P|133:117|173:125,1,80,2|0,0:2|0:2,0:0:0:0:
223,211,108839,2,0,P|184:219|145:216,1,80,8|0,0:2|3:2,0:0:0:0:
109,307,109267,2,0,P|148:304|188:312,1,80,2|8,0:2|0:2,0:0:0:0:
283,346,109696,5,2,3:2:0:0:
161,205,110124,1,0,0:2:0:0:
121,118,110338,1,0,3:2:0:0:
171,33,110553,2,0,P|129:21|28:83,2,160,10|2|2,0:2|0:2|3:2,0:0:0:0:
351,205,111839,1,0,0:2:0:0:
391,118,112053,1,0,3:2:0:0:
341,33,112268,2,0,P|383:21|484:83,2,160,8|0|2,0:2|0:2|3:2,0:0:0:0:
256,250,113553,5,0,0:2:0:0:
172,297,113767,1,0,3:2:0:0:
79,271,113981,1,10,0:2:0:0:
53,80,114410,1,2,0:2:0:0:
137,33,114624,1,0,0:2:0:0:
230,59,114838,1,2,3:2:0:0:
256,250,115267,1,0,0:2:0:0:
340,297,115481,1,0,3:2:0:0:
433,271,115695,1,8,0:2:0:0:
351,213,115910,1,0,3:2:0:0:
256,250,116124,2,0,P|251:192|266:158,1,80,2|8,0:2|0:2,0:0:0:0:
314,94,116553,5,2,3:2:0:0:
148,190,116981,1,0,0:2:0:0:
364,194,117410,1,10,0:2:0:0:
198,290,117839,2,0,P|117:298|51:247,1,160,2|2,0:2|3:2,0:0:0:0:
41,65,118696,2,0,P|79:56|119:59,1,80,0|0,0:2|3:2,3:2:0:0:
212,104,119124,1,8,3:2:0:0:
378,198,119553,1,0,3:2:0:0:
237,331,119981,5,2,3:2:0:0:
117,173,120410,1,0,0:2:0:0:
275,53,120839,1,10,0:2:0:0:
395,211,121267,2,0,P|434:180|453:50,1,160,2|2,0:2|3:2,0:0:0:0:
275,53,122124,2,0,P|226:51|187:63,1,80,0|0,0:2|3:2,0:0:0:0:
110,101,122553,1,8,0:2:0:0:
72,191,122767,1,0,3:2:0:0:
64,192,122874,1,0,3:2:0:0:
56,193,122981,1,10,0:2:0:0:
168,178,123195,1,8,0:2:0:0:
29,310,123410,6,0,P|112:346|210:306,1,200,6|0,3:2|0:2,0:0:0:0:
302,75,124267,2,0,P|392:37|483:74,1,200,10|0,0:2|0:2,0:0:0:0:
482,310,125124,2,0,P|392:346|302:308,1,200,2|0,3:2|3:2,0:0:0:0:
209,75,125981,2,0,P|156:64|107:73,1,100,10|0,0:2|0:2,0:0:0:0:
42,207,126410,2,0,P|95:218|144:209,1,100,0|0,0:2|0:2,0:0:0:0:
288,143,126839,6,0,P|385:119|480:153,2,200,2|0|10,3:2|0:2|0:2,0:0:0:0:
107,302,128124,1,0,0:2:0:0:
56,192,128339,1,0,0:2:0:0:
107,82,128553,1,2,3:2:0:0:
405,302,128981,1,0,3:2:0:0:
456,192,129196,1,0,3:2:0:0:
396,87,129410,1,10,0:2:0:0:
276,95,129624,1,0,0:2:0:0:
225,205,129839,2,0,P|227:278|216:315,1,100,0|0,3:2|0:0,0:0:0:0:
67,107,130267,5,2,3:2:0:0:
173,52,130481,1,2,0:2:0:0:
276,113,130696,2,0,P|334:117|378:101,1,100,2|0,0:2|3:2,0:0:0:0:
450,12,131124,2,0,P|491:100|458:192,1,200,10|0,0:2|0:2,0:0:0:0:
67,277,131981,5,2,3:2:0:0:
173,332,132195,1,2,0:2:0:0:
276,271,132410,2,0,P|334:267|378:283,1,100,2|0,3:2|3:2,0:0:0:0:
450,372,132838,2,0,P|491:283|458:191,1,200,10|0,0:2|0:2,0:0:0:0:
67,107,133696,5,2,3:2:0:0:
173,52,133910,1,2,0:2:0:0:
276,113,134125,2,0,P|334:117|378:101,1,100,2|0,0:2|3:2,0:0:0:0:
450,12,134553,2,0,P|491:100|458:192,2,200,10|0|2,0:2|0:2|3:2,0:0:0:0:
209,19,135839,5,0,0:2:0:0:
139,90,136053,1,0,3:2:0:0:
165,188,136268,1,10,0:2:0:0:
239,120,136482,1,0,3:2:0:0:
249,119,136589,1,0,3:2:0:0:
259,118,136696,1,8,0:2:0:0:
139,90,136910,1,8,0:2:0:0:
160,302,137124,6,0,P|93:280|61:157,1,200,6|0,3:2|0:2,0:0:0:0:
399,220,137981,2,0,P|413:289|323:378,1,200,10|0,0:2|0:2,0:0:0:0:
208,53,138839,2,0,P|261:6|383:40,1,200,2|0,3:2|3:2,0:0:0:0:
160,301,139696,2,0,P|111:292|74:259,1,100,10|0,0:2|0:2,0:0:0:0:
75,115,140124,2,0,P|123:124|160:157,1,100,0|0,0:2|0:2,0:0:0:0:
278,256,140553,6,0,P|317:167|284:75,2,200,2|0|10,3:2|0:2|0:2,0:0:0:0:
40,284,141839,2,0,P|31:208|46:170,1,100,0|0,0:2|0:2,0:0:0:0:
105,88,142267,1,2,3:2:0:0:
220,56,142481,1,0,0:2:0:0:
251,171,142696,1,0,3:2:0:0:
136,203,142910,1,0,3:2:0:0:
227,280,143124,2,0,P|313:266|362:165,1,200,10|0,0:2|3:2,0:0:0:0:
140,76,143981,5,2,3:2:0:0:
76,177,144195,1,2,0:2:0:0:
132,283,144410,2,0,P|180:293|228:280,1,100,2|0,0:2|3:2,0:0:0:0:
306,190,144838,2,0,P|347:278|313:370,1,200,10|0,0:2|0:2,0:0:0:0:
106,295,145696,5,2,3:2:0:0:
42,194,145910,1,2,0:2:0:0:
98,88,146125,2,0,P|146:77|194:90,1,100,2|0,3:2|3:2,0:0:0:0:
272,183,146553,2,0,P|313:94|279:2,1,200,10|0,0:2|0:2,0:0:0:0:
77,89,147410,5,2,3:2:0:0:
13,190,147624,1,2,0:2:0:0:
69,296,147839,2,0,P|117:306|165:293,1,100,2|0,0:2|3:2,0:0:0:0:
243,203,148267,2,0,P|284:291|250:383,2,200,10|0|2,0:2|0:2|3:2,0:0:0:0:
24,104,149553,5,0,0:2:0:0:
95,34,149767,1,0,3:2:0:0:
193,60,149982,1,10,0:2:0:0:
125,134,150196,1,0,3:2:0:0:
124,144,150303,1,0,3:2:0:0:
123,154,150410,1,8,0:2:0:0:
193,60,150624,1,8,0:2:0:0:
346,173,150839,6,0,P|415:180|457:164,1,89.9999972534181,6|0,3:2|0:2,0:0:0:0:
506,84,151267,1,2,0:2:0:0:
296,31,151696,1,10,1:3:0:0:
199,223,152124,2,0,P|188:274|197:319,1,89.9999972534181,0|0,0:2|0:2,0:0:0:0:
303,315,152553,2,0,P|314:264|305:219,1,89.9999972534181,2|0,3:2|0:2,0:0:0:0:
260,133,152981,1,2,3:2:0:0:
50,222,153410,2,0,P|33:172|80:51,1,179.999994506836,10|0,1:3|0:2,0:0:0:0:
294,76,154267,6,0,P|301:139|293:183,1,89.9999972534181,2|0,3:2|0:2,0:0:0:0:
258,266,154696,1,2,0:2:0:0:
461,337,155124,1,10,1:3:0:0:
245,356,155553,1,0,0:2:0:0:
137,345,155767,1,0,0:2:0:0:
85,250,155981,1,2,3:2:0:0:
87,242,156410,1,2,0:2:0:0:
89,234,156839,1,10,1:3:0:0:
180,176,157053,1,0,3:2:0:0:
182,168,157160,1,0,3:2:0:0:
184,160,157267,1,10,0:2:0:0:
228,270,157481,1,8,0:2:0:0:
385,184,157696,6,0,P|395:227|385:271,1,89.9999972534181,2|0,3:2|0:2,0:0:0:0:
308,347,158124,1,2,0:2:0:0:
256,137,158553,1,10,1:3:0:0:
87,273,158981,2,0,P|40:252|18:217,1,89.9999972534181,0|0,0:2|0:2,0:0:0:0:
85,126,159410,2,0,P|132:147|154:182,1,89.9999972534181,2|0,3:2|0:2,0:0:0:0:
191,281,159839,1,2,3:2:0:0:
402,325,160267,2,0,P|477:275|475:172,1,179.999994506836,10|0,1:3|0:2,0:0:0:0:
329,42,161124,6,0,P|265:42|239:53,1,89.9999972534181,2|0,3:2|0:2,0:0:0:0:
142,94,161553,1,2,0:2:0:0:
237,287,161981,1,10,1:3:0:0:
21,274,162410,1,0,0:2:0:0:
215,179,162839,1,2,3:2:0:0:
221,175,163267,1,2,0:2:0:0:
227,171,163696,1,10,1:3:0:0:
334,171,163910,1,0,3:2:0:0:
340,167,164017,1,0,3:2:0:0:
346,163,164124,1,10,0:2:0:0:
333,282,164339,1,8,0:2:0:0:
159,330,164553,6,0,P|133:276|139:175,2,139.999995727539,6|0|0,3:2|0:2|0:2,0:0:0:0:
256,192,165839,1,0,0:2:0:0:
353,330,166267,2,0,P|379:276|373:175,2,139.999995727539,2|0|0,0:2|0:2|0:2,0:0:0:0:
256,192,167553,1,0,0:2:0:0:
323,38,167981,6,0,P|255:23|187:39,2,139.999995727539,2|0|0,0:2|0:2|0:2,0:0:0:0:
256,192,169267,1,0,0:2:0:0:
87,192,169696,1,2,0:2:0:0:
173,338,170125,1,0,0:2:0:0:
339,338,170553,1,0,0:2:0:0:
425,192,170981,1,0,0:2:0:0:
380,120,171196,1,4,3:3:0:0:
339,46,171410,6,0,P|405:22|474:29,2,139.999995727539,4|0|0,3:3|0:2|0:2,0:0:0:0:
256,192,172696,1,0,0:2:0:0:
172,46,173124,2,0,P|106:22|37:29,2,139.999995727539,2|0|0,0:2|0:2|0:2,0:0:0:0:
256,192,174410,1,0,0:2:0:0:
323,346,174839,6,0,P|255:360|187:344,2,139.999995727539,2|0|0,0:2|0:2|0:2,0:0:0:0:
256,192,176125,1,0,0:2:0:0:
87,192,176554,1,2,0:2:0:0:
173,46,176981,1,0,0:2:0:0:
339,46,177411,1,0,0:2:0:0:
425,192,177839,1,0,0:2:0:0:
256,192,178267,5,4,3:3:0:0:
