osu file format v14

[General]
AudioFilename: audio.mp3
AudioLeadIn: 0
PreviewTime: 123306
Countdown: 0
SampleSet: Soft
StackLeniency: 0.7
Mode: 0
LetterboxInBreaks: 0
WidescreenStoryboard: 1

[Editor]
Bookmarks: -20,6837,13694,27408,54837,78842,82265,95980,123408,150837,164551,178265
DistanceSpacing: 1
BeatDivisor: 4
GridSize: 8
TimelineZoom: 1

[Metadata]
Title:Wilt
TitleUnicode:Wilt
Artist:VerseQuence
ArtistUnicode:VerseQuence
Creator:Mir
Version:Rose
Source:VOEZ
Tags:low bpm cute flower arphimigon avieri rayark inc mjq eri verse quence
BeatmapID:1401842
BeatmapSetID:661844

[Difficulty]
HPDrainRate:6
CircleSize:4
OverallDifficulty:7.5
ApproachRate:8.3
SliderMultiplier:1.4
SliderTickRate:1

[Events]
//Background and Video events
0,0,"nottotoro.jpg",0,0
//Break Periods
//Storyboard Layer 0 (Background)
//Storyboard Layer 1 (Fail)
//Storyboard Layer 2 (Pass)
//Storyboard Layer 3 (Foreground)
//Storyboard Sound Samples

[TimingPoints]
6839,428.571428571429,4,2,1,30,1,0
6839,-125,4,2,1,30,0,0
13695,-100,4,2,1,60,0,0
27410,-111.111111111111,4,2,1,40,0,0
54839,-90.9090909090908,4,2,1,80,0,1
82267,-100,4,2,1,70,0,0
95981,-111.111111111111,4,2,1,40,0,0
123410,-90.9090909090908,4,2,1,80,0,1
150839,-100,4,2,1,70,0,0
164553,-125,4,2,1,40,0,0
166160,-125,4,2,2,5,0,0
166267,-125,4,2,1,40,0,0
167874,-125,4,2,2,5,0,0
167981,-125,4,2,1,40,0,0
169589,-125,4,2,2,5,0,0
169696,-125,4,2,1,40,0,0
173017,-125,4,2,2,5,0,0
173124,-125,4,2,1,40,0,0
174731,-125,4,2,2,5,0,0
174838,-125,4,2,1,40,0,0
176446,-125,4,2,2,5,0,0
176553,-125,4,2,1,40,0,0
178160,-125,4,2,2,5,0,0
178267,-125,4,2,1,40,0,0

[Colours]
Combo1 : 247,166,166
Combo2 : 206,255,254
Combo3 : 202,226,255
Combo4 : 248,120,139

[HitObjects]
335,322,6839,6,0,P|290:328|209:308,1,112,2|0,3:2|0:2,0:2:0:0:
208,212,7482,1,0,3:2:0:0:
330,197,7696,2,0,P|389:199|451:209,1,112,8|0,0:2|0:2,0:2:0:0:
200,37,8553,6,0,P|209:76|205:117,1,56,2|0,3:2|0:2,0:2:0:0:
182,191,8982,1,0,3:2:0:0:
114,130,9196,1,0,3:2:0:0:
270,159,9410,2,0,P|338:153|382:127,1,112,8|0,0:2|0:2,0:2:0:0:
482,307,10267,6,0,P|418:303|356:306,1,112,2|0,3:2|0:2,0:2:0:0:
261,353,10910,1,0,3:2:0:0:
299,245,11124,2,0,P|322:195|300:145,1,112,8|0,0:2|0:2,0:2:0:0:
0,181,11982,6,0,P|60:182|123:173,1,112,2|0,3:2|0:2,0:2:0:0:
190,95,12624,1,0,3:2:0:0:
182,235,12839,1,8,0:2:0:0:
89,79,13053,1,0,3:2:0:0:
89,79,13160,1,0,3:2:0:0:
89,79,13267,1,8,0:2:0:0:
283,65,13482,1,8,2:2:0:0:
391,222,13696,6,0,P|336:226|296:217,1,70,6|0,3:2|0:2,0:2:0:0:
193,304,14124,2,0,P|248:308|288:299,1,70,2|0,0:2|3:2,0:2:0:0:
130,221,14553,2,0,P|85:288|102:367,1,140,10|0,0:2|0:2,0:2:0:0:
193,304,15196,1,0,0:2:0:0:
196,162,15410,6,0,P|187:128|187:78,1,70,2|0,3:2|0:2,0:2:0:0:
238,16,15839,1,2,3:2:0:0:
78,66,16053,1,0,3:2:0:0:
302,117,16267,2,0,P|349:115|457:82,1,140,10|0,0:2|0:2,0:2:0:0:
489,24,16910,1,0,0:2:0:0:
429,198,17124,6,0,P|420:240|424:278,1,70,2|0,3:2|0:2,0:2:0:0:
512,384,17553,2,0,P|513:349|504:315,1,70,2|0,0:2|3:2,0:2:0:0:
283,361,17982,2,0,P|360:363|441:357,1,140,10|0,0:2|0:2,0:2:0:0:
421,266,18624,1,0,0:2:0:0:
253,273,18839,6,0,P|188:263|130:196,1,140,2|2,3:2|0:2,0:2:0:0:
147,42,19482,1,0,3:2:0:0:
32,150,19696,1,10,0:2:0:0:
252,143,19910,1,0,3:2:0:0:
252,143,20017,1,0,3:2:0:0:
252,143,20124,1,10,0:2:0:0:
120,225,20339,1,8,0:2:0:0:
252,143,20553,6,0,P|291:139|329:124,1,70,2|0,3:2|0:2,0:2:0:0:
478,38,20982,2,0,P|444:26|410:23,1,70,2|0,0:2|3:2,0:2:0:0:
448,276,21410,2,0,P|456:200|443:112,1,140,10|0,0:2|0:2,0:2:0:0:
349,120,22053,1,0,0:2:0:0:
259,241,22267,6,0,P|211:246|168:234,1,70,2|0,3:2|0:2,0:2:0:0:
107,164,22696,1,2,3:2:0:0:
75,269,22910,1,0,3:2:0:0:
185,110,23124,2,0,P|148:78|37:91,1,140,10|0,0:2|0:2,0:2:0:0:
107,164,23767,1,0,0:2:0:0:
266,88,23982,6,0,P|305:81|347:78,1,70,2|0,3:2|0:2,0:2:0:0:
454,168,24410,2,0,P|414:161|373:158,1,70,2|0,0:2|3:2,0:2:0:0:
265,348,24839,2,0,P|297:317|314:213,1,140,10|0,0:2|0:2,0:2:0:0:
308,107,25482,1,0,0:2:0:0:
181,220,25696,6,0,P|110:212|23:225,1,140,2|2,3:2|0:2,0:2:0:0:
111,298,26339,1,0,3:2:0:0:
129,119,26553,1,10,0:2:0:0:
261,282,26767,1,0,3:2:0:0:
261,282,26874,1,0,3:2:0:0:
261,282,26982,1,10,0:2:0:0:
270,130,27196,1,8,0:2:0:0:
464,241,27410,6,0,P|420:213|390:129,1,125.999996154785,6|0,3:2|0:2,0:2:0:0:
328,15,28053,1,0,3:2:0:0:
246,181,28267,1,10,0:2:0:0:
272,94,28481,1,2,0:2:0:0:
155,48,28696,2,0,P|123:45|92:45,1,62.9999980773926,2|0,0:2|0:2,0:2:0:0:
155,244,29124,6,0,P|152:190|89:143,1,125.999996154785,2|0,3:2|0:2,0:2:0:0:
65,229,29767,1,0,3:2:0:0:
196,334,29981,2,0,P|228:334|265:330,1,62.9999980773926,8|0,0:2|0:2,0:2:0:0:
344,252,30410,2,0,P|293:251|265:247,1,62.9999980773926,0|0,0:2|0:2,0:2:0:0:
512,201,30839,6,0,P|516:267|500:349,1,125.999996154785,2|0,3:2|0:2,0:2:0:0:
377,344,31481,1,0,3:2:0:0:
325,207,31696,1,10,0:2:0:0:
399,149,31910,1,2,0:2:0:0:
253,146,32124,2,0,P|223:154|192:155,1,62.9999980773926,2|0,0:2|0:2,0:2:0:0:
331,66,32553,6,0,P|389:44|450:56,1,125.999996154785,2|0,3:2|0:2,0:2:0:0:
306,212,33196,1,0,3:2:0:0:
150,97,33410,1,8,0:2:0:0:
165,237,33624,1,0,3:2:0:0:
229,162,33839,1,2,0:2:0:0:
52,216,34053,1,8,0:2:0:0:
165,330,34267,6,0,P|227:329|277:291,1,125.999996154785,2|0,3:2|0:2,0:2:0:0:
318,190,34910,1,0,3:0:0:0:
120,149,35124,1,10,0:2:0:0:
214,206,35339,1,2,0:2:0:0:
242,78,35553,2,0,P|244:48|231:2,1,62.9999980773926,2|0,0:2|0:2,0:2:0:0:
318,190,35981,6,0,P|386:203|449:199,1,125.999996154785,2|0,3:2|0:2,0:2:0:0:
504,83,36624,1,0,3:2:0:0:
490,295,36839,2,0,P|472:347|454:362,1,62.9999980773926,8|0,0:2|0:2,0:2:0:0:
376,257,37267,2,0,P|358:231|353:200,1,62.9999980773926,0|0,0:2|0:2,0:2:0:0:
168,322,37696,6,0,P|201:323|278:253,1,125.999996154785,2|0,3:2|0:2,0:2:0:0:
190,139,38339,1,0,3:0:0:0:
0,216,38553,1,10,0:2:0:0:
105,195,38767,1,2,0:2:0:0:
62,287,38981,2,0,P|57:336|50:366,1,62.9999980773926,2|0,0:2|0:2,0:2:0:0:
3,82,39410,6,0,P|96:113|130:110,1,125.999996154785,2|0,3:2|0:2,0:2:0:0:
196,47,40053,1,0,3:2:0:0:
186,236,40267,1,8,0:2:0:0:
301,177,40481,1,0,3:2:0:0:
249,111,40696,1,2,0:2:0:0:
226,315,40910,1,8,0:2:0:0:
353,246,41124,6,0,P|401:239|484:283,1,125.999996154785,2|0,3:2|0:2,0:2:0:0:
399,332,41767,1,0,3:2:0:0:
274,134,41981,1,10,0:2:0:0:
336,216,42196,1,2,0:2:0:0:
389,113,42410,2,0,P|428:121|455:135,1,62.9999980773926,2|0,0:2|0:2,0:2:0:0:
278,36,42839,6,0,P|212:45|142:38,1,125.999996154785,2|0,3:2|0:2,0:2:0:0:
99,192,43481,1,0,3:2:0:0:
50,340,43696,1,8,0:2:0:0:
58,361,44124,2,0,P|113:371|144:367,1,62.9999980773926,0|0,0:2|0:2,0:2:0:0:
231,269,44553,6,0,P|240:205|234:127,1,125.999996154785,2|0,3:2|0:2,0:2:0:0:
322,47,45196,1,0,3:2:0:0:
422,231,45410,1,10,0:2:0:0:
352,162,45624,1,2,0:2:0:0:
410,38,45839,2,0,P|435:72|445:117,1,62.9999980773926,2|0,0:2|0:2,0:2:0:0:
373,372,46267,6,0,P|337:321|327:259,1,125.999996154785,2|0,3:2|0:2,0:2:0:0:
422,231,46910,1,0,3:2:0:0:
222,275,47124,1,8,0:2:0:0:
261,161,47339,1,0,3:2:0:0:
326,259,47553,1,2,0:2:0:0:
106,200,47767,1,8,0:2:0:0:
186,37,47981,6,0,P|197:87|168:165,1,125.999996154785,2|0,3:2|0:2,0:2:0:0:
133,286,48624,1,0,3:2:0:0:
294,179,48839,1,10,0:2:0:0:
356,254,49053,1,2,0:2:0:0:
398,132,49267,2,0,P|403:96|406:48,1,62.9999980773926,2|0,0:2|0:2,0:2:0:0:
290,198,49696,6,0,P|292:274|314:342,1,125.999996154785,2|0,3:2|0:2,0:2:0:0:
379,354,50339,1,0,3:2:0:0:
211,314,50553,2,0,P|177:310|120:308,1,62.9999980773926,8|0,0:2|0:2,0:2:0:0:
6,244,50981,2,0,P|40:240|97:238,1,62.9999980773926,0|0,0:2|0:2,0:2:0:0:
218,145,51410,6,0,P|214:106|153:27,1,125.999996154785,2|0,3:2|0:2,0:2:0:0:
92,161,52053,1,0,3:2:0:0:
274,213,52267,1,10,0:2:0:0:
190,154,52481,1,2,0:2:0:0:
149,315,52696,2,0,P|200:320|231:309,1,62.9999980773926,2|0,0:2|0:2,0:2:0:0:
341,280,53124,6,0,P|416:265|469:280,1,125.999996154785,2|0,3:2|0:2,0:2:0:0:
409,348,53767,1,0,3:2:0:0:
387,183,53981,1,8,0:2:0:0:
260,274,54196,1,0,3:2:0:0:
260,274,54303,1,0,3:2:0:0:
260,274,54410,1,10,0:2:0:0:
380,93,54624,1,8,0:2:0:0:
217,187,54839,6,0,P|138:197|48:185,1,154.000004699707,6|0,3:2|0:2,0:2:0:0:
70,73,55481,1,0,3:2:0:0:
269,105,55696,2,0,P|310:167|298:242,1,154.000004699707,10|0,0:2|0:2,0:2:0:0:
217,187,56339,1,0,0:2:0:0:
400,76,56553,6,0,P|438:76|476:82,1,77.0000023498536,2|0,3:2|0:2,0:2:0:0:
395,169,56981,1,0,3:2:0:0:
323,20,57196,1,0,3:2:0:0:
184,48,57410,2,0,P|125:49|92:57,1,77.0000023498536,10|0,0:2|0:2,0:2:0:0:
24,145,57839,2,0,P|62:150|100:149,1,77.0000023498536,0|0,0:2|0:2,0:2:0:0:
251,303,58267,6,0,P|257:253|158:180,1,154.000004699707,2|0,3:2|0:2,0:2:0:0:
166,273,58910,1,0,3:2:0:0:
305,357,59124,2,0,P|341:361|386:357,1,77.0000023498536,10|0,0:2|0:2,0:2:0:0:
295,201,59553,1,0,0:2:0:0:
395,265,59767,1,0,0:2:0:0:
398,130,59981,6,0,P|407:94|399:48,1,77.0000023498536,2|0,3:2|0:2,0:2:0:0:
218,112,60410,1,0,3:2:0:0:
292,184,60624,1,0,3:2:0:0:
135,40,60839,1,10,0:2:0:0:
156,207,61053,1,0,0:2:0:0:
231,92,61267,1,0,3:2:0:0:
137,323,61696,5,2,3:2:0:0:
216,277,61910,1,2,0:2:0:0:
309,285,62124,2,0,P|360:299|387:314,1,77.0000023498536,2|0,0:2|3:2,0:2:0:0:
494,208,62553,2,0,P|486:137|507:27,1,154.000004699707,10|0,0:2|0:2,0:2:0:0:
15,59,63410,5,2,3:2:0:0:
94,105,63624,1,2,0:2:0:0:
251,38,63839,1,2,3:2:0:0:
184,101,64053,1,0,3:2:0:0:
335,75,64267,2,0,P|377:95|434:193,1,154.000004699707,10|0,0:2|0:2,0:2:0:0:
50,272,65124,5,2,3:2:0:0:
129,226,65338,1,2,0:2:0:0:
221,234,65552,2,0,P|272:248|299:263,1,77.0000023498536,2|0,0:2|3:2,0:2:0:0:
354,326,65981,2,0,P|337:284|387:164,1,154.000004699707,10|0,0:2|0:2,0:2:0:0:
395,96,66624,1,0,0:2:0:0:
187,196,66839,6,0,P|152:177|120:134,1,77.0000023498536,2|0,3:2|0:2,0:2:0:0:
193,76,67267,1,0,0:2:0:0:
89,58,67481,1,0,3:2:0:0:
295,94,67696,1,10,0:2:0:0:
279,247,67910,1,0,3:2:0:0:
279,247,68017,1,0,3:2:0:0:
279,247,68124,1,8,0:2:0:0:
201,37,68339,1,8,0:2:0:0:
408,154,68553,6,0,P|429:200|429:252,1,77.0000023498536,6|0,3:2|0:2,0:2:0:0:
325,364,68981,2,0,P|331:326|348:292,1,77.0000023498536,0|0,0:2|3:2,0:2:0:0:
221,318,69410,2,0,P|161:326|65:271,1,154.000004699707,10|0,0:2|0:2,0:2:0:0:
38,191,70053,1,0,0:2:0:0:
184,70,70267,6,0,P|193:111|178:170,1,77.0000023498536,2|0,3:2|0:2,0:2:0:0:
156,241,70696,1,0,3:2:0:0:
96,119,70910,1,0,3:2:0:0:
260,203,71124,2,0,P|302:210|358:209,1,77.0000023498536,10|0,0:2|0:2,0:2:0:0:
475,130,71553,2,0,P|436:136|377:136,1,77.0000023498536,0|0,0:2|0:2,0:2:0:0:
188,42,71981,6,0,P|237:41|313:110,1,154.000004699707,2|0,3:2|0:2,0:2:0:0:
251,227,72624,1,0,3:2:0:0:
59,177,72839,2,0,P|54:138|56:78,1,77.0000023498536,10|0,0:2|0:2,0:2:0:0:
147,231,73267,2,0,P|146:269|142:307,1,77.0000023498536,0|0,0:2|0:2,0:2:0:0:
0,350,73696,5,2,3:2:0:0:
54,267,73910,1,0,0:2:0:0:
31,176,74124,1,0,3:2:0:0:
141,307,74339,1,0,3:2:0:0:
304,222,74553,2,0,P|341:255|354:293,1,77.0000023498536,10|0,0:2|0:2,0:2:0:0:
236,356,74981,1,0,3:0:0:0:
462,277,75410,5,2,3:2:0:0:
447,185,75624,1,2,0:2:0:0:
395,107,75839,2,0,P|347:67|318:59,1,77.0000023498536,2|0,0:2|3:2,0:2:0:0:
153,155,76267,2,0,P|242:165|310:146,1,154.000004699707,10|0,0:2|0:2,0:2:0:0:
217,17,77124,5,2,3:2:0:0:
125,32,77338,1,2,0:2:0:0:
0,168,77553,1,2,3:2:0:0:
43,86,77767,1,0,3:2:0:0:
116,208,77981,2,0,P|126:264|90:361,1,154.000004699707,10|0,0:2|0:2,0:2:0:0:
257,358,78839,5,2,3:2:0:0:
349,343,79053,1,2,0:2:0:0:
427,291,79267,2,0,P|467:243|475:214,1,77.0000023498536,2|0,0:2|3:2,0:2:0:0:
330,90,79696,2,0,L|341:258,1,154.000004699707,10|0,0:2|0:2,0:2:0:0:
426,155,80339,1,0,0:2:0:0:
256,152,80553,6,0,P|198:152|105:186,1,154.000004699707,2|0,3:2|0:2,0:2:0:0:
94,272,81196,1,0,3:2:0:0:
106,89,81410,1,10,0:2:0:0:
187,308,81624,1,0,3:2:0:0:
187,308,81731,1,0,3:2:0:0:
187,308,81839,1,8,0:2:0:0:
1,152,82053,1,8,0:2:0:0:
283,239,82267,5,6,3:2:0:0:
313,133,82481,1,0,0:2:0:0:
384,224,82696,1,2,0:2:0:0:
222,157,82910,1,0,3:2:0:0:
410,151,83124,2,0,P|416:220|412:290,1,140,10|0,0:2|0:2,0:2:0:0:
313,133,83767,1,0,0:2:0:0:
449,61,83981,5,2,3:2:0:0:
298,39,84196,1,0,0:2:0:0:
410,151,84410,1,2,3:2:0:0:
385,0,84624,1,0,3:2:0:0:
204,134,84839,2,0,P|159:135|76:76,1,140,10|0,0:2|0:2,0:2:0:0:
151,320,85696,5,2,3:2:0:0:
50,244,85910,1,0,0:2:0:0:
224,270,86124,1,2,0:2:0:0:
53,337,86339,1,0,3:2:0:0:
177,196,86553,2,0,P|232:185|306:238,1,140,10|0,0:2|0:2,0:2:0:0:
224,270,87196,1,0,0:2:0:0:
352,162,87410,6,0,P|409:161|432:166,1,70,2|0,3:2|0:2,0:2:0:0:
494,283,87839,2,0,P|456:288|417:285,1,70,2|0,0:2|3:2,0:2:0:0:
512,175,88267,1,10,0:2:0:0:
340,318,88481,1,0,3:2:0:0:
340,318,88589,1,0,3:2:0:0:
340,318,88696,1,10,0:2:0:0:
334,143,88910,1,8,0:2:0:0:
110,269,89124,5,2,3:2:0:0:
152,201,89339,1,0,0:2:0:0:
142,349,89553,1,2,0:2:0:0:
60,202,89767,1,0,3:2:0:0:
215,310,89981,2,0,P|275:315|361:270,1,140,10|0,0:2|0:2,0:2:0:0:
370,192,90624,1,0,0:2:0:0:
212,72,90839,5,2,3:2:0:0:
267,150,91053,1,0,0:2:0:0:
311,25,91267,1,2,3:2:0:0:
129,100,91481,1,0,3:2:0:0:
353,175,91696,2,0,P|421:171|495:134,1,140,10|0,0:2|0:2,0:2:0:0:
115,55,92553,5,2,3:2:0:0:
131,152,92767,1,0,0:2:0:0:
18,33,92981,1,2,0:2:0:0:
214,66,93196,1,0,3:2:0:0:
62,212,93410,2,0,P|48:261|98:344,1,140,10|0,0:2|0:2,0:2:0:0:
287,264,94267,6,0,P|220:255|117:263,1,140,2|2,3:2|0:2,0:2:0:0:
206,347,94910,1,0,3:2:0:0:
190,158,95124,1,10,0:2:0:0:
330,326,95339,1,2,3:2:0:0:
330,326,95446,1,0,3:2:0:0:
330,326,95553,1,10,0:2:0:0:
420,156,95767,1,8,0:2:0:0:
183,22,95981,6,0,P|138:49|114:123,1,125.999996154785,6|0,3:2|0:2,0:2:0:0:
197,197,96624,1,0,3:2:0:0:
335,115,96839,1,10,0:2:0:0:
300,204,97053,1,2,0:2:0:0:
356,344,97267,2,0,P|366:303|370:257,1,62.9999980773926,2|0,0:2|0:2,0:2:0:0:
128,309,97696,6,0,P|186:312|276:299,1,125.999996154785,2|0,3:2|0:2,0:2:0:0:
181,163,98339,1,0,3:2:0:0:
47,245,98553,2,0,P|25:304|25:332,1,62.9999980773926,8|0,0:2|0:2,0:2:0:0:
86,161,98981,2,0,P|78:130|64:102,1,62.9999980773926,0|0,0:2|0:2,0:2:0:0:
249,222,99410,6,0,P|331:222|386:194,1,125.999996154785,2|0,3:2|0:2,0:2:0:0:
297,67,100053,1,0,3:2:0:0:
156,165,100267,1,10,0:2:0:0:
223,237,100481,1,2,0:2:0:0:
111,286,100696,2,0,P|80:291|48:292,1,62.9999980773926,2|0,0:2|0:2,0:2:0:0:
61,55,101124,5,2,3:2:0:0:
93,204,101339,1,0,0:2:0:0:
28,146,101553,1,0,0:2:0:0:
170,160,101767,1,0,3:2:0:0:
242,21,101981,1,8,0:2:0:0:
265,178,102196,1,0,3:2:0:0:
162,70,102410,1,2,0:2:0:0:
307,93,102624,1,8,0:2:0:0:
297,248,102839,6,0,P|288:193|309:109,1,125.999996154785,2|0,3:2|0:2,0:2:0:0:
508,170,103481,1,0,3:2:0:0:
417,322,103696,1,10,0:2:0:0:
318,291,103910,1,2,0:2:0:0:
448,247,104124,2,0,P|505:259|517:266,1,62.9999980773926,2|0,0:2|0:2,0:2:0:0:
305,334,104553,6,0,P|234:345|162:339,1,125.999996154785,2|0,3:2|0:2,0:2:0:0:
61,334,105196,1,0,3:2:0:0:
131,195,105410,2,0,P|132:230|122:268,1,62.9999980773926,8|0,0:2|0:2,0:2:0:0:
37,162,105839,2,0,P|30:131|32:99,1,62.9999980773926,0|0,0:2|0:2,0:2:0:0:
266,98,106267,6,0,P|212:109|129:105,1,125.999996154785,2|0,3:2|0:2,0:2:0:0:
237,22,106910,1,0,3:2:0:0:
261,211,107124,1,10,0:2:0:0:
360,188,107339,1,2,0:2:0:0:
413,272,107553,2,0,P|363:289|332:289,1,62.9999980773926,2|0,0:2|0:2,0:2:0:0:
356,53,107981,6,0,P|372:114|365:186,1,125.999996154785,2|0,3:2|0:2,0:2:0:0:
255,187,108624,1,0,3:2:0:0:
469,157,108839,1,8,0:2:0:0:
368,223,109053,1,0,3:2:0:0:
488,147,109267,1,2,0:2:0:0:
351,138,109481,1,8,0:2:0:0:
384,309,109696,6,0,P|331:341|269:348,1,125.999996154785,2|0,3:2|0:2,0:2:0:0:
282,238,110339,1,0,3:2:0:0:
66,227,110553,1,10,0:2:0:0:
122,149,110767,1,2,0:2:0:0:
125,303,110981,2,0,P|107:356|106:383,1,62.9999980773926,2|0,0:2|0:2,0:2:0:0:
287,281,111410,6,0,P|353:266|423:268,1,125.999996154785,2|0,3:2|0:2,0:2:0:0:
250,158,112053,1,0,3:2:0:0:
109,54,112267,1,8,0:2:0:0:
90,37,112696,2,0,P|48:33|15:37,1,62.9999980773926,0|0,0:2|0:2,0:2:0:0:
219,127,113124,6,0,P|281:126|343:112,1,125.999996154785,2|0,3:2|0:2,0:2:0:0:
275,43,113767,1,0,3:2:0:0:
405,210,113981,1,10,0:2:0:0:
470,142,114196,1,2,0:2:0:0:
318,193,114410,2,0,P|318:231|327:275,1,62.9999980773926,2|0,0:2|0:2,0:2:0:0:
504,349,114839,6,0,P|469:341|351:342,1,125.999996154785,2|0,3:2|0:2,0:2:0:0:
159,334,115481,1,0,3:2:0:0:
322,270,115696,1,8,0:2:0:0:
265,342,115910,1,0,3:2:0:0:
210,162,116124,1,2,0:2:0:0:
351,346,116339,1,8,0:2:0:0:
137,227,116553,6,0,P|121:192|133:103,1,125.999996154785,2|0,3:2|0:2,0:2:0:0:
210,162,117196,1,0,3:2:0:0:
1,288,117410,1,10,0:2:0:0:
29,193,117624,1,2,0:2:0:0:
109,309,117839,2,0,P|152:311|195:296,1,62.9999980773926,2|0,0:2|0:2,0:2:0:0:
309,167,118267,6,0,P|280:210|284:298,1,125.999996154785,2|0,3:2|0:2,0:2:0:0:
339,340,118910,1,0,3:2:0:0:
441,247,119124,2,0,L|370:246,1,62.9999980773926,8|0,0:2|0:2,0:2:0:0:
310,150,119553,2,0,L|372:150,1,62.9999980773926,0|0,0:2|0:2,0:2:0:0:
185,172,119981,6,0,P|162:142|154:37,1,125.999996154785,2|0,3:2|0:2,0:2:0:0:
280,133,120624,1,0,3:2:0:0:
76,130,120839,1,10,0:2:0:0:
148,56,121053,1,2,0:2:0:0:
155,191,121267,2,0,P|160:235|143:274,1,62.9999980773926,2|0,0:2|0:2,0:2:0:0:
30,356,121696,6,0,P|95:339|172:351,1,125.999996154785,2|0,3:2|0:2,0:2:0:0:
260,355,122339,1,0,3:2:0:0:
153,175,122553,1,8,0:2:0:0:
332,261,122767,1,0,3:2:0:0:
332,261,122874,1,0,3:2:0:0:
332,261,122981,1,10,0:2:0:0:
88,250,123196,1,8,0:2:0:0:
224,22,123410,6,0,P|258:60|256:167,1,154.000004699707,6|0,3:2|0:2,0:2:0:0:
232,268,124053,1,0,3:2:0:0:
342,194,124267,2,0,P|404:172|510:201,1,154.000004699707,10|0,0:2|0:2,0:2:0:0:
448,287,124910,1,0,0:2:0:0:
301,382,125124,6,0,P|297:333|309:295,1,77.0000023498536,2|0,3:2|0:2,0:2:0:0:
342,194,125553,1,0,3:2:0:0:
421,285,125767,1,0,3:2:0:0:
229,255,125981,2,0,P|168:247|151:247,1,77.0000023498536,10|0,0:2|0:2,0:2:0:0:
39,336,126410,2,0,P|100:328|117:328,1,77.0000023498536,0|0,0:2|0:2,0:2:0:0:
215,173,126839,6,0,P|224:132|166:31,1,154.000004699707,2|0,3:2|0:2,0:2:0:0:
86,95,127481,1,0,3:2:0:0:
312,104,127696,2,0,P|356:103|406:94,1,77.0000023498536,10|0,0:2|0:2,0:2:0:0:
474,46,128124,1,0,0:2:0:0:
397,181,128339,1,0,0:2:0:0:
492,297,128553,6,0,P|502:225|498:204,1,77.0000023498536,2|0,3:2|0:2,0:2:0:0:
413,181,128981,1,0,3:2:0:0:
333,243,129196,1,0,3:2:0:0:
511,125,129410,1,10,0:2:0:0:
368,109,129624,1,0,0:2:0:0:
430,272,129839,1,0,3:2:0:0:
225,43,130267,5,2,3:2:0:0:
199,131,130481,1,2,0:2:0:0:
224,220,130696,2,0,P|242:260|268:295,1,77.0000023498536,2|0,0:2|3:2,0:2:0:0:
165,379,131124,2,0,P|120:355|1:356,1,154.000004699707,10|0,0:2|0:2,0:2:0:0:
106,10,131981,5,2,3:2:0:0:
132,98,132195,1,2,0:2:0:0:
65,265,132410,1,2,3:2:0:0:
117,188,132624,1,0,3:2:0:0:
261,260,132839,2,0,P|305:267|421:246,1,154.000004699707,10|0,0:2|0:2,0:2:0:0:
293,57,133696,5,2,3:2:0:0:
205,31,133910,1,2,0:2:0:0:
116,56,134125,2,0,P|76:74|41:100,1,77.0000023498536,2|0,0:2|3:2,0:2:0:0:
150,284,134553,2,0,P|173:223|118:146,1,154.000004699707,10|0,0:2|0:2,0:2:0:0:
80,225,135196,1,0,0:2:0:0:
242,167,135410,6,0,P|295:161|346:142,1,77.0000023498536,2|0,3:2|0:2,0:2:0:0:
356,67,135839,1,0,0:2:0:0:
361,246,136053,1,0,3:2:0:0:
198,42,136267,1,10,0:2:0:0:
180,251,136481,1,0,3:2:0:0:
180,251,136589,1,0,3:2:0:0:
180,251,136696,1,8,0:2:0:0:
404,155,136910,1,8,0:2:0:0:
211,340,137124,6,0,P|163:345|81:275,1,154.000004699707,6|0,3:2|0:2,0:2:0:0:
71,177,137767,1,0,3:2:0:0:
271,264,137981,2,0,P|351:290|426:261,1,154.000004699707,10|0,0:2|0:2,0:2:0:0:
495,347,138624,1,0,0:2:0:0:
384,184,138839,6,0,P|374:130|383:88,1,77.0000023498536,2|0,3:2|0:2,0:2:0:0:
413,5,139267,1,0,3:2:0:0:
276,123,139481,1,0,3:2:0:0:
111,69,139696,2,0,P|183:59|205:59,1,77.0000023498536,10|0,0:2|0:2,0:2:0:0:
339,14,140124,2,0,P|267:4|245:4,1,77.0000023498536,0|0,0:2|0:2,0:2:0:0:
161,242,140553,6,0,P|206:243|293:150,1,154.000004699707,2|0,3:2|0:2,0:2:0:0:
190,148,141196,1,0,3:2:0:0:
57,276,141410,2,0,P|61:315|82:354,1,77.0000023498536,10|0,0:2|0:2,0:2:0:0:
175,347,141839,1,0,0:2:0:0:
111,201,142053,1,0,0:2:0:0:
292,279,142267,5,2,3:2:0:0:
208,236,142481,1,0,0:2:0:0:
326,60,142696,1,0,3:2:0:0:
315,195,142910,1,0,3:2:0:0:
120,68,143124,1,10,0:2:0:0:
232,12,143339,1,0,0:2:0:0:
208,236,143553,1,0,3:2:0:0:
471,52,143981,5,2,3:2:0:0:
459,143,144196,1,2,0:2:0:0:
449,234,144410,2,0,P|440:273|416:323,1,77.0000023498536,2|0,0:2|3:2,0:2:0:0:
198,295,144839,2,0,P|274:273|364:284,1,154.000004699707,10|0,0:2|0:2,0:2:0:0:
84,92,145696,5,2,3:2:0:0:
96,183,145911,1,2,0:2:0:0:
205,313,146124,1,2,3:2:0:0:
127,266,146339,1,0,3:2:0:0:
252,248,146553,2,0,P|311:246|412:274,1,154.000004699707,10|0,0:2|0:2,0:2:0:0:
324,77,147410,5,2,3:2:0:0:
233,65,147624,1,2,0:2:0:0:
142,55,147839,2,0,P|95:57|51:68,1,77.0000023498536,2|0,0:2|3:2,0:2:0:0:
165,217,148267,2,0,P|219:178|228:85,1,154.000004699707,10|0,0:2|0:2,0:2:0:0:
83,170,148910,1,0,0:2:0:0:
199,304,149124,6,0,P|277:311|366:289,1,154.000004699707,2|0,3:2|0:2,0:2:0:0:
430,205,149767,1,0,3:2:0:0:
307,384,149981,1,10,0:2:0:0:
279,162,150196,1,0,3:2:0:0:
279,162,150303,1,0,3:2:0:0:
279,162,150410,1,8,0:2:0:0:
469,277,150624,1,8,0:2:0:0:
319,53,150839,5,6,3:2:0:0:
383,113,151053,1,0,0:2:0:0:
236,79,151267,1,2,0:2:0:0:
395,25,151481,1,0,3:2:0:0:
86,172,151696,5,10,1:3:0:0:
81,193,152124,1,0,0:2:0:0:
52,101,152339,1,0,0:2:0:0:
180,278,152553,5,2,3:2:0:0:
175,175,152767,1,0,0:2:0:0:
91,316,152981,1,2,3:2:0:0:
166,366,153196,1,0,3:2:0:0:
196,60,153410,5,10,1:3:0:0:
201,30,153839,1,0,0:2:0:0:
257,137,154267,5,2,3:2:0:0:
164,147,154481,1,0,0:2:0:0:
307,59,154696,1,2,0:2:0:0:
329,182,154910,1,0,3:2:0:0:
29,54,155124,5,10,1:3:0:0:
57,64,155553,1,0,0:2:0:0:
37,152,155767,1,0,0:2:0:0:
145,39,155981,6,0,P|195:33|230:34,1,70,2|0,3:2|0:2,0:2:0:0:
305,130,156410,2,0,P|270:129|235:124,1,70,2|0,0:2|3:2,0:2:0:0:
471,332,156839,5,10,1:3:0:0:
416,187,157053,1,0,3:2:0:0:
416,187,157160,1,0,3:2:0:0:
416,187,157267,1,10,0:2:0:0:
209,288,157481,1,8,0:2:0:0:
475,270,157696,5,2,3:2:0:0:
416,187,157910,1,0,0:2:0:0:
375,278,158124,1,2,0:2:0:0:
509,168,158339,1,0,3:2:0:0:
175,239,158553,5,10,1:3:0:0:
152,250,158981,1,0,0:2:0:0:
232,310,159196,1,0,0:2:0:0:
141,164,159410,5,2,3:2:0:0:
64,252,159624,1,0,0:2:0:0:
222,202,159839,1,2,3:2:0:0:
60,115,160053,1,0,3:2:0:0:
433,170,160267,5,10,1:3:0:0:
459,168,160696,1,0,0:2:0:0:
381,105,161124,5,2,3:2:0:0:
359,202,161339,1,0,0:2:0:0:
305,44,161553,1,2,0:2:0:0:
473,93,161767,1,0,3:2:0:0:
99,145,161981,5,10,1:3:0:0:
113,115,162410,1,0,0:2:0:0:
115,223,162839,6,0,P|116:261|101:306,1,70,2|0,3:2|0:2,0:2:0:0:
29,368,163267,1,2,0:2:0:0:
10,233,163481,1,0,3:2:0:0:
319,323,163696,5,10,1:3:0:0:
203,162,163910,1,0,3:2:0:0:
203,162,164017,1,0,3:2:0:0:
203,162,164124,1,10,0:2:0:0:
161,377,164339,1,8,0:2:0:0:
403,216,164553,6,0,P|421:162|402:96,2,112,6|0|0,3:2|0:2|0:2,0:2:0:0:
292,278,165839,2,0,P|247:272|201:246,1,84,0|0,0:2|0:2,0:2:0:0:
181,241,166267,6,0,B|121:257|129:211|49:242,2,112,2|0|0,0:2|0:2|0:2,0:2:0:0:
283,153,167553,2,0,P|303:102|292:54,1,84,0|0,0:2|0:2,0:2:0:0:
271,56,167981,6,0,P|222:72|145:57,2,112,2|0|0,0:2|0:2|0:2,0:2:0:0:
405,58,169267,2,0,P|436:94|452:140,1,84,0|0,0:2|0:2,0:2:0:0:
436,158,169696,6,0,B|404:220|450:216|429:282,2,112,2|0|0,0:2|0:2|0:2,0:2:0:0:
436,158,170981,1,0,0:2:0:0:
305,314,171196,1,4,3:3:0:0:
181,82,171410,6,0,P|226:68|292:71,2,112,2|0|0,3:3|0:2|0:2,0:2:0:0:
83,174,172696,2,0,P|75:241|84:279,1,84,0|0,0:2|0:2,0:2:0:0:
97,283,173124,6,0,B|44:269|48:306|-26:286,2,112,2|0|0,0:2|0:2|0:2,0:2:0:0:
215,347,174410,2,0,P|268:344|318:330,1,84,0|0,0:2|0:2,0:2:0:0:
323,314,174839,6,0,P|334:248|314:196,2,112,2|0|0,0:2|0:2|0:2,0:2:0:0:
228,219,176124,2,0,P|235:161|264:125,1,84,0|0,0:2|0:2,0:2:0:0:
269,113,176553,6,0,P|272:47|240:3,2,112,2|0|0,0:2|0:2|0:2,0:2:0:0:
134,104,177839,2,0,P|70:101|46:85,1,84,0|0,0:2|0:2,0:2:0:0:
26,72,178267,5,6,3:3:0:0:
