osu file format v14

[General]
AudioFilename: audio.mp3
AudioLeadIn: 0
PreviewTime: 56077
Countdown: 0
SampleSet: Normal
StackLeniency: 0.7
Mode: 1
LetterboxInBreaks: 0
WidescreenStoryboard: 1

[Editor]
DistanceSpacing: 0.9
BeatDivisor: 4
GridSize: 32
TimelineZoom: 2.2

[Metadata]
Title:Wilt
TitleUnicode:Wilt
Artist:VerseQuence
ArtistUnicode:VerseQuence
Creator:Bedwyr Aorta
Version:Gemu's Hard (BTT4 ver.)
Source:VOEZ
Tags:
BeatmapID:1986887
BeatmapSetID:951374

[Difficulty]
HPDrainRate:6
CircleSize:5
OverallDifficulty:5.25
ApproachRate:5
SliderMultiplier:1.4
SliderTickRate:1

[Events]
//Background and Video events
0,0,"BG nuevo.png",0,0
//Break Periods
//Storyboard Layer 0 (Background)
//Storyboard Layer 1 (Fail)
//Storyboard Layer 2 (Pass)
//Storyboard Layer 3 (Foreground)
//Storyboard Sound Samples

[TimingPoints]
363,428.571428571429,4,1,0,80,1,0
55220,-100,4,1,0,80,0,1
82648,-100,4,1,0,80,0,0
123791,-100,4,1,0,80,0,1
151220,-100,4,1,0,80,0,0
164934,-100,4,1,0,30,0,0

[HitObjects]
256,192,363,5,0,0:0:0:0:
256,192,791,1,8,0:0:0:0:
256,192,1220,1,8,0:0:0:0:
256,192,1648,1,8,0:0:0:0:
256,192,2077,1,0,0:0:0:0:
256,192,2505,1,8,0:0:0:0:
256,192,2934,1,0,0:0:0:0:
256,192,3363,1,8,0:0:0:0:
256,192,3791,1,0,0:0:0:0:
256,192,4220,1,8,0:0:0:0:
256,192,4648,1,8,0:0:0:0:
256,192,5077,1,8,0:0:0:0:
256,192,5505,1,0,0:0:0:0:
256,192,5934,1,8,0:0:0:0:
256,192,6363,1,0,0:0:0:0:
256,192,6791,1,8,0:0:0:0:
256,192,7220,1,0,0:0:0:0:
256,192,7863,1,0,0:0:0:0:
256,192,8077,1,8,0:0:0:0:
256,192,8505,1,0,0:0:0:0:
256,192,8934,1,0,0:0:0:0:
256,192,9363,1,0,0:0:0:0:
256,192,9577,1,0,0:0:0:0:
256,192,9791,1,8,0:0:0:0:
256,192,10220,1,0,0:0:0:0:
256,192,10648,1,0,0:0:0:0:
256,192,11291,1,0,0:0:0:0:
256,192,11505,1,8,0:0:0:0:
256,192,11934,1,0,0:0:0:0:
256,192,12363,1,0,0:0:0:0:
256,192,12791,1,0,0:0:0:0:
256,192,13005,1,0,0:0:0:0:
256,192,13220,1,8,0:0:0:0:
256,192,13434,1,8,0:0:0:0:
256,192,13541,1,8,0:0:0:0:
256,192,13648,1,8,0:0:0:0:
256,192,13863,1,8,0:0:0:0:
256,192,14077,1,0,0:0:0:0:
256,192,14291,1,8,0:0:0:0:
256,192,14505,1,0,0:0:0:0:
256,192,14720,1,0,0:0:0:0:
256,192,14934,1,8,0:0:0:0:
256,192,15363,1,0,0:0:0:0:
256,192,15577,1,8,0:0:0:0:
256,192,15791,1,0,0:0:0:0:
256,192,16005,1,0,0:0:0:0:
256,192,16220,1,8,0:0:0:0:
256,192,16434,1,0,0:0:0:0:
256,192,16648,1,8,0:0:0:0:
256,192,17505,1,8,0:0:0:0:
256,192,17720,1,8,0:0:0:0:
256,192,17934,1,0,0:0:0:0:
256,192,18148,1,0,0:0:0:0:
256,192,18363,1,8,0:0:0:0:
256,192,18791,1,0,0:0:0:0:
256,192,19005,1,8,0:0:0:0:
256,192,19220,1,8,0:0:0:0:
256,192,19434,1,0,0:0:0:0:
256,192,19648,1,8,0:0:0:0:
256,192,19863,1,0,0:0:0:0:
256,192,20077,1,8,0:0:0:0:
256,192,20291,1,8,0:0:0:0:
256,192,20398,1,8,0:0:0:0:
256,192,20505,1,8,0:0:0:0:
256,192,20720,1,8,0:0:0:0:
256,192,20934,1,0,0:0:0:0:
256,192,21148,1,8,0:0:0:0:
256,192,21363,1,0,0:0:0:0:
256,192,21577,1,0,0:0:0:0:
256,192,21791,1,8,0:0:0:0:
256,192,22220,1,0,0:0:0:0:
256,192,22434,1,8,0:0:0:0:
256,192,22648,1,0,0:0:0:0:
256,192,22863,1,0,0:0:0:0:
256,192,23077,1,8,0:0:0:0:
256,192,23291,1,0,0:0:0:0:
256,192,23505,1,8,0:0:0:0:
256,192,24363,1,8,0:0:0:0:
256,192,24577,1,8,0:0:0:0:
256,192,24791,1,0,0:0:0:0:
256,192,25005,1,0,0:0:0:0:
256,192,25220,1,8,0:0:0:0:
256,192,25648,1,0,0:0:0:0:
256,192,25863,1,8,0:0:0:0:
256,192,26077,1,8,0:0:0:0:
256,192,26291,1,0,0:0:0:0:
256,192,26505,1,8,0:0:0:0:
256,192,26720,1,0,0:0:0:0:
256,192,26934,1,8,0:0:0:0:
256,192,27148,1,8,0:0:0:0:
256,192,27255,1,8,0:0:0:0:
256,192,27363,1,8,0:0:0:0:
256,192,27577,1,0,0:0:0:0:
256,192,27791,1,12,0:0:0:0:
256,192,28434,1,0,0:0:0:0:
256,192,28648,1,8,0:0:0:0:
256,192,29077,1,8,0:0:0:0:
256,192,29505,1,0,0:0:0:0:
256,192,29934,1,8,0:0:0:0:
256,192,30148,1,0,0:0:0:0:
256,192,30363,1,8,0:0:0:0:
256,192,30791,1,8,0:0:0:0:
256,192,31220,1,0,0:0:0:0:
256,192,31648,1,0,0:0:0:0:
256,192,31863,1,8,0:0:0:0:
256,192,32077,1,8,0:0:0:0:
256,192,32505,1,8,0:0:0:0:
256,192,32720,1,8,0:0:0:0:
256,192,32934,1,0,0:0:0:0:
256,192,33363,1,8,0:0:0:0:
256,192,33577,1,0,0:0:0:0:
256,192,33791,1,8,0:0:0:0:
256,192,34005,1,0,0:0:0:0:
256,192,34220,1,8,0:0:0:0:
256,192,34434,1,8,0:0:0:0:
256,192,34648,1,0,0:0:0:0:
256,192,35077,1,0,0:0:0:0:
256,192,35291,1,0,0:0:0:0:
256,192,35505,1,8,0:0:0:0:
256,192,35934,1,8,0:0:0:0:
256,192,36363,1,0,0:0:0:0:
256,192,36791,1,0,0:0:0:0:
256,192,37005,1,8,0:0:0:0:
256,192,37220,1,8,0:0:0:0:
256,192,37648,1,0,0:0:0:0:
256,192,38077,1,0,0:0:0:0:
256,192,38505,1,8,0:0:0:0:
256,192,38720,1,0,0:0:0:0:
256,192,38934,1,8,0:0:0:0:
256,192,39363,1,0,0:0:0:0:
256,192,39791,1,8,0:0:0:0:
256,192,40220,1,0,0:0:0:0:
256,192,40434,1,0,0:0:0:0:
256,192,40648,1,8,0:0:0:0:
256,192,40863,1,0,0:0:0:0:
256,192,41077,1,0,0:0:0:0:
256,192,41291,1,8,0:0:0:0:
256,192,41505,1,0,0:0:0:0:
256,192,42148,1,0,0:0:0:0:
256,192,42363,1,8,0:0:0:0:
256,192,42791,1,8,0:0:0:0:
256,192,43220,1,0,0:0:0:0:
256,192,43648,1,8,0:0:0:0:
256,192,43863,1,0,0:0:0:0:
256,192,44077,1,8,0:0:0:0:
256,192,44505,1,8,0:0:0:0:
256,192,44934,1,0,0:0:0:0:
256,192,45363,1,0,0:0:0:0:
256,192,45577,1,8,0:0:0:0:
256,192,45791,1,8,0:0:0:0:
256,192,46220,1,8,0:0:0:0:
256,192,46434,1,8,0:0:0:0:
256,192,46648,1,0,0:0:0:0:
256,192,47077,1,8,0:0:0:0:
256,192,47291,1,0,0:0:0:0:
256,192,47505,1,8,0:0:0:0:
256,192,47720,1,0,0:0:0:0:
256,192,47934,1,8,0:0:0:0:
256,192,48148,1,8,0:0:0:0:
256,192,48363,1,0,0:0:0:0:
256,192,48791,1,0,0:0:0:0:
256,192,49005,1,0,0:0:0:0:
256,192,49220,1,8,0:0:0:0:
256,192,49648,1,8,0:0:0:0:
256,192,50077,1,0,0:0:0:0:
256,192,50505,1,0,0:0:0:0:
256,192,50720,1,8,0:0:0:0:
256,192,50934,1,8,0:0:0:0:
256,192,51363,1,0,0:0:0:0:
256,192,51791,1,0,0:0:0:0:
256,192,52220,1,8,0:0:0:0:
256,192,52434,1,0,0:0:0:0:
256,192,52648,1,8,0:0:0:0:
256,192,53077,1,0,0:0:0:0:
256,192,53505,1,8,0:0:0:0:
256,192,53934,1,0,0:0:0:0:
256,192,54148,1,0,0:0:0:0:
256,192,54363,1,8,0:0:0:0:
256,192,54577,1,8,0:0:0:0:
256,192,54684,1,8,0:0:0:0:
256,192,54791,1,8,0:0:0:0:
256,192,55005,1,0,0:0:0:0:
256,192,55220,1,12,0:0:0:0:
256,192,56077,1,8,0:0:0:0:
256,192,56505,1,0,0:0:0:0:
256,192,56934,1,8,0:0:0:0:
256,192,57363,1,0,0:0:0:0:
256,192,57577,1,8,0:0:0:0:
256,192,57791,1,8,0:0:0:0:
256,192,58005,1,0,0:0:0:0:
256,192,58220,1,8,0:0:0:0:
256,192,58648,1,0,0:0:0:0:
256,192,59505,1,8,0:0:0:0:
256,192,59934,1,0,0:0:0:0:
256,192,60363,1,8,0:0:0:0:
256,192,60791,1,0,0:0:0:0:
256,192,61005,1,0,0:0:0:0:
256,192,61220,1,8,0:0:0:0:
256,192,61648,1,8,0:0:0:0:
256,192,62077,1,8,0:0:0:0:
256,192,62291,1,8,0:0:0:0:
256,192,62505,1,0,0:0:0:0:
256,192,62720,1,0,0:0:0:0:
256,192,62934,1,8,0:0:0:0:
256,192,63791,1,8,0:0:0:0:
256,192,64005,1,0,0:0:0:0:
256,192,64220,1,0,0:0:0:0:
256,192,64434,1,0,0:0:0:0:
256,192,64648,1,8,0:0:0:0:
256,192,65505,1,8,0:0:0:0:
256,192,65720,1,0,0:0:0:0:
256,192,65934,1,8,0:0:0:0:
256,192,66148,1,0,0:0:0:0:
256,192,66363,1,8,0:0:0:0:
256,192,67220,1,8,0:0:0:0:
256,192,67648,1,0,0:0:0:0:
256,192,67863,1,0,0:0:0:0:
256,192,68077,1,8,0:0:0:0:
256,192,68291,1,8,0:0:0:0:
256,192,68398,1,8,0:0:0:0:
256,192,68505,1,8,0:0:0:0:
256,192,68720,1,0,0:0:0:0:
256,192,68934,1,12,0:0:0:0:
256,192,69791,1,8,0:0:0:0:
256,192,70220,1,0,0:0:0:0:
256,192,70648,1,8,0:0:0:0:
256,192,71077,1,0,0:0:0:0:
256,192,71291,1,8,0:0:0:0:
256,192,71505,1,8,0:0:0:0:
256,192,71720,1,0,0:0:0:0:
256,192,71934,1,8,0:0:0:0:
256,192,72363,1,0,0:0:0:0:
256,192,73220,1,8,0:0:0:0:
256,192,73648,1,0,0:0:0:0:
256,192,74077,1,8,0:0:0:0:
256,192,74505,1,0,0:0:0:0:
256,192,74720,1,0,0:0:0:0:
256,192,74934,1,8,0:0:0:0:
256,192,75363,1,8,0:0:0:0:
256,192,75791,1,8,0:0:0:0:
256,192,76005,1,8,0:0:0:0:
256,192,76220,1,0,0:0:0:0:
256,192,76434,1,0,0:0:0:0:
256,192,76648,1,8,0:0:0:0:
256,192,77505,1,8,0:0:0:0:
256,192,77720,1,0,0:0:0:0:
256,192,77934,1,0,0:0:0:0:
256,192,78148,1,0,0:0:0:0:
256,192,78363,1,8,0:0:0:0:
256,192,79220,1,8,0:0:0:0:
256,192,79434,1,0,0:0:0:0:
256,192,79648,1,8,0:0:0:0:
256,192,79863,1,0,0:0:0:0:
256,192,80077,1,8,0:0:0:0:
256,192,80934,1,8,0:0:0:0:
256,192,81363,1,0,0:0:0:0:
256,192,81577,1,0,0:0:0:0:
256,192,81791,1,8,0:0:0:0:
256,192,82005,1,8,0:0:0:0:
256,192,82113,1,8,0:0:0:0:
256,192,82220,1,8,0:0:0:0:
256,192,82434,1,0,0:0:0:0:
256,192,82648,1,12,0:0:0:0:
256,192,82863,1,8,0:0:0:0:
256,192,83077,1,0,0:0:0:0:
256,192,83291,1,0,0:0:0:0:
256,192,83505,1,8,0:0:0:0:
256,192,83934,1,0,0:0:0:0:
256,192,84148,1,8,0:0:0:0:
256,192,84363,1,0,0:0:0:0:
256,192,84577,1,0,0:0:0:0:
256,192,84791,1,8,0:0:0:0:
256,192,85005,1,0,0:0:0:0:
256,192,85220,1,8,0:0:0:0:
256,192,86077,1,8,0:0:0:0:
256,192,86291,1,8,0:0:0:0:
256,192,86505,1,0,0:0:0:0:
256,192,86720,1,0,0:0:0:0:
256,192,86934,1,8,0:0:0:0:
256,192,87363,1,0,0:0:0:0:
256,192,87577,1,8,0:0:0:0:
256,192,87791,1,8,0:0:0:0:
256,192,88005,1,0,0:0:0:0:
256,192,88220,1,8,0:0:0:0:
256,192,88434,1,0,0:0:0:0:
256,192,88648,1,8,0:0:0:0:
256,192,88863,1,8,0:0:0:0:
256,192,88970,1,8,0:0:0:0:
256,192,89077,1,8,0:0:0:0:
256,192,89291,1,8,0:0:0:0:
256,192,89505,1,0,0:0:0:0:
256,192,89720,1,8,0:0:0:0:
256,192,89934,1,0,0:0:0:0:
256,192,90148,1,0,0:0:0:0:
256,192,90363,1,8,0:0:0:0:
256,192,90791,1,0,0:0:0:0:
256,192,91005,1,8,0:0:0:0:
256,192,91220,1,0,0:0:0:0:
256,192,91434,1,0,0:0:0:0:
256,192,91648,1,8,0:0:0:0:
256,192,91863,1,0,0:0:0:0:
256,192,92077,1,8,0:0:0:0:
256,192,92934,1,8,0:0:0:0:
256,192,93148,1,8,0:0:0:0:
256,192,93363,1,0,0:0:0:0:
256,192,93577,1,0,0:0:0:0:
256,192,93791,1,8,0:0:0:0:
256,192,94220,1,0,0:0:0:0:
256,192,94434,1,8,0:0:0:0:
256,192,94648,1,8,0:0:0:0:
256,192,94863,1,0,0:0:0:0:
256,192,95077,1,8,0:0:0:0:
256,192,95291,1,0,0:0:0:0:
256,192,95505,1,8,0:0:0:0:
256,192,95720,1,8,0:0:0:0:
256,192,95827,1,8,0:0:0:0:
256,192,95934,1,8,0:0:0:0:
256,192,96148,1,0,0:0:0:0:
256,192,96363,1,12,0:0:0:0:
256,192,97005,1,0,0:0:0:0:
256,192,97220,1,8,0:0:0:0:
256,192,97648,1,8,0:0:0:0:
256,192,97863,1,0,0:0:0:0:
256,192,98077,1,0,0:0:0:0:
256,192,98505,1,8,0:0:0:0:
256,192,98720,1,0,0:0:0:0:
256,192,98934,1,8,0:0:0:0:
256,192,99148,1,0,0:0:0:0:
256,192,99363,1,0,0:0:0:0:
256,192,99791,1,0,0:0:0:0:
256,192,100220,1,0,0:0:0:0:
256,192,100434,1,8,0:0:0:0:
256,192,100648,1,8,0:0:0:0:
256,192,101077,1,8,0:0:0:0:
256,192,101291,1,8,0:0:0:0:
256,192,101505,1,0,0:0:0:0:
256,192,101934,1,8,0:0:0:0:
256,192,102148,1,0,0:0:0:0:
256,192,102363,1,8,0:0:0:0:
256,192,102577,1,0,0:0:0:0:
256,192,102791,1,8,0:0:0:0:
256,192,103005,1,8,0:0:0:0:
256,192,103220,1,0,0:0:0:0:
256,192,103648,1,0,0:0:0:0:
256,192,103863,1,0,0:0:0:0:
256,192,104077,1,8,0:0:0:0:
256,192,104291,1,0,0:0:0:0:
256,192,104505,1,8,0:0:0:0:
256,192,104934,1,0,0:0:0:0:
256,192,105363,1,0,0:0:0:0:
256,192,105577,1,8,0:0:0:0:
256,192,105791,1,8,0:0:0:0:
256,192,106220,1,0,0:0:0:0:
256,192,106648,1,0,0:0:0:0:
256,192,107077,1,8,0:0:0:0:
256,192,107291,1,0,0:0:0:0:
256,192,107505,1,8,0:0:0:0:
256,192,107720,1,0,0:0:0:0:
256,192,107934,1,0,0:0:0:0:
256,192,108363,1,8,0:0:0:0:
256,192,108791,1,0,0:0:0:0:
256,192,109005,1,0,0:0:0:0:
256,192,109220,1,8,0:0:0:0:
256,192,109434,1,0,0:0:0:0:
256,192,109648,1,0,0:0:0:0:
256,192,109863,1,8,0:0:0:0:
256,192,110077,1,0,0:0:0:0:
256,192,110720,1,0,0:0:0:0:
256,192,110934,1,8,0:0:0:0:
256,192,111363,1,8,0:0:0:0:
256,192,111577,1,0,0:0:0:0:
256,192,111791,1,0,0:0:0:0:
256,192,112220,1,8,0:0:0:0:
256,192,112434,1,0,0:0:0:0:
256,192,112648,1,8,0:0:0:0:
256,192,112863,1,0,0:0:0:0:
256,192,113077,1,0,0:0:0:0:
256,192,113505,1,0,0:0:0:0:
256,192,113934,1,0,0:0:0:0:
256,192,114148,1,8,0:0:0:0:
256,192,114363,1,8,0:0:0:0:
256,192,114791,1,8,0:0:0:0:
256,192,115005,1,8,0:0:0:0:
256,192,115220,1,0,0:0:0:0:
256,192,115648,1,8,0:0:0:0:
256,192,115863,1,0,0:0:0:0:
256,192,116077,1,8,0:0:0:0:
256,192,116291,1,0,0:0:0:0:
256,192,116505,1,8,0:0:0:0:
256,192,116720,1,8,0:0:0:0:
256,192,116934,1,0,0:0:0:0:
256,192,117363,1,0,0:0:0:0:
256,192,117577,1,0,0:0:0:0:
256,192,117791,1,8,0:0:0:0:
256,192,118005,1,0,0:0:0:0:
256,192,118220,1,8,0:0:0:0:
256,192,118648,1,0,0:0:0:0:
256,192,119077,1,0,0:0:0:0:
256,192,119291,1,8,0:0:0:0:
256,192,119505,1,8,0:0:0:0:
256,192,119934,1,0,0:0:0:0:
256,192,120363,1,0,0:0:0:0:
256,192,120791,1,8,0:0:0:0:
256,192,121005,1,0,0:0:0:0:
256,192,121220,1,8,0:0:0:0:
256,192,121434,1,0,0:0:0:0:
256,192,121648,1,0,0:0:0:0:
256,192,122077,1,8,0:0:0:0:
256,192,122505,1,0,0:0:0:0:
256,192,122720,1,0,0:0:0:0:
256,192,122934,1,8,0:0:0:0:
256,192,123148,1,8,0:0:0:0:
256,192,123255,1,8,0:0:0:0:
256,192,123363,1,8,0:0:0:0:
256,192,123577,1,0,0:0:0:0:
256,192,123791,1,12,0:0:0:0:
256,192,124648,1,8,0:0:0:0:
256,192,124863,1,0,0:0:0:0:
256,192,125077,1,0,0:0:0:0:
256,192,125505,1,8,0:0:0:0:
256,192,125934,1,0,0:0:0:0:
256,192,126148,1,8,0:0:0:0:
256,192,126363,1,8,0:0:0:0:
256,192,126791,1,8,0:0:0:0:
256,192,127220,1,0,0:0:0:0:
256,192,128077,1,8,0:0:0:0:
256,192,128505,1,0,0:0:0:0:
256,192,128720,1,8,0:0:0:0:
256,192,128934,1,8,0:0:0:0:
256,192,129363,1,8,0:0:0:0:
256,192,129577,1,0,0:0:0:0:
256,192,129791,1,8,0:0:0:0:
256,192,130005,1,8,0:0:0:0:
256,192,130220,1,0,0:0:0:0:
256,192,130648,1,8,0:0:0:0:
256,192,130863,1,8,0:0:0:0:
256,192,131077,1,0,0:0:0:0:
256,192,131291,1,0,0:0:0:0:
256,192,131505,1,8,0:0:0:0:
256,192,132363,1,8,0:0:0:0:
256,192,132577,1,0,0:0:0:0:
256,192,132791,1,0,0:0:0:0:
256,192,133005,1,0,0:0:0:0:
256,192,133220,1,8,0:0:0:0:
256,192,134077,1,8,0:0:0:0:
256,192,134291,1,0,0:0:0:0:
256,192,134505,1,8,0:0:0:0:
256,192,134720,1,0,0:0:0:0:
256,192,134934,1,8,0:0:0:0:
256,192,135791,1,8,0:0:0:0:
256,192,136220,1,0,0:0:0:0:
256,192,136434,1,0,0:0:0:0:
256,192,136648,1,8,0:0:0:0:
256,192,136863,1,8,0:0:0:0:
256,192,136970,1,8,0:0:0:0:
256,192,137077,1,8,0:0:0:0:
256,192,137291,1,0,0:0:0:0:
256,192,137505,1,12,0:0:0:0:
256,192,138363,1,8,0:0:0:0:
256,192,138577,1,0,0:0:0:0:
256,192,138791,1,0,0:0:0:0:
256,192,139220,1,0,0:0:0:0:
256,192,139648,1,0,0:0:0:0:
256,192,139863,1,8,0:0:0:0:
256,192,140077,1,8,0:0:0:0:
256,192,140505,1,8,0:0:0:0:
256,192,140934,1,0,0:0:0:0:
256,192,141791,1,8,0:0:0:0:
256,192,142220,1,0,0:0:0:0:
256,192,142434,1,8,0:0:0:0:
256,192,142648,1,0,0:0:0:0:
256,192,143077,1,0,0:0:0:0:
256,192,143291,1,0,0:0:0:0:
256,192,143505,1,8,0:0:0:0:
256,192,143720,1,0,0:0:0:0:
256,192,143934,1,0,0:0:0:0:
256,192,144363,1,8,0:0:0:0:
256,192,144577,1,8,0:0:0:0:
256,192,144791,1,0,0:0:0:0:
256,192,145005,1,0,0:0:0:0:
256,192,145220,1,8,0:0:0:0:
256,192,146077,1,8,0:0:0:0:
256,192,146291,1,0,0:0:0:0:
256,192,146505,1,0,0:0:0:0:
256,192,146720,1,0,0:0:0:0:
256,192,146934,1,8,0:0:0:0:
256,192,147791,1,8,0:0:0:0:
256,192,148005,1,0,0:0:0:0:
256,192,148220,1,8,0:0:0:0:
256,192,148434,1,0,0:0:0:0:
256,192,148648,1,8,0:0:0:0:
256,192,149505,1,8,0:0:0:0:
256,192,149934,1,0,0:0:0:0:
256,192,150148,1,0,0:0:0:0:
256,192,150363,1,8,0:0:0:0:
256,192,150577,1,8,0:0:0:0:
256,192,150684,1,8,0:0:0:0:
256,192,150791,1,8,0:0:0:0:
256,192,151005,1,0,0:0:0:0:
256,192,151220,1,12,0:0:0:0:
256,192,151434,1,8,0:0:0:0:
256,192,151648,1,0,0:0:0:0:
256,192,151863,1,0,0:0:0:0:
256,192,152077,1,8,0:0:0:0:
256,192,152505,1,0,0:0:0:0:
256,192,152720,1,8,0:0:0:0:
256,192,152934,1,0,0:0:0:0:
256,192,153148,1,0,0:0:0:0:
256,192,153363,1,8,0:0:0:0:
256,192,153577,1,0,0:0:0:0:
256,192,153791,1,8,0:0:0:0:
256,192,154648,1,8,0:0:0:0:
256,192,154863,1,8,0:0:0:0:
256,192,155077,1,0,0:0:0:0:
256,192,155291,1,0,0:0:0:0:
256,192,155505,1,8,0:0:0:0:
256,192,155934,1,0,0:0:0:0:
256,192,156148,1,8,0:0:0:0:
256,192,156363,1,8,0:0:0:0:
256,192,156577,1,0,0:0:0:0:
256,192,156791,1,8,0:0:0:0:
256,192,157005,1,0,0:0:0:0:
256,192,157220,1,8,0:0:0:0:
256,192,157434,1,8,0:0:0:0:
256,192,157541,1,8,0:0:0:0:
256,192,157648,1,8,0:0:0:0:
256,192,157863,1,8,0:0:0:0:
256,192,158077,1,0,0:0:0:0:
256,192,158291,1,8,0:0:0:0:
256,192,158505,1,0,0:0:0:0:
256,192,158720,1,0,0:0:0:0:
256,192,158934,1,8,0:0:0:0:
256,192,159363,1,0,0:0:0:0:
256,192,159577,1,8,0:0:0:0:
256,192,159791,1,0,0:0:0:0:
256,192,160005,1,0,0:0:0:0:
256,192,160220,1,8,0:0:0:0:
256,192,160434,1,0,0:0:0:0:
256,192,160648,1,8,0:0:0:0:
256,192,161505,1,8,0:0:0:0:
256,192,161720,1,8,0:0:0:0:
256,192,161934,1,0,0:0:0:0:
256,192,162148,1,0,0:0:0:0:
256,192,162363,1,8,0:0:0:0:
256,192,162791,1,0,0:0:0:0:
256,192,163005,1,8,0:0:0:0:
256,192,163220,1,8,0:0:0:0:
256,192,163434,1,0,0:0:0:0:
256,192,163648,1,8,0:0:0:0:
256,192,163863,1,0,0:0:0:0:
256,192,164077,1,8,0:0:0:0:
256,192,164291,1,8,0:0:0:0:
256,192,164398,1,8,0:0:0:0:
256,192,164505,1,8,0:0:0:0:
256,192,164720,1,8,0:0:0:0:
256,192,164934,1,4,0:0:0:0:
256,192,165363,1,8,0:0:0:0:
256,192,165791,1,8,0:0:0:0:
256,192,166220,1,8,0:0:0:0:
256,192,166648,1,0,0:0:0:0:
256,192,167077,1,8,0:0:0:0:
256,192,167505,1,0,0:0:0:0:
256,192,167934,1,8,0:0:0:0:
256,192,168363,1,0,0:0:0:0:
256,192,168791,1,8,0:0:0:0:
256,192,169220,1,8,0:0:0:0:
256,192,169648,1,8,0:0:0:0:
256,192,170077,1,0,0:0:0:0:
256,192,170505,1,8,0:0:0:0:
256,192,170934,1,0,0:0:0:0:
256,192,171363,1,8,0:0:0:0:
256,192,171791,1,0,0:0:0:0:
256,192,172220,1,8,0:0:0:0:
256,192,172648,1,8,0:0:0:0:
256,192,173077,1,8,0:0:0:0:
256,192,173505,1,0,0:0:0:0:
256,192,173934,1,8,0:0:0:0:
256,192,174363,1,0,0:0:0:0:
256,192,174791,1,8,0:0:0:0:
256,192,175220,1,0,0:0:0:0:
256,192,175648,1,8,0:0:0:0:
256,192,176077,1,8,0:0:0:0:
256,192,176505,1,8,0:0:0:0:
256,192,176934,1,0,0:0:0:0:
256,192,177363,1,8,0:0:0:0:
256,192,177791,1,0,0:0:0:0:
256,192,178220,1,8,0:0:0:0:
256,192,178648,1,4,0:0:0:0:
