osu file format v14

[General]
AudioFilename: audio.mp3
AudioLeadIn: 0
PreviewTime: 150306
Countdown: 0
SampleSet: None
StackLeniency: 0.7
Mode: 0
LetterboxInBreaks: 0
WidescreenStoryboard: 0

[Editor]
Bookmarks: 36086,53701,91407,124159,141774,149480,150581,151407,185811
DistanceSpacing: 0.9
BeatDivisor: 8
GridSize: 32
TimelineZoom: 1

[Metadata]
Title:Vi mot varlden
TitleUnicode:Vi mot världen
Artist:Veronica Maggio
ArtistUnicode:Veronica Maggio
Creator:Chai the Tea
Version:Tillsammans
Source:
Tags:
BeatmapID:2035287
BeatmapSetID:972046

[Difficulty]
HPDrainRate:6.5
CircleSize:5.4
OverallDifficulty:8
ApproachRate:9
SliderMultiplier:2
SliderTickRate:1

[Events]
//Background and Video events
0,0,"osu! Spring Fanart 2018 - Evaine.jpg",0,0
//Break Periods
2,141974,148880
//Storyboard Layer 0 (Background)
//Storyboard Layer 1 (Fail)
//Storyboard Layer 2 (Pass)
//Storyboard Layer 3 (Foreground)
//Storyboard Sound Samples

[TimingPoints]
857,550.45871559633,4,3,1,57,1,0
857,-50,4,3,1,57,0,0
11866,-133.333333333333,4,3,1,57,0,0
14068,-50,4,3,1,57,0,0
16269,-133.333333333333,4,3,1,57,0,0
18471,-50,4,3,1,57,0,0
69113,-133.333333333333,4,3,1,57,0,0
70145,-50,4,3,1,57,0,0
83425,-50,4,3,1,57,0,0
86728,-133.333333333333,4,3,1,57,0,0
87554,-50,4,3,1,57,0,0
124159,-80,4,3,1,57,0,0
151132,-50,4,3,1,57,0,0

[Colours]
Combo1 : 90,70,185
Combo2 : 32,122,170
Combo3 : 18,124,255
Combo4 : 242,24,57

[HitObjects]
51,162,857,6,0,L|277:198,1,200
473,230,1682,2,0,L|251:265,1,200
50,133,2508,2,0,L|199:168,1,100
188,252,2783,5,0,0:0:0:0:
263,253,2921,1,0,0:0:0:0:
325,295,3058,1,0,0:0:0:0:
304,311,3334,2,0,L|245:344,1,50
181,277,3609,1,0,0:0:0:0:
192,263,3884,1,0,0:0:0:0:
98,219,4159,1,0,0:0:0:0:
96,159,4434,1,0,0:0:0:0:
86,218,4710,1,0,0:0:0:0:
96,280,4985,1,0,0:0:0:0:
459,293,5260,6,0,P|316:283|242:281,1,200
0,146,6086,2,0,P|138:174|193:201,1,200
462,300,6912,2,0,P|360:313|349:318,1,100
291,356,7187,5,0,0:0:0:0:
213,338,7324,1,0,0:0:0:0:
139,360,7462,1,0,0:0:0:0:
127,343,7737,2,0,L|121:266,1,50
226,213,8012,1,0,0:0:0:0:
241,240,8288,1,0,0:0:0:0:
155,255,8425,1,0,0:0:0:0:
83,213,8563,1,0,0:0:0:0:
82,152,8838,1,0,0:0:0:0:
73,209,9113,1,0,0:0:0:0:
84,262,9389,1,0,0:0:0:0:
241,15,9664,6,0,P|155:31|66:127,1,200
144,295,10490,2,0,P|197:204|174:86,1,200
240,15,11315,2,0,P|114:17|46:39,1,100
263,191,11590,1,0,0:0:0:0:
264,118,11728,1,0,0:0:0:0:
264,45,11866,2,0,B|305:33|305:33|342:47,1,75.0000028610231
262,124,12416,2,0,B|221:112|221:112|184:126,1,75.0000028610231
262,198,12967,1,0,0:0:0:0:
262,124,13242,1,0,0:0:0:0:
262,50,13517,1,0,0:0:0:0:
251,116,13792,1,0,0:0:0:0:
486,235,14068,6,0,P|357:191|264:194,1,200
281,198,14618,1,0,0:0:0:0:
163,312,14893,2,0,P|228:215|341:184,1,200
282,200,15444,1,0,0:0:0:0:
472,254,15719,2,0,B|489:254|487:220|487:220|408:174|316:193,1,200
278,280,16269,2,0,B|237:268|237:268|200:282,1,75.0000028610231
280,359,16819,2,0,B|321:347|321:347|358:361,1,75.0000028610231
284,283,17370,1,0,0:0:0:0:
284,205,17645,1,0,0:0:0:0:
288,278,17921,1,0,0:0:0:0:
317,315,18058,1,0,0:0:0:0:
286,351,18196,1,0,0:0:0:0:
261,313,18334,1,0,0:0:0:0:
296,291,18471,6,0,B|232:328|167:241|23:295,1,200
71,329,18884,1,0,0:0:0:0:
57,318,19022,1,0,0:0:0:0:
38,85,19297,2,0,B|57:156|164:140|228:280,1,200
196,238,19847,1,0,0:0:0:0:
92,347,20123,2,0,B|55:283|113:255|106:218,1,100
49,136,20398,5,0,0:0:0:0:
123,92,20535,1,0,0:0:0:0:
206,92,20673,1,0,0:0:0:0:
206,71,20948,1,0,0:0:0:0:
244,160,21086,1,0,0:0:0:0:
217,241,21223,2,0,P|251:213|241:105,1,150
243,119,21499,1,0,0:0:0:0:
320,84,21636,1,0,0:0:0:0:
384,142,21774,2,0,P|315:167|303:186,1,100
391,78,22049,2,0,P|465:112|477:131,1,100
395,14,22324,1,0,0:0:0:0:
392,103,22600,1,0,0:0:0:0:
492,230,22875,6,0,B|445:150|394:247|311:251,1,200
286,247,23288,1,0,0:0:0:0:
258,240,23425,1,0,0:0:0:0:
107,258,23701,2,0,B|83:347|188:315|249:371,1,200
281,361,24251,1,0,0:0:0:0:
313,222,24526,2,0,B|233:269|379:284|330:335,1,100
385,279,24801,5,0,0:0:0:0:
419,210,24939,1,0,0:0:0:0:
390,146,25077,1,0,0:0:0:0:
407,148,25352,2,0,L|464:122,1,50
447,20,25627,1,0,0:0:0:0:
460,20,25902,1,0,0:0:0:0:
388,46,26040,1,0,0:0:0:0:
297,64,26178,1,0,0:0:0:0:
301,4,26453,1,0,0:0:0:0:
289,71,26728,1,0,0:0:0:0:
231,49,26866,1,0,0:0:0:0:
219,112,27003,1,0,0:0:0:0:
159,86,27141,1,0,0:0:0:0:
189,83,27279,6,0,B|181:33|181:33|151:20|123:101|16:66,1,200
5,42,27691,1,0,0:0:0:0:
11,12,27829,1,0,0:0:0:0:
12,229,28104,2,0,B|-12:197|-12:197|0:167|77:204|127:104,1,200
136,90,28655,1,0,0:0:0:0:
199,0,28930,2,0,B|238:5|238:5|251:35|170:63|205:170,1,200
17,235,29480,2,0,B|30:303|30:303|29:303|172:240,1,200
139,241,30030,2,0,B|152:173|152:173|151:173|294:236,1,200
172,301,30581,1,0,0:0:0:0:
169,243,30856,1,0,0:0:0:0:
182,298,31132,1,0,0:0:0:0:
162,367,31407,1,0,0:0:0:0:
126,307,31545,1,0,0:0:0:0:
71,326,31682,6,0,P|131:328|293:348,1,200
291,363,32095,1,0,0:0:0:0:
296,338,32233,1,0,0:0:0:0:
472,379,32508,2,0,P|430:335|330:206,1,200
348,208,32921,1,0,0:0:0:0:
350,193,33058,1,0,0:0:0:0:
100,301,33334,2,0,P|159:292|322:287,1,200,0|0,0:0|0:0,2:0:0:0:
398,96,33884,1,0,0:0:0:0:
402,82,34434,5,0,0:0:0:0:
418,27,34710,1,0,0:0:0:0:
392,83,34985,1,4,0:0:0:0:
420,140,35123,1,4,0:0:0:0:
451,88,35260,1,4,0:0:0:0:
424,21,35398,1,4,0:0:0:0:
375,78,35535,1,4,0:0:0:0:
382,154,35673,1,4,0:0:0:0:
435,208,35811,1,8,0:0:0:0:
436,286,35948,1,8,0:0:0:0:
347,344,36086,6,0,B|276:325|276:325|137:397,1,200
0,244,36636,6,0,P|100:305|110:290,1,150
138,213,36912,2,0,P|95:322|111:329,1,150
209,380,37187,2,0,B|275:360|275:360|282:280,1,150,0|0,2:0|2:0,2:0:0:0:
181,369,37462,2,0,B|247:349|247:349|254:269,1,150
417,169,37737,2,0,P|368:222|387:291,1,150
508,299,38012,2,0,P|446:259|382:290,1,150
228,311,38288,2,0,B|226:223|226:223|256:163,1,150
191,321,38563,2,0,B|189:233|189:233|219:173,1,150
215,227,38838,6,0,B|239:162|199:103|218:57,1,150
286,16,39113,2,0,B|232:78|284:141|259:183,1,150
361,193,39389,2,0,B|378:260|332:314|346:362,1,150
304,378,39664,2,0,B|269:318|298:253|271:211,1,150
220,209,39939,1,0,0:0:0:0:
231,340,40214,1,0,0:0:0:0:
224,247,40352,1,0,0:0:0:0:
218,147,40490,6,0,B|237:34|237:34|261:152,1,200
0,156,41040,6,0,P|67:182|76:118,1,150
158,85,41315,2,0,P|91:59|82:123,1,150
217,153,41590,2,0,B|269:190|269:190|310:165|310:165|368:168,1,150
204,187,41866,2,0,B|256:224|256:224|297:199|297:199|355:202,1,150
506,92,42141,2,0,P|439:66|430:130,1,150
346,92,42416,2,0,P|413:66|422:130,1,150
317,91,42691,2,0,B|291:76|291:76|159:116,1,150
299,128,42967,2,0,B|273:113|273:113|141:153,1,150
139,265,43242,6,0,P|86:245|86:140,1,150
178,53,43517,2,0,P|187:108|96:161,1,150
60,267,43792,2,0,P|106:235|192:295,1,150
105,384,44068,2,0,P|57:353|79:250,1,150
0,39,44343,1,0,0:0:0:0:
1,120,44480,1,0,0:0:0:0:
55,185,44618,1,0,0:0:0:0:
136,207,44756,1,0,0:0:0:0:
174,290,44893,6,0,B|173:327|173:327|111:170,1,200
185,384,45444,1,0,0:0:0:0:
87,338,45719,5,0,0:0:0:0:
186,345,45856,1,0,0:0:0:0:
289,354,45994,1,0,0:0:0:0:
194,330,46269,1,0,0:0:0:0:
298,342,46407,1,0,0:0:0:0:
340,251,46545,2,0,B|410:250|410:250|498:278,1,150
486,227,46820,2,0,B|416:226|416:226|328:254,1,150
341,148,47095,2,0,P|305:101|378:79,1,150
444,34,47370,2,0,P|392:5|382:81,1,150,0|0,0:0|2:0,0:0:0:0:
396,233,47645,6,0,B|368:209|368:209|371:166|329:144|329:144|334:94,1,150
453,21,47921,2,0,B|459:57|459:57|430:88|449:132|449:132|413:168,1,150
324,271,48196,2,0,B|342:254|342:254|395:278|431:243|431:243|457:256,1,150
463,335,48471,2,0,B|444:351|444:351|391:327|355:362|355:362|329:349,1,150
351,245,48746,1,0,0:0:0:0:
378,59,49022,1,0,0:0:0:0:
369,153,49159,1,0,0:0:0:0:
358,258,49297,6,0,B|417:263|417:263|504:142,1,200
303,334,49847,1,0,0:0:0:0:
395,383,50123,5,0,0:0:0:0:
286,379,50260,1,0,0:0:0:0:
181,371,50398,1,0,0:0:0:0:
265,350,50673,1,0,0:0:0:0:
168,357,50811,1,0,0:0:0:0:
145,260,50948,2,0,B|144:236|144:236|233:167|233:167|231:136,1,150
217,133,51223,2,0,B|218:157|218:157|129:226|129:226|131:257,1,150
18,227,51499,2,0,P|100:186|136:243,1,150
243,215,51774,2,0,P|161:256|125:199,1,150
236,214,52049,6,0,B|240:141|240:141|208:103|224:61,1,150
221,0,52324,2,0,B|217:73|217:73|249:111|233:153,1,150
337,206,52600,2,0,B|361:244|333:279|333:279|365:317|349:359,1,150
239,363,52875,2,0,B|243:290|243:290|227:210,1,150
174,58,53150,1,0,0:0:0:0:
110,101,53288,1,0,0:0:0:0:
87,184,53425,1,0,0:0:0:0:
92,263,53563,1,0,0:0:0:0:
162,330,53701,6,0,P|144:317|2:379,1,200
84,374,54251,1,0,0:0:0:0:
297,384,54526,2,0,B|300:296|300:296|225:211,1,200
137,224,55077,1,0,0:0:0:0:
179,329,55352,2,0,P|273:338|297:346,1,100
491,331,55627,5,0,0:0:0:0:
462,264,55765,1,0,0:0:0:0:
398,230,55902,1,0,0:0:0:0:
385,246,56178,1,0,0:0:0:0:
421,157,56315,1,0,0:0:0:0:
495,211,56453,1,0,0:0:0:0:
512,187,56728,1,0,0:0:0:0:
420,201,56866,1,0,0:0:0:0:
327,214,57003,1,0,0:0:0:0:
336,141,57279,1,0,0:0:0:0:
336,201,57554,2,0,L|433:207,1,50
327,262,57829,1,0,0:0:0:0:
316,194,57967,1,0,0:0:0:0:
334,126,58104,6,0,P|238:153|134:132,1,200
209,45,58655,1,0,0:0:0:0:
0,5,58930,2,0,B|42:92|42:92|46:91|141:168,1,200
0,147,59480,1,0,0:0:0:0:
203,186,59756,2,0,P|175:142|116:183,1,100
7,230,60031,5,0,0:0:0:0:
18,307,60168,1,0,0:0:0:0:
68,369,60306,1,0,0:0:0:0:
102,358,60581,1,0,0:0:0:0:
58,276,60719,1,0,0:0:0:0:
155,277,60856,1,0,0:0:0:0:
139,302,61132,1,0,0:0:0:0:
220,348,61269,1,0,0:0:0:0:
296,313,61407,1,0,0:0:0:0:
321,247,61682,1,0,0:0:0:0:
350,310,61957,1,0,0:0:0:0:
321,372,62095,1,0,0:0:0:0:
289,315,62233,1,0,0:0:0:0:
322,256,62370,1,0,0:0:0:0:
371,237,62508,6,0,P|410:198|318:129,1,200
350,180,63058,1,0,0:0:0:0:
261,20,63334,2,0,P|275:73|381:28,1,200
322,28,63884,1,0,0:0:0:0:
276,200,64159,2,0,P|290:146|396:191,1,200
495,235,64710,2,0,B|482:303|482:303|483:303|340:240,1,200
373,241,65260,2,0,B|360:173|360:173|361:173|218:236,1,200
91,236,65811,1,0,0:0:0:0:
88,177,66086,1,0,0:0:0:0:
68,240,66361,2,0,L|9:237,1,50
85,296,66636,1,0,0:0:0:0:
108,235,66774,1,0,0:0:0:0:
161,188,66912,6,0,B|145:162|155:132|156:131|156:131|172:79|292:63,1,200
236,161,67462,1,0,0:0:0:0:
23,40,67737,2,0,B|53:39|74:62|74:64|74:64|111:104|65:215,1,200
6,127,68288,1,0,0:0:0:0:
165,147,68563,2,0,B|149:173|159:203|160:204|160:204|176:256|296:272,1,200
422,103,69113,2,0,P|405:60|382:124,1,150.000005722046
431,80,70214,5,4,0:0:0:0:
403,25,70352,1,4,0:0:0:0:
366,75,70490,1,4,0:0:0:0:
398,130,70627,1,4,0:0:0:0:
383,46,70765,1,4,0:0:0:0:
297,36,70902,1,4,0:0:0:0:
242,99,71040,1,8,0:0:0:0:
163,72,71178,1,8,0:0:0:0:
142,140,71315,6,0,P|97:122|52:140,1,100
0,67,71590,2,0,P|55:49|96:73,1,100
88,182,71866,1,0,0:0:0:0:
232,129,72141,2,0,P|182:117|141:140,1,100
70,66,72416,2,0,P|135:84|170:123,1,100
166,184,72691,1,0,0:0:0:0:
189,7,72967,2,0,P|194:37|155:129,1,100
120,153,73242,5,0,0:0:0:0:
33,153,73379,1,0,0:0:0:0:
4,74,73517,1,0,0:0:0:0:
31,71,73792,1,0,0:0:0:0:
106,134,73930,1,0,0:0:0:0:
29,176,74068,1,0,0:0:0:0:
26,153,74343,1,0,0:0:0:0:
26,233,74480,1,0,0:0:0:0:
28,310,74618,1,0,0:0:0:0:
38,235,74893,1,0,0:0:0:0:
37,307,75168,2,0,L|108:313,1,50
35,384,75444,1,0,0:0:0:0:
22,312,75581,1,0,0:0:0:0:
71,247,75719,6,0,P|137:245|177:267,1,100
148,360,75994,2,0,P|197:316|242:307,1,100
284,366,76269,1,0,0:0:0:0:
94,209,76545,2,0,P|156:219|190:248,1,100
157,367,76820,2,0,P|204:325|248:318,1,100
320,253,77095,1,0,0:0:0:0:
297,368,77370,2,0,P|387:354|419:322,1,100
512,217,77645,5,0,0:0:0:0:
440,176,77783,1,0,0:0:0:0:
365,214,77921,2,0,P|423:251|459:191,1,150
464,167,78196,1,0,0:0:0:0:
385,112,78334,1,0,0:0:0:0:
359,210,78471,1,0,0:0:0:0:
365,187,78746,1,0,0:0:0:0:
366,258,78884,1,0,0:0:0:0:
373,333,79022,1,0,0:0:0:0:
373,269,79297,1,0,0:0:0:0:
398,320,79572,5,0,0:0:0:0:
377,381,79710,1,0,0:0:0:0:
357,324,79847,1,0,0:0:0:0:
389,262,79985,1,0,0:0:0:0:
372,194,80123,6,0,P|421:188|482:218,1,100
379,128,80398,2,0,P|330:122|269:152,1,100
425,51,80673,1,0,0:0:0:0:
385,185,80948,2,0,P|434:187|489:227,1,100
380,116,81223,2,0,P|331:110|270:140,1,100
440,42,81499,1,0,0:0:0:0:
356,217,81774,2,0,P|436:124|439:28,1,200
328,0,82324,2,0,B|374:51|374:51|375:50|238:126,1,200
247,95,82874,2,0,B|310:64|310:64|309:63|345:215,1,200
494,94,83425,5,0,0:0:0:0:
486,27,83701,1,0,0:0:0:0:
480,97,83976,2,0,L|426:113,1,50
496,173,84251,1,0,0:0:0:0:
432,111,84526,6,0,P|429:180|444:216,1,100
288,107,84801,2,0,P|334:157|370:172,1,100
151,115,85077,1,0,0:0:0:0:
386,67,85352,2,0,P|371:135|379:173,1,100
234,85,85627,2,0,P|280:135|316:150,1,100
129,98,85902,1,0,0:0:0:0:
150,168,86178,2,0,P|112:74|12:89,1,200
64,218,86728,2,0,P|65:267|35:215,1,150.000005722046
36,171,87554,1,0,0:0:0:0:
77,182,87829,5,0,0:0:0:0:
118,139,87967,1,0,0:0:0:0:
91,81,88104,1,0,0:0:0:0:
51,131,88242,1,0,0:0:0:0:
77,191,88379,1,0,0:0:0:0:
162,237,88517,1,0,0:0:0:0:
184,326,88655,1,0,0:0:0:0:
114,382,88792,1,0,0:0:0:0:
85,298,88930,6,0,B|86:298|49:263|49:263|53:194|53:194|108:159|108:159|128:106,1,200
0,1,89480,6,0,P|91:18|150:75,1,150
69,177,89756,2,0,P|86:86|143:27,1,150
248,43,90031,2,0,B|324:55|324:55|366:38|366:38|402:42,1,150
182,27,90306,2,0,B|209:23|209:23|251:40|251:40|327:28,1,150
512,31,90581,2,0,B|512:83|472:148|472:148|433:141|428:135,1,150
487,248,90856,2,0,B|501:246|462:253|462:253|422:188|422:136,1,150
210,33,91132,2,0,B|217:82|215:83|215:83|299:147,1,150
302,33,91407,2,0,B|289:131|289:131|291:130|321:170,1,150
237,278,91682,6,0,B|252:226|191:200|223:113,1,150
129,0,91957,2,0,B|114:52|173:85|173:85|152:109|143:165,1,150
296,183,92233,2,0,B|278:187|276:171|276:171|309:124|306:279,1,150
233,360,92508,2,0,B|225:356|209:381|209:381|256:328|216:225,1,150
212,155,92783,1,0,0:0:0:0:
183,0,93058,1,0,0:0:0:0:
182,93,93196,1,0,0:0:0:0:
185,187,93334,6,0,B|118:161|118:161|123:157|8:234,1,200
212,240,93884,2,0,B|202:314|183:360|141:364,1,150
0,300,94159,2,0,B|20:267|70:273|140:299,1,150
282,384,94434,2,0,B|280:332|280:332|272:326|272:326|269:234,1,150
237,367,94710,2,0,B|278:335|278:335|278:325|278:325|352:270,1,150
471,182,94985,2,0,B|499:146|539:191|480:252|412:234,1,150
360,96,95260,2,0,B|336:59|392:36|431:112|398:158,1,150,0|0,2:0|0:0,0:0:0:0:
368,377,95535,2,0,B|369:321|369:321|312:292|312:292|270:238,1,150
245,384,95811,2,0,B|244:328|244:328|301:299|301:299|343:245,1,150
254,180,96086,6,0,B|231:127|321:95|265:34,1,150
145,16,96361,2,0,B|154:-11|189:-20|185:27|186:66|186:66|210:79|227:104,1,150
206,219,96636,2,0,P|224:297|250:365,1,150
121,384,96912,2,0,P|143:325|153:227,1,150
183,171,97187,1,0,0:0:0:0:
256,152,97324,1,0,0:0:0:0:
335,127,97462,1,0,0:0:0:0:
402,86,97600,1,0,0:0:0:0:
457,0,97737,6,0,B|417:1|417:1|443:29|437:160,1,200
436,189,98288,1,0,0:0:0:0:
367,297,98563,5,0,0:0:0:0:
325,225,98701,1,0,0:0:0:0:
345,146,98838,1,0,0:0:0:0:
379,147,99113,1,0,0:0:0:0:
300,107,99251,1,0,0:0:0:0:
257,183,99389,2,0,B|195:151|195:151|101:168,1,150
116,110,99664,2,0,B|185:154|185:154|203:221,1,150
47,290,99939,2,0,B|54:268|171:263|196:323,1,150
298,323,100214,2,0,B|291:301|174:296|149:356,1,150
51,263,100490,6,0,B|43:241|54:215|54:215|37:196|15:192|19:165|45:118,1,150
150,57,100765,2,0,B|164:90|164:90|164:34|135:77|92:57|107:41|70:56|70:56|87:33,1,150
219,39,101040,2,0,B|249:84|233:137|233:137|227:136|226:148|226:148|198:173|164:174,1,150
136,286,101315,2,0,B|157:320|157:320|167:308|169:315|194:388|153:311|181:220,1,150,0|0,0:0|0:0,2:0:0:0:
117,226,101590,1,0,0:0:0:0:
34,171,101866,1,0,0:0:0:0:
118,191,102003,1,0,0:0:0:0:
207,205,102141,2,0,B|220:128|220:128|221:128|175:8,1,200
90,39,102691,1,0,0:0:0:0:
6,146,102967,5,0,0:0:0:0:
88,145,103104,1,0,0:0:0:0:
171,172,103242,1,0,0:0:0:0:
182,166,103517,1,0,0:0:0:0:
170,70,103655,1,0,0:0:0:0:
92,127,103792,2,0,B|90:197|90:197|147:265,1,150
209,241,104068,2,0,B|130:257|130:257|69:222,1,150
10,329,104343,2,0,B|98:361|134:315|183:353,1,150
277,293,104618,2,0,B|365:325|303:265|176:308,1,150
345,237,104893,2,0,B|419:149|342:160|372:152|372:152|363:135|363:135|352:83,1,150
224,145,105168,2,0,B|208:117|216:81|216:81|229:63|246:80|217:81|217:81|198:53|160:41,1,150
188,0,105444,5,14,0:0:0:0:
194,75,105581,1,4,0:0:0:0:
245,137,105719,1,4,0:0:0:0:
273,206,105856,1,4,0:0:0:0:
270,282,105994,1,4,0:0:0:0:
252,212,106132,1,4,0:0:0:0:
183,174,106269,1,8,0:0:0:0:
111,203,106407,1,8,0:0:0:0:
101,275,106545,6,0,B|151:195|149:195|149:195|164:85,1,200
303,0,107095,6,0,B|304:60|269:92|269:92|221:100,1,150
113,96,107370,2,0,B|168:73|211:94|211:94|235:136,1,150
431,181,107645,2,0,B|377:83|377:83|368:76|368:76|383:27,1,150
402,135,107921,2,0,B|392:245|392:245|387:255|387:255|420:294,1,150
305,384,108196,2,0,B|298:342|298:342|336:288|284:228,1,150
193,229,108471,2,0,B|235:226|235:226|285:269|350:224,1,150
376,127,108746,2,0,B|436:113|436:113|440:52|440:52|500:50,1,150
424,134,109022,2,0,B|364:148|364:148|360:209|360:209|300:211,1,150
233,191,109297,6,0,B|188:105|183:66|183:66|205:35,1,150
383,17,109572,2,0,B|380:31|380:31|349:55|256:84,1,150
311,168,109847,2,0,B|300:195|295:229|295:229|315:258|315:258|347:331,1,150
257,361,110123,2,0,P|182:356|107:362,1,150
55,369,110398,1,0,0:0:0:0:
42,178,110673,1,0,0:0:0:0:
45,257,110811,1,0,0:0:0:0:
49,332,110948,2,0,B|17:290|17:290|7:135,1,200
246,3,111499,6,0,B|200:-3|200:-3|150:22|134:100,1,150
213,168,111774,2,0,B|226:123|226:123|210:70|136:40,1,150
40,148,112049,2,0,L|62:0,1,150
18,85,112324,2,0,B|24:105|24:105|41:238,1,150
166,271,112600,2,0,B|167:268|176:228|212:230|212:230|251:229|257:290,1,150
140,328,112875,2,0,B|138:330|129:370|93:368|93:368|54:369|48:308,1,150
121,191,113150,2,0,B|100:94|100:94|186:49,1,150
109,135,113425,2,0,B|106:234|106:234|199:261,1,150
264,182,113701,6,0,B|291:123|280:84|280:84|271:83|279:68|279:68|287:21,1,150
149,0,113976,2,0,B|202:14|202:14|226:45|208:71|202:123,1,150
217,225,114251,2,0,B|241:286|284:271|349:328,1,150
170,365,114526,2,0,P|206:326|128:304,1,150
153,313,114801,1,0,0:0:0:0:
109,250,114939,1,0,0:0:0:0:
99,173,115077,1,0,0:0:0:0:
75,99,115214,1,0,0:0:0:0:
43,26,115352,2,0,B|34:115|34:115|41:118|41:119|75:226,1,200
7,230,115902,1,0,0:0:0:0:
6,367,116178,5,0,0:0:0:0:
104,336,116315,1,0,0:0:0:0:
198,365,116453,1,0,0:0:0:0:
100,311,116728,1,0,0:0:0:0:
205,347,116866,1,0,0:0:0:0:
193,231,117003,2,0,B|241:153|268:208|286:173|286:173|345:168,1,150
247,156,117279,2,0,B|295:234|322:179|340:214|340:214|399:219,1,150
438,355,117554,2,0,B|404:298|427:276|427:276|428:239|468:253|481:187,1,150
405,156,117829,2,0,B|405:180|369:189|369:189|403:218|415:238|436:281,1,150
499,201,118104,6,0,B|479:129|439:131|430:37,1,150
334,31,118379,2,0,B|374:67|410:41|439:63|421:61|424:67|424:67|355:14,1,150
309,165,118655,2,0,B|301:134|301:134|288:171|297:186|279:218|279:218|274:219|284:262,1,150
291,361,118930,2,0,B|338:316|346:285|346:285|380:321|395:365,1,150
449,227,119205,1,0,0:0:0:0:
419,121,119480,1,0,0:0:0:0:
425,214,119618,1,0,0:0:0:0:
430,308,119756,2,0,B|386:219|386:219|409:112,1,200
331,117,120306,1,0,0:0:0:0:
512,61,120581,5,0,0:0:0:0:
419,17,120719,1,0,0:0:0:0:
332,66,120856,1,0,0:0:0:0:
429,13,121132,1,0,0:0:0:0:
349,53,121269,1,0,0:0:0:0:
260,6,121407,2,0,B|280:46|280:46|262:72|271:118|271:118|248:129|258:176,1,150
187,137,121682,2,0,B|217:144|217:144|236:93|260:59|260:59|318:29,1,150
463,139,121957,2,0,B|466:133|466:133|436:181|436:181|318:207,1,150
337,314,122233,2,0,B|337:257|337:257|439:277,1,150
300,227,122508,6,0,B|284:153|227:157|240:93,1,150
338,50,122783,2,0,B|350:111|293:107|277:181,1,150
179,231,123058,2,0,L|183:349,1,100
247,363,123334,1,0,0:0:0:0:
265,284,123471,1,0,0:0:0:0:
245,207,123609,1,0,0:0:0:0:
190,151,123746,1,0,0:0:0:0:
111,137,123884,1,0,0:0:0:0:
36,165,124022,1,0,0:0:0:0:
22,238,124159,6,0,P|44:211|129:185,1,125
163,381,124710,1,0,0:0:0:0:
167,286,124985,1,0,0:0:0:0:
327,249,125260,2,0,P|210:248|187:234,1,125
179,186,125811,2,0,L|173:332,1,125
107,273,126361,1,0,0:0:0:0:
210,359,126636,2,0,L|174:216,1,125
290,318,127187,1,0,0:0:0:0:
290,318,127324,1,0,0:0:0:0:
290,318,127462,2,0,P|250:281|195:325,1,125
380,238,128012,2,0,L|369:324,1,62.5
414,351,128288,1,0,0:0:0:0:
386,279,128425,1,0,0:0:0:0:
356,200,128563,6,0,L|453:197,1,93.75
467,140,128838,2,0,L|391:205,1,93.75
339,141,129113,2,0,L|409:71,1,93.75
450,73,129389,2,0,L|344:75,1,93.75
244,29,129664,2,0,P|293:8|344:25,1,93.75
349,29,129939,1,0,0:0:0:0:
155,74,130214,2,0,L|29:70,1,125
103,15,130765,1,0,0:0:0:0:
99,142,131040,1,0,0:0:0:0:
99,142,131178,1,0,0:0:0:0:
99,142,131315,1,0,0:0:0:0:
112,16,131590,2,0,L|86:149,1,125
102,211,132141,1,0,0:0:0:0:
102,211,132279,1,0,0:0:0:0:
102,211,132416,1,0,0:0:0:0:
140,262,132554,1,0,0:0:0:0:
139,328,132691,1,0,0:0:0:0:
91,371,132829,1,0,0:0:0:0:
29,370,132967,6,0,P|40:283|44:271,1,93.75
104,279,133242,2,0,L|109:180,1,93.75
189,204,133517,2,0,P|186:157|176:111,1,93.75
106,179,133792,2,0,L|101:272,1,93.75
34,279,134068,2,0,P|24:325|22:372,1,93.75
125,320,134343,2,0,P|79:330|32:332,1,93.75
0,219,134618,2,0,P|24:179|80:122,1,125
167,107,135168,1,0,0:0:0:0:
51,50,135444,2,0,P|36:94|28:173,1,125
117,176,135994,2,0,L|106:301,1,125
142,181,136545,1,0,0:0:0:0:
126,306,136820,1,0,0:0:0:0:
37,320,137095,1,0,0:0:0:0:
115,293,137233,1,0,0:0:0:0:
196,272,137370,6,0,L|194:372,1,93.75
254,384,137645,2,0,L|183:299,1,93.75
280,194,137921,2,0,L|278:294,1,93.75
183,235,138196,2,0,L|301:225,1,93.75
290,228,138471,2,0,L|408:218,1,93.75
456,165,138746,1,0,0:0:0:0:
428,137,139022,2,0,P|357:194|325:230,1,125
446,257,139572,5,0,0:0:0:0:
482,318,139847,1,0,0:0:0:0:
484,256,139985,1,0,0:0:0:0:
431,285,140123,1,0,0:0:0:0:
382,320,140398,1,0,0:0:0:0:
431,252,140535,1,0,0:0:0:0:
421,168,140673,1,0,0:0:0:0:
374,138,140811,1,0,0:0:0:0:
318,134,140948,1,0,0:0:0:0:
266,139,141086,1,0,0:0:0:0:
231,123,141223,1,0,0:0:0:0:
210,93,141361,1,0,0:0:0:0:
219,69,141499,1,0,0:0:0:0:
239,62,141636,1,0,0:0:0:0:
249,73,141774,1,0,0:0:0:0:
466,89,149480,5,4,0:0:0:0:
403,53,149618,1,4,0:0:0:0:
331,53,149756,1,4,0:0:0:0:
265,92,149893,1,4,0:0:0:0:
190,72,150031,1,8,0:0:0:0:
261,40,150168,1,8,0:0:0:0:
330,72,150306,1,8,0:0:0:0:
338,149,150444,1,8,0:0:0:0:
327,233,150581,5,2,0:0:0:0:
289,207,150856,2,0,P|237:190|231:241,1,93.75
151,190,151132,2,0,B|229:188|327:177|330:212,1,150
302,291,151407,2,0,B|246:236|182:161|156:185,1,150
102,51,151682,2,0,B|74:125|74:125|82:206,1,150
7,45,151957,2,0,B|14:72|14:72|69:103|69:103|83:189,1,150
156,77,152233,2,0,P|251:35|283:-5,1,150
352,84,152508,2,0,P|250:57|202:68,1,150
55,171,152783,2,0,B|75:221|75:221|57:316,1,150
122,192,153058,2,0,B|74:231|74:231|68:260|68:260|9:294,1,150
172,277,153334,6,0,B|158:193|196:289|192:110,1,150
307,85,153609,2,0,B|176:60|321:1|287:-4|285:50,1,150
71,97,153884,2,0,B|109:69|133:148|133:148|166:135|208:145,1,150
327,213,154159,2,0,B|261:189|248:245|159:231,1,150
266,289,154434,1,0,0:0:0:0:
61,306,154710,1,0,0:0:0:0:
133,302,154847,1,0,0:0:0:0:
202,297,154985,2,0,B|217:344|217:344|145:375|145:375|104:290,1,200
40,189,155535,6,0,P|87:220|65:148,1,150,0|2,0:0|0:0,0:0:0:0:
155,188,155811,2,0,P|108:219|130:147,1,150
191,57,156086,2,0,B|300:63|300:63|360:106,1,150
172,18,156361,2,0,B|191:56|191:56|253:59|253:59|269:142,1,150
435,186,156636,2,0,B|426:330|494:226|332:251,1,150
364,127,156912,2,0,B|508:138|406:68|428:231,1,150
292,118,157187,2,0,B|283:79|283:79|240:52|240:52|143:49|143:49,1,150
283,3,157462,2,0,B|242:51|242:51|181:50|181:50|121:49|121:49,1,150,0|0,0:0|0:0,2:0:0:0:
195,214,157737,6,0,B|186:161|155:140|159:141|159:141|191:137|234:110,1,150
348,21,158012,2,0,B|337:-13|337:-13|348:45|332:118,1,150
374,217,158288,2,0,B|276:201|246:174|246:174|294:183,1,150
108,205,158563,2,0,B|133:217|170:211|170:211|198:241|216:313,1,150
211,336,158838,1,0,0:0:0:0:
284,305,158976,1,0,0:0:0:0:
364,283,159113,1,0,0:0:0:0:
447,289,159251,1,0,0:0:0:0:
505,363,159389,2,0,P|491:314|496:157,1,200
422,150,159939,1,0,0:0:0:0:
488,34,160214,5,0,0:0:0:0:
357,32,160352,1,0,0:0:0:0:
434,98,160490,1,0,0:0:0:0:
409,104,160765,1,0,0:0:0:0:
384,9,160902,1,0,0:0:0:0:
266,49,161040,2,0,B|255:98|288:117|288:117|360:112,1,150
352,188,161315,2,0,B|363:139|330:120|330:120|258:125,1,150
32,126,161590,2,0,B|94:119|94:119|119:104|119:104|124:114|173:83,1,150
113,0,161866,2,0,B|99:61|99:61|105:90|105:90|94:91|107:148,1,150
255,171,162141,6,0,B|201:174|201:174|202:120|228:83,1,150
383,9,162416,2,0,B|382:7|382:7|368:22|368:22|379:34|379:34|346:56|311:49|282:109,1,150
147,243,162691,2,0,P|182:200|195:280,1,150
323,257,162967,2,0,P|311:362|352:376,1,150
354,312,163242,1,0,0:0:0:0:
300,244,163517,1,0,0:0:0:0:
171,232,163655,1,0,0:0:0:0:
121,296,163792,2,0,B|103:206|101:209|-25:209|60:301,1,200
149,181,164343,1,0,0:0:0:0:
5,83,164618,5,0,0:0:0:0:
103,27,164756,1,0,0:0:0:0:
126,95,164893,1,0,0:0:0:0:
84,33,165168,1,0,0:0:0:0:
109,98,165306,1,0,0:0:0:0:
226,4,165444,2,0,B|228:54|243:76|243:76|217:87|217:87|271:100,1,150
194,151,165719,2,0,B|196:101|211:79|211:79|185:68|185:68|239:55,1,150
408,38,165994,2,0,B|437:32|437:32|403:11|302:49,1,150
331,123,166269,2,0,B|360:117|360:117|326:96|242:162,1,150
296,263,166545,5,0,0:0:0:0:
387,285,166682,1,0,0:0:0:0:
403,215,166820,1,0,0:0:0:0:
406,205,167095,1,0,0:0:0:0:
410,193,167370,1,0,0:0:0:0:
387,285,167508,1,0,0:0:0:0:
299,275,167645,1,0,0:0:0:0:
256,206,167783,1,0,0:0:0:0:
238,141,167921,1,0,0:0:0:0:
206,68,168058,1,0,0:0:0:0:
124,30,168196,6,0,B|124:147|124:147|88:62,1,200
61,0,168746,1,0,0:0:0:0:
28,138,169022,1,0,0:0:0:0:
171,139,169159,1,0,0:0:0:0:
89,169,169297,1,0,0:0:0:0:
169,127,169572,1,0,0:0:0:0:
28,128,169709,1,0,0:0:0:0:
92,156,169847,2,0,B|129:179|130:226|66:233|66:233|8:226,1,150
37,323,170123,2,0,B|22:264|39:227|39:227|136:227,1,150
194,257,170398,2,0,B|197:340|197:340|292:335,1,150
274,239,170673,2,0,B|190:239|190:239|192:334,1,150
342,222,170948,6,0,P|345:170|393:77,1,150
508,2,171223,2,0,B|440:2|407:11|407:11|448:39|488:41,1,150
486,150,171499,2,0,B|473:187|473:187|457:166|444:247|444:247|441:316,1,150
353,374,171774,2,0,P|401:297|363:262,1,150
344,321,172049,1,0,0:0:0:0:
312,263,172324,1,0,0:0:0:0:
197,267,172462,1,0,0:0:0:0:
245,310,172600,2,0,B|321:237|321:237|337:125,1,200
413,170,173150,1,0,0:0:0:0:
391,51,173425,5,0,0:0:0:0:
284,109,173563,1,0,0:0:0:0:
349,121,173701,1,0,0:0:0:0:
285,96,173976,1,0,0:0:0:0:
389,42,174113,1,0,0:0:0:0:
349,113,174251,2,0,B|321:166|321:166|282:204|282:204|336:207,1,150
340,293,174526,2,0,B|312:240|312:240|273:202|273:202|327:199,1,150
187,105,174801,2,0,B|288:136|289:31|229:116,1,150
221,179,175077,2,0,P|163:180|210:116,1,150
273,205,175352,6,0,B|277:137|235:121|235:121|243:52,1,150
368,6,175627,2,0,B|356:-6|338:14|338:14|310:-4|282:14|282:14|251:100,1,150
369,225,175902,2,0,B|349:172|349:172|312:165|312:165|269:209|269:213,1,150
170,283,176178,2,0,B|249:297|249:297|300:358,1,150
370,317,176453,1,0,0:0:0:0:
340,251,176590,1,0,0:0:0:0:
362,179,176728,1,0,0:0:0:0:
384,112,176866,1,0,0:0:0:0:
357,17,177003,2,0,B|351:88|351:88|395:216,1,200
424,156,177554,1,0,0:0:0:0:
467,38,177829,5,0,0:0:0:0:
399,132,177967,1,0,0:0:0:0:
373,74,178104,1,0,0:0:0:0:
352,14,178379,1,0,0:0:0:0:
398,122,178517,1,0,0:0:0:0:
445,74,178655,2,0,B|437:85|437:85|430:93|421:88|421:88|410:134|410:134|398:132|398:132|307:159,1,150
436,166,178930,2,0,B|422:162|422:162|412:161|408:170|408:170|370:142|370:142|362:151|362:151|275:189,1,150
202,91,179205,2,0,B|196:54|235:50|235:50|257:54|257:54|265:98|265:98|284:101|284:101|310:110,1,150
352,89,179480,2,0,B|358:52|319:48|319:48|297:52|297:52|289:96|289:96|270:99|270:99|244:108,1,150
173,121,179756,6,0,B|233:146|225:221|154:233|126:188|126:188,1,150
205,12,180031,2,0,L|205:170,1,150
123,313,180306,2,0,B|190:295|190:295|214:282|214:282|229:285|229:285|230:239,1,150
366,368,180581,2,0,B|272:336|272:336|268:367|268:367|246:378|246:378|219:375,1,150
210,336,180856,1,0,0:0:0:0:
55,223,181132,1,0,0:0:0:0:
62,303,181269,1,0,0:0:0:0:
71,381,181407,2,0,B|71:305|71:305|-3:206,1,200
93,179,181957,1,0,0:0:0:0:
4,54,182233,5,0,0:0:0:0:
70,142,182370,1,0,0:0:0:0:
103,86,182508,1,0,0:0:0:0:
131,38,182783,1,0,0:0:0:0:
33,96,182921,1,0,0:0:0:0:
57,180,183058,2,0,B|60:198|60:198|46:193|36:205|36:205|54:269|54:269|64:315,1,150
31,340,183334,2,0,B|34:322|34:322|20:327|10:315|10:315|28:251|28:251|38:205,1,150
138,308,183609,2,0,B|158:345|221:314|203:273|203:273|185:229,1,150
207,293,183884,2,0,B|227:330|290:299|272:258|272:258|254:214,1,150
255,164,184159,5,0,0:0:0:0:
255,89,184434,1,0,0:0:0:0:
252,171,184710,1,0,0:0:0:0:
287,214,184847,1,0,0:0:0:0:
253,254,184985,1,0,0:0:0:0:
218,211,185123,1,0,0:0:0:0:
262,170,185260,1,0,0:0:0:0:
321,141,185398,1,0,0:0:0:0:
373,96,185535,1,0,0:0:0:0:
415,37,185673,1,0,0:0:0:0:
415,37,185811,1,0,0:0:0:0:
