osu file format v14

[General]
AudioFilename: audio.mp3
AudioLeadIn: 0
PreviewTime: 130311
Countdown: 0
SampleSet: None
StackLeniency: 0.6
Mode: 0
LetterboxInBreaks: 0
WidescreenStoryboard: 1

[Editor]
Bookmarks: 28686
DistanceSpacing: 2.1
BeatDivisor: 4
GridSize: 4
TimelineZoom: 2.400001

[Metadata]
Title:Kyodo suru seijo wa shigai no isu de kiseki o utau
TitleUnicode:嚮導する聖女は屍骸の椅子で奇蹟を謳う
Artist:Vermillion-D Alice Syndrome
ArtistUnicode:Vermillion-D Alice Syndrome
Creator:srijanfromsd
Version:Another
Source:
Tags:
BeatmapID:1301548
BeatmapSetID:599637

[Difficulty]
HPDrainRate:5
CircleSize:4
OverallDifficulty:7
ApproachRate:9
SliderMultiplier:1.5
SliderTickRate:2

[Events]
//Background and Video events
0,0,"something.jpg",0,0
//Break Periods
2,34886,42086
//Storyboard Layer 0 (Background)
//Storyboard Layer 1 (Fail)
//Storyboard Layer 2 (Pass)
//Storyboard Layer 3 (Foreground)
//Storyboard Sound Samples

[TimingPoints]
2686,250,4,3,0,70,1,0

[Colours]
Combo1 : 78,78,78
Combo2 : 155,155,155
Combo3 : 160,136,63
Combo4 : 206,0,5

[HitObjects]
392,152,2686,6,0,P|370:176|356:225,1,75
433,346,2936,2,0,P|422:315|386:278,1,75
318,281,3186,1,0,0:0:0:0:
318,281,3311,2,0,P|281:289|245:284,1,75
192,192,3561,6,0,L|108:208,1,75
288,172,3811,2,0,L|372:156,1,75
236,24,4061,2,0,P|224:68|240:180,1,150
316,304,4436,1,0,0:0:0:0:
356,208,4561,1,0,0:0:0:0:
252,220,4686,6,0,P|220:229|181:263,1,75
44,324,4936,2,0,P|53:287|75:257,1,75,8|0,0:0|0:0,0:0:0:0:
240,112,5186,1,0,0:0:0:0:
240,112,5311,2,0,L|348:120,1,75
400,184,5561,6,0,L|393:269,1,75,0|0,3:0|3:0,3:0:0:0:
405,86,5811,2,0,L|411:0,1,75,0|0,3:0|3:0,3:0:0:0:
320,132,6061,2,0,P|244:136|192:200,1,150
200,336,6436,1,0,0:0:0:0:
284,252,6561,1,0,0:0:0:0:
104,216,6686,6,0,P|81:246|72:282,1,75,8|0,0:0|0:0,0:0:0:0:
177,211,6936,2,0,P|161:176|135:150,1,75,8|0,3:0|3:0,3:0:0:0:
144,276,7186,1,8,0:0:0:0:
144,276,7311,2,0,P|181:280|216:270,1,75,8|0,0:0|0:0,0:0:0:0:
304,156,7561,6,0,L|256:84,1,75
356,228,7811,2,0,L|404:300,1,75,0|0,3:0|3:0,3:0:0:0:
428,160,8061,2,0,P|404:96|308:84,1,150
220,156,8436,1,0,0:0:0:0:
264,48,8561,1,0,0:0:0:0:
220,156,8686,6,0,P|194:197|187:244,1,75,8|0,0:0|0:0,0:0:0:0:
330,185,8936,2,0,P|306:142|269:112,1,75,8|0,0:0|0:0,0:0:0:0:
249,266,9186,1,0,0:0:0:0:
249,266,9311,2,0,P|297:266|341:250,1,75,8|0,0:0|0:0,0:0:0:0:
392,160,9561,6,0,L|488:172,1,75
292,148,9811,2,0,L|196:136,1,75
420,96,10061,2,0,P|452:124|400:228,1,150
288,224,10436,2,0,P|248:204|200:212,1,75
104,188,10686,5,0,0:0:0:0:
56,264,10811,1,0,0:0:0:0:
116,332,10936,2,0,L|196:324,1,75
256,200,11186,1,0,0:0:0:0:
256,200,11311,2,0,L|344:224,1,75
328,316,11561,6,0,L|256:336,1,75
408,316,11811,2,0,L|480:335,1,75
416,116,12061,2,0,P|380:160|372:268,1,150
476,212,12436,1,0,0:0:0:0:
304,144,12561,1,0,0:0:0:0:
232,228,12686,6,0,P|240:262|270:287,1,75
188,124,12936,2,0,P|153:114|117:128,1,75
308,152,13186,1,0,0:0:0:0:
308,152,13311,2,0,P|333:126|339:88,1,75
172,100,13561,6,0,L|147:29,1,75
104,216,13811,2,0,L|128:286,1,75
248,308,14061,2,0,L|188:137,1,150
248,52,14436,2,0,L|272:122,1,75
316,224,14686,6,0,L|340:294,1,75
400,160,14936,2,0,L|375:89,1,75
316,224,15186,2,0,L|340:294,2,75
460,136,15561,6,0,P|454:172|428:199,1,75
264,208,15811,2,0,P|263:244|284:275,1,75
420,300,16061,2,0,P|356:346|278:348,1,150
144,236,16436,2,0,P|168:263|205:271,1,75
292,256,16686,5,0,0:0:0:0:
356,192,16811,1,0,0:0:0:0:
328,108,16936,2,0,P|303:81|267:73,1,75
192,112,17186,1,0,0:0:0:0:
180,200,17311,2,0,P|204:226|241:234,1,75
376,168,17561,6,0,L|376:68,1,75
376,252,17811,2,0,L|376:336,1,75
308,208,18061,2,0,L|200:208,1,75
144,208,18311,2,0,L|60:208,2,75
233,208,18686,6,0,P|269:143|335:110,3,150,0|0|0|0,2:0|2:0|2:0|2:0,2:0:0:0:
416,112,19686,2,0,L|384:272,1,150
260,192,20186,2,0,L|304:336,1,150
408,296,20686,6,0,P|444:220|420:128,2,150
276,320,21436,1,0,0:0:0:0:
156,260,21686,6,0,L|96:208,1,75
248,192,21936,2,0,L|300:128,1,75
160,296,22186,2,0,L|100:244,1,75
252,228,22436,2,0,L|304:164,1,75
164,332,22686,6,0,L|104:280,1,75
256,264,22936,2,0,P|280:216|364:176,1,150
444,232,23311,2,0,L|408:320,1,75
356,348,23561,2,0,P|304:316|196:320,1,150
112,328,23936,1,0,0:0:0:0:
312,212,24186,1,0,0:0:0:0:
176,208,24436,1,0,0:0:0:0:
400,324,24686,6,0,P|368:252|280:204,1,150
308,80,25186,2,0,L|288:160,1,75
264,236,25436,1,0,0:0:0:0:
108,164,25686,2,0,L|150:234,1,75
187,305,25936,1,0,0:0:0:0:
400,244,26186,2,0,L|334:293,1,75
268,337,26436,1,0,0:0:0:0:
388,116,26686,6,0,L|344:180,1,75
288,256,26936,1,0,0:0:0:0:
204,52,27186,2,0,P|148:28|156:104,1,150
180,144,27561,1,0,0:0:0:0:
304,136,27686,6,0,L|368:80,1,75
404,208,27936,2,0,L|504:200,1,75
292,168,28186,2,0,L|356:112,1,75
392,240,28436,2,0,L|492:232,1,75
276,196,28686,6,0,L|340:140,1,75
496,136,28936,2,0,P|384:204|392:292,1,225
436,308,29436,2,0,L|344:356,1,75
220,340,29686,6,0,L|152:292,1,75
232,208,29936,2,0,L|200:136,1,75
220,312,30186,2,0,L|152:264,1,75
232,180,30436,2,0,L|200:108,1,75
372,112,30686,6,0,L|236:16,1,150
152,48,31061,2,0,P|126:89|119:136,1,75,8|0,0:0|0:0,0:0:0:0:
200,156,31311,2,0,P|226:197|233:244,1,75,8|0,0:0|0:0,0:0:0:0:
64,300,31686,6,0,L|224:336,1,150
260,264,32061,2,0,P|297:261|333:271,1,75
392,340,32311,2,0,P|429:342|465:332,1,75
440,92,32686,6,0,P|414:133|407:180,1,75,8|0,0:0|0:0,0:0:0:0:
348,116,32936,2,0,P|341:164|355:209,1,75,8|0,0:0|0:0,0:0:0:0:
276,180,33186,2,0,P|290:226|322:261,1,75,8|0,0:0|0:0,0:0:0:0:
240,272,33436,2,0,P|272:307|316:326,1,75,8|0,0:0|0:0,0:0:0:0:
428,44,33686,6,0,P|402:85|395:132,1,75,8|0,0:0|0:0,0:0:0:0:
336,68,33936,2,0,P|329:116|343:161,1,75,8|0,0:0|0:0,0:0:0:0:
264,132,34186,2,0,P|278:178|310:213,1,75,8|0,0:0|0:0,0:0:0:0:
228,224,34436,2,0,P|260:259|304:278,1,75,8|0,0:0|0:0,0:0:0:0:
428,44,34686,5,0,0:0:0:0:
428,44,42686,6,0,P|402:85|395:132,1,75,8|0,0:0|0:0,0:0:0:0:
452,200,42936,2,0,P|438:246|408:283,1,75,8|0,0:0|0:0,0:0:0:0:
320,316,43186,1,0,0:0:0:0:
320,316,43311,2,0,P|280:310|242:322,1,75,8|0,0:0|0:0,0:0:0:0:
120,196,43561,2,0,P|133:242|163:279,1,75,8|0,0:0|0:0,0:0:0:0:
308,176,43811,2,0,P|294:222|264:259,1,75,8|0,0:0|0:0,0:0:0:0:
128,164,44061,2,0,P|141:210|171:247,1,75,8|0,0:0|0:0,0:0:0:0:
246,319,44311,1,0,0:0:0:0:
246,319,44436,2,0,P|283:310|320:316,1,75,8|0,0:0|0:0,0:0:0:0:
440,336,44686,6,0,L|388:256,1,75
433,206,44936,2,0,L|389:291,1,75
324,276,45186,1,0,0:0:0:0:
324,276,45311,2,0,L|419:270,1,75
216,320,45561,6,0,P|222:283|243:252,1,75,8|0,0:0|0:0,0:0:0:0:
324,152,45811,2,0,P|288:164|251:162,1,75,8|0,0:0|0:0,0:0:0:0:
122,140,46061,2,0,P|150:164|167:197,1,75,8|0,0:0|0:0,0:0:0:0:
216,320,46311,1,0,0:0:0:0:
216,320,46436,2,0,P|222:283|243:252,1,75,8|0,0:0|0:0,0:0:0:0:
376,140,46686,6,0,P|369:176|348:207,1,75,8|0,0:0|0:0,0:0:0:0:
242,252,46936,2,0,P|271:275|287:309,1,75,8|0,0:0|0:0,0:0:0:0:
